  0
SECTION
  2
HEADER
  9
$ACADVER
  1
AC1015
  9
$ACADMAINTVER
 70
    10
  9
$DWGCODEPAGE
  3
ANSI_1252
  9
$INSBASE
 10
0.0000000000000568
 20
0.0000000000000568
 30
0.0
  9
$EXTMIN
 10
-74.99999999999994
 20
-192.5611332061583
 30
0.0
  9
$EXTMAX
 10
266.7666963295965
 20
55.00000000000007
 30
0.0
  9
$LIMMIN
 10
0.0
 20
0.0
  9
$LIMMAX
 10
420.0
 20
297.0
  9
$ORTHOMODE
 70
     0
  9
$REGENMODE
 70
     1
  9
$FILLMODE
 70
     1
  9
$QTEXTMODE
 70
     0
  9
$MIRRTEXT
 70
     1
  9
$LTSCALE
 40
0.25
  9
$ATTMODE
 70
     1
  9
$TEXTSIZE
 40
5.0
  9
$TRACEWID
 40
10.0
  9
$TEXTSTYLE
  7
ROMANS
  9
$CLAYER
  8
0
  9
$CELTYPE
  6
BYLAYER
  9
$CECOLOR
 62
   256
  9
$CELTSCALE
 40
1.0
  9
$DISPSILH
 70
     0
  9
$DIMSCALE
 40
0.0
  9
$DIMASZ
 40
4.0
  9
$DIMEXO
 40
3.0
  9
$DIMDLI
 40
10.0
  9
$DIMRND
 40
0.0
  9
$DIMDLE
 40
1.25
  9
$DIMEXE
 40
3.0
  9
$DIMTP
 40
0.0
  9
$DIMTM
 40
0.0
  9
$DIMTXT
 40
3.0
  9
$DIMCEN
 40
-3.0
  9
$DIMTSZ
 40
0.0
  9
$DIMTOL
 70
     0
  9
$DIMLIM
 70
     0
  9
$DIMTIH
 70
     0
  9
$DIMTOH
 70
     0
  9
$DIMSE1
 70
     0
  9
$DIMSE2
 70
     0
  9
$DIMTAD
 70
     1
  9
$DIMZIN
 70
    12
  9
$DIMBLK
  1

  9
$DIMASO
 70
     1
  9
$DIMSHO
 70
     0
  9
$DIMPOST
  1

  9
$DIMAPOST
  1

  9
$DIMALT
 70
     0
  9
$DIMALTD
 70
     2
  9
$DIMALTF
 40
0.039
  9
$DIMLFAC
 40
1.0
  9
$DIMTOFL
 70
     0
  9
$DIMTVP
 40
0.0
  9
$DIMTIX
 70
     0
  9
$DIMSOXD
 70
     0
  9
$DIMSAH
 70
     0
  9
$DIMBLK1
  1

  9
$DIMBLK2
  1

  9
$DIMSTYLE
  2
1-2
  9
$DIMCLRD
 70
     0
  9
$DIMCLRE
 70
     0
  9
$DIMCLRT
 70
     0
  9
$DIMTFAC
 40
0.75
  9
$DIMGAP
 40
1.5
  9
$DIMJUST
 70
     0
  9
$DIMSD1
 70
     0
  9
$DIMSD2
 70
     0
  9
$DIMTOLJ
 70
     1
  9
$DIMTZIN
 70
    12
  9
$DIMALTZ
 70
    12
  9
$DIMALTTZ
 70
    12
  9
$DIMUPT
 70
     0
  9
$DIMDEC
 70
     2
  9
$DIMTDEC
 70
     2
  9
$DIMALTU
 70
     2
  9
$DIMALTTD
 70
     2
  9
$DIMTXSTY
  7
ROMANS
  9
$DIMAUNIT
 70
     0
  9
$DIMADEC
 70
     0
  9
$DIMALTRND
 40
0.0
  9
$DIMAZIN
 70
     0
  9
$DIMDSEP
 70
    46
  9
$DIMATFIT
 70
     3
  9
$DIMFRAC
 70
     0
  9
$DIMLDRBLK
  1

  9
$DIMLUNIT
 70
     2
  9
$DIMLWD
 70
    -2
  9
$DIMLWE
 70
    -2
  9
$DIMTMOVE
 70
     2
  9
$LUNITS
 70
     2
  9
$LUPREC
 70
     2
  9
$SKETCHINC
 40
1.0
  9
$FILLETRAD
 40
0.0
  9
$AUNITS
 70
     0
  9
$AUPREC
 70
     4
  9
$MENU
  1
acad
  9
$ELEVATION
 40
0.0
  9
$PELEVATION
 40
0.0
  9
$THICKNESS
 40
0.0
  9
$LIMCHECK
 70
     0
  9
$CHAMFERA
 40
0.0
  9
$CHAMFERB
 40
0.0
  9
$CHAMFERC
 40
0.0
  9
$CHAMFERD
 40
0.0
  9
$SKPOLY
 70
     0
  9
$TDCREATE
 40
2449527.571155092
  9
$TDUCREATE
 40
2449527.529488425
  9
$TDUPDATE
 40
2452498.535549537
  9
$TDUUPDATE
 40
2452498.493882870
  9
$TDINDWG
 40
0.2729844907
  9
$TDUSRTIMER
 40
0.2729844907
  9
$USRTIMER
 70
     1
  9
$ANGBASE
 50
0.0
  9
$ANGDIR
 70
     0
  9
$PDMODE
 70
     0
  9
$PDSIZE
 40
0.0
  9
$PLINEWID
 40
0.0
  9
$SPLFRAME
 70
     0
  9
$SPLINETYPE
 70
     6
  9
$SPLINESEGS
 70
     8
  9
$HANDSEED
  5
A9
  9
$SURFTAB1
 70
    18
  9
$SURFTAB2
 70
    18
  9
$SURFTYPE
 70
     6
  9
$SURFU
 70
    18
  9
$SURFV
 70
    18
  9
$UCSBASE
  2

  9
$UCSNAME
  2

  9
$UCSORG
 10
0.0
 20
0.0
 30
0.0
  9
$UCSXDIR
 10
1.0
 20
0.0
 30
0.0
  9
$UCSYDIR
 10
0.0
 20
1.0
 30
0.0
  9
$UCSORTHOREF
  2

  9
$UCSORTHOVIEW
 70
     0
  9
$UCSORGTOP
 10
0.0
 20
0.0
 30
0.0
  9
$UCSORGBOTTOM
 10
0.0
 20
0.0
 30
0.0
  9
$UCSORGLEFT
 10
0.0
 20
0.0
 30
0.0
  9
$UCSORGRIGHT
 10
0.0
 20
0.0
 30
0.0
  9
$UCSORGFRONT
 10
0.0
 20
0.0
 30
0.0
  9
$UCSORGBACK
 10
0.0
 20
0.0
 30
0.0
  9
$PUCSBASE
  2

  9
$PUCSNAME
  2

  9
$PUCSORG
 10
0.0
 20
0.0
 30
0.0
  9
$PUCSXDIR
 10
1.0
 20
0.0
 30
0.0
  9
$PUCSYDIR
 10
0.0
 20
1.0
 30
0.0
  9
$PUCSORTHOREF
  2

  9
$PUCSORTHOVIEW
 70
     0
  9
$PUCSORGTOP
 10
0.0
 20
0.0
 30
0.0
  9
$PUCSORGBOTTOM
 10
0.0
 20
0.0
 30
0.0
  9
$PUCSORGLEFT
 10
0.0
 20
0.0
 30
0.0
  9
$PUCSORGRIGHT
 10
0.0
 20
0.0
 30
0.0
  9
$PUCSORGFRONT
 10
0.0
 20
0.0
 30
0.0
  9
$PUCSORGBACK
 10
0.0
 20
0.0
 30
0.0
  9
$USERI1
 70
     0
  9
$USERI2
 70
     0
  9
$USERI3
 70
     0
  9
$USERI4
 70
     0
  9
$USERI5
 70
     0
  9
$USERR1
 40
0.0
  9
$USERR2
 40
0.0
  9
$USERR3
 40
0.0
  9
$USERR4
 40
0.0
  9
$USERR5
 40
0.0
  9
$WORLDVIEW
 70
     1
  9
$SHADEDGE
 70
     3
  9
$SHADEDIF
 70
    70
  9
$TILEMODE
 70
     1
  9
$MAXACTVP
 70
    16
  9
$PINSBASE
 10
0.0
 20
0.0
 30
0.0
  9
$PLIMCHECK
 70
     0
  9
$PEXTMIN
 10
1.000000000000000E+20
 20
1.000000000000000E+20
 30
1.000000000000000E+20
  9
$PEXTMAX
 10
-1.000000000000000E+20
 20
-1.000000000000000E+20
 30
-1.000000000000000E+20
  9
$PLIMMIN
 10
0.0
 20
0.0
  9
$PLIMMAX
 10
420.0
 20
297.0
  9
$UNITMODE
 70
     0
  9
$VISRETAIN
 70
     0
  9
$PLINEGEN
 70
     0
  9
$PSLTSCALE
 70
     1
  9
$TREEDEPTH
 70
  3020
  9
$CMLSTYLE
  2
STANDARD
  9
$CMLJUST
 70
     0
  9
$CMLSCALE
 40
1.0
  9
$PROXYGRAPHICS
 70
     1
  9
$MEASUREMENT
 70
     0
  9
$CELWEIGHT
370
    -1
  9
$ENDCAPS
280
     0
  9
$JOINSTYLE
280
     0
  9
$LWDISPLAY
290
     0
  9
$INSUNITS
 70
     0
  9
$HYPERLINKBASE
  1

  9
$STYLESHEET
  1

  9
$XEDIT
290
     1
  9
$CEPSNTYPE
380
     0
  9
$PSTYLEMODE
290
     1
  9
$FINGERPRINTGUID
  2
{627E281B-AD1D-11D6-AAC6-0010A4A25215}
  9
$VERSIONGUID
  2
{627E2822-AD1D-11D6-AAC6-0010A4A25215}
  9
$EXTNAMES
290
     1
  9
$PSVPSCALE
 40
0.0
  9
$OLESTARTUP
290
     0
  0
ENDSEC
  0
SECTION
  2
CLASSES
  0
CLASS
  1
DICTIONARYVAR
  2
AcDbDictionaryVar
  3
AutoCAD 2000
 90
    32768
280
     0
281
     0
  0
CLASS
  1
LWPOLYLINE
  2
AcDbPolyline
  3
AutoCAD 2000
 90
    32768
280
     0
281
     1
  0
CLASS
  1
ACDBDICTIONARYWDFLT
  2
AcDbDictionaryWithDefault
  3
AutoCAD 2000
 90
        0
280
     0
281
     0
  0
CLASS
  1
ACDBPLACEHOLDER
  2
AcDbPlaceHolder
  3
AutoCAD 2000
 90
        0
280
     0
281
     0
  0
CLASS
  1
LAYOUT
  2
AcDbLayout
  3
AutoCAD 2000
 90
        0
280
     0
281
     0
  0
ENDSEC
  0
SECTION
  2
TABLES
  0
TABLE
  2
VPORT
  5
12
330
0
100
AcDbSymbolTable
 70
     3
  0
VPORT
  5
A8
330
12
100
AcDbSymbolTableRecord
100
AcDbViewportTableRecord
  2
*Active
 70
     0
 10
0.0
 20
0.0
 11
1.0
 21
1.0
 12
147.8798180471344
 22
-72.21624219363042
 13
0.0
 23
0.0
 14
5.0
 24
5.0
 15
10.0
 25
10.0
 16
0.0
 26
0.0
 36
1.0
 17
0.0
 27
0.0
 37
0.0
 40
431.2626807866141
 41
1.760948905109489
 42
50.0
 43
0.0
 44
0.0
 50
0.0
 51
0.0
 71
     0
 72
   100
 73
     1
 74
     1
 75
     0
 76
     0
 77
     0
 78
     0
281
     0
 65
     1
110
0.0
120
0.0
130
0.0
111
1.0
121
0.0
131
0.0
112
0.0
122
1.0
132
0.0
 79
     0
146
0.0
  0
ENDTAB
  0
TABLE
  2
LTYPE
  5
D
330
0
100
AcDbSymbolTable
 70
     2
  0
LTYPE
  5
E
330
D
100
AcDbSymbolTableRecord
100
AcDbLinetypeTableRecord
  2
BYBLOCK
 70
     0
  3

 72
    65
 73
     0
 40
0.0
  0
LTYPE
  5
F
330
D
100
AcDbSymbolTableRecord
100
AcDbLinetypeTableRecord
  2
BYLAYER
 70
     0
  3

 72
    65
 73
     0
 40
0.0
  0
LTYPE
  5
5
330
D
100
AcDbSymbolTableRecord
100
AcDbLinetypeTableRecord
  2
CONTINUOUS
 70
     0
  3
Solid line
 72
    65
 73
     0
 40
0.0
  0
LTYPE
  5
2E
330
D
100
AcDbSymbolTableRecord
100
AcDbLinetypeTableRecord
  2
CENTER2
 70
     0
  3
___ _ ___ _ ___ _ ___ _ ___ _ ___ _ ___ _ ___ _
 72
    65
 73
     4
 40
28.57499999999999
 49
19.05
 74
     0
 49
-3.174999999999999
 74
     0
 49
3.174999999999999
 74
     0
 49
-3.174999999999999
 74
     0
  0
ENDTAB
  0
TABLE
  2
LAYER
  5
A
330
0
100
AcDbSymbolTable
 70
     7
  0
LAYER
  5
4
330
A
100
AcDbSymbolTableRecord
100
AcDbLayerTableRecord
  2
0
 70
     0
 62
     7
  6
CONTINUOUS
370
    -3
390
9F
  0
LAYER
  5
2D
330
A
100
AcDbSymbolTableRecord
100
AcDbLayerTableRecord
  2
DIMS
 70
     0
 62
     1
  6
CONTINUOUS
370
    -3
390
9F
  0
LAYER
  5
5D
330
A
100
AcDbSymbolTableRecord
100
AcDbLayerTableRecord
  2
ANCON-DSD
 70
     0
 62
     3
  6
CONTINUOUS
370
    -3
390
9F
  0
LAYER
  5
3C
330
A
100
AcDbSymbolTableRecord
100
AcDbLayerTableRecord
  2
DEFPOINTS
 70
     0
 62
     7
  6
CONTINUOUS
290
     0
370
    -3
390
9F
  0
LAYER
  5
26
330
A
100
AcDbSymbolTableRecord
100
AcDbLayerTableRecord
  2
ANCON-TEXT
 70
     0
 62
     6
  6
CONTINUOUS
370
    -3
390
9F
  0
LAYER
  5
31
330
A
100
AcDbSymbolTableRecord
100
AcDbLayerTableRecord
  2
SPECP
 70
     0
 62
     6
  6
CONTINUOUS
370
    -3
390
9F
  0
LAYER
  5
1F
330
A
100
AcDbSymbolTableRecord
100
AcDbLayerTableRecord
  2
SPECD
 70
     0
 62
     6
  6
CONTINUOUS
370
    -3
390
9F
  0
ENDTAB
  0
TABLE
  2
STYLE
  5
B
330
0
100
AcDbSymbolTable
 70
     2
  0
STYLE
  5
C
330
B
100
AcDbSymbolTableRecord
100
AcDbTextStyleTableRecord
  2
STANDARD
 70
     0
 40
0.0
 41
1.0
 50
0.0
 71
     0
 42
6.0
  3
txt.shx
  4

  0
STYLE
  5
1B
330
B
100
AcDbSymbolTableRecord
100
AcDbTextStyleTableRecord
  2
ROMANS
 70
     0
 40
0.0
 41
1.0
 50
0.0
 71
     0
 42
5.0
  3
romans
  4

  0
ENDTAB
  0
TABLE
  2
VIEW
  5
10
330
0
100
AcDbSymbolTable
 70
     0
  0
ENDTAB
  0
TABLE
  2
UCS
  5
11
330
0
100
AcDbSymbolTable
 70
     0
  0
ENDTAB
  0
TABLE
  2
APPID
  5
14
330
0
100
AcDbSymbolTable
 70
     1
  0
APPID
  5
15
330
14
100
AcDbSymbolTableRecord
100
AcDbRegAppTableRecord
  2
ACAD
 70
     0
  0
ENDTAB
  0
TABLE
  2
DIMSTYLE
  5
16
330
0
100
AcDbSymbolTable
 70
     2
100
AcDbDimStyleTable
 71
     0
  0
DIMSTYLE
105
33
102
{ACAD_REACTORS
330
4E
330
41
330
32
102
}
330
16
100
AcDbSymbolTableRecord
100
AcDbDimStyleTableRecord
  2
1-1
 70
     0
 40
0.0
 41
2.0
 42
4.5
 43
10.0
 44
1.5
 46
1.25
 73
     0
 74
     0
 77
     1
 78
    12
140
1.5
141
-3.0
143
0.039
145
3.0
146
1.5
147
1.5
271
     2
272
     2
279
     2
284
    12
285
    12
286
    12
340
1B
  0
DIMSTYLE
105
1D
330
16
100
AcDbSymbolTableRecord
100
AcDbDimStyleTableRecord
  2
1-2
 70
     0
 40
0.0
 41
4.0
 42
3.0
 43
10.0
 44
3.0
 46
1.25
 73
     0
 74
     0
 77
     1
 78
    12
140
3.0
141
-3.0
143
0.039
146
0.75
147
1.5
271
     2
272
     2
279
     2
284
    12
285
    12
286
    12
340
1B
  0
ENDTAB
  0
TABLE
  2
BLOCK_RECORD
  5
1
330
0
100
AcDbSymbolTable
 70
     3
  0
BLOCK_RECORD
  5
2
330
1
100
AcDbSymbolTableRecord
100
AcDbBlockTableRecord
  2
*MODEL_SPACE
340
A2
  0
BLOCK_RECORD
  5
7
330
1
100
AcDbSymbolTableRecord
100
AcDbBlockTableRecord
  2
*PAPER_SPACE
340
A3
  0
BLOCK_RECORD
  5
4F
330
1
100
AcDbSymbolTableRecord
100
AcDbBlockTableRecord
  2
*D0
340
0
  0
BLOCK_RECORD
  5
42
330
1
100
AcDbSymbolTableRecord
100
AcDbBlockTableRecord
  2
*D1
340
0
  0
BLOCK_RECORD
  5
34
330
1
100
AcDbSymbolTableRecord
100
AcDbBlockTableRecord
  2
*D2
340
0
  0
ENDTAB
  0
ENDSEC
  0
SECTION
  2
BLOCKS
  0
BLOCK
  5
3
330
2
100
AcDbEntity
  8
0
100
AcDbBlockBegin
  2
*MODEL_SPACE
 70
     0
 10
0.0
 20
0.0
 30
0.0
  3
*MODEL_SPACE
  1

  0
ENDBLK
  5
6
330
2
100
AcDbEntity
  8
0
100
AcDbBlockEnd
  0
BLOCK
  5
8
330
7
100
AcDbEntity
 67
     1
  8
0
100
AcDbBlockBegin
  2
*PAPER_SPACE
 70
     0
 10
0.0
 20
0.0
 30
0.0
  3
*PAPER_SPACE
  1

  0
ENDBLK
  5
9
330
7
100
AcDbEntity
 67
     1
  8
0
100
AcDbBlockEnd
  0
BLOCK
  5
59
330
4F
100
AcDbEntity
  8
0
100
AcDbBlockBegin
  2
*D0
 70
     1
 10
0.0
 20
0.0
 30
0.0
  3
*D0
  1

  0
LINE
  5
50
330
4F
100
AcDbEntity
  8
0
  6
ByBlock
 62
     0
100
AcDbLine
 10
-29.99999999999994
 20
-54.49999999999994
 30
0.0
 11
-29.99999999999994
 21
-68.74569716939561
 31
0.0
  0
LINE
  5
51
330
4F
100
AcDbEntity
  8
0
  6
ByBlock
 62
     0
100
AcDbLine
 10
30.00000000000005
 20
-54.49999999999994
 30
0.0
 11
30.00000000000005
 21
-68.74569716939561
 31
0.0
  0
LINE
  5
52
330
4F
100
AcDbEntity
  8
0
  6
ByBlock
 62
     0
100
AcDbLine
 10
-27.99999999999994
 20
-67.24569716939561
 30
0.0
 11
28.00000000000006
 21
-67.24569716939561
 31
0.0
  0
SOLID
  5
53
330
4F
100
AcDbEntity
  8
0
  6
ByBlock
 62
     0
100
AcDbTrace
 10
-27.99999999999994
 20
-66.91236383606228
 30
0.0
 11
-27.99999999999994
 21
-67.57903050272894
 31
0.0
 12
-29.99999999999994
 22
-67.24569716939561
 32
0.0
 13
-29.99999999999994
 23
-67.24569716939561
 33
0.0
  0
SOLID
  5
54
330
4F
100
AcDbEntity
  8
0
  6
ByBlock
 62
     0
100
AcDbTrace
 10
28.00000000000006
 20
-66.91236383606228
 30
0.0
 11
28.00000000000006
 21
-67.57903050272894
 31
0.0
 12
30.00000000000005
 22
-67.24569716939561
 32
0.0
 13
30.00000000000005
 23
-67.24569716939561
 33
0.0
  0
TEXT
  5
55
330
4F
100
AcDbEntity
  8
0
  6
ByBlock
 62
     0
100
AcDbText
 10
-1.464285714285657
 20
-66.49569716939561
 30
0.0
 40
1.5
  1
60
  7
ROMANS
 72
     1
 11
0.0000000000000568
 21
-65.74569716939561
 31
0.0
100
AcDbText
 73
     2
  0
POINT
  5
56
330
4F
100
AcDbEntity
  8
DEFPOINTS
  6
ByBlock
 62
     0
100
AcDbPoint
 10
-29.99999999999994
 20
-49.99999999999994
 30
0.0
  0
POINT
  5
57
330
4F
100
AcDbEntity
  8
DEFPOINTS
  6
ByBlock
 62
     0
100
AcDbPoint
 10
30.00000000000005
 20
-49.99999999999994
 30
0.0
  0
POINT
  5
58
330
4F
100
AcDbEntity
  8
DEFPOINTS
  6
ByBlock
 62
     0
100
AcDbPoint
 10
30.00000000000005
 20
-67.24569716939561
 30
0.0
  0
ENDBLK
  5
5A
330
4F
100
AcDbEntity
  8
0
100
AcDbBlockEnd
  0
BLOCK
  5
4C
330
42
100
AcDbEntity
  8
0
100
AcDbBlockBegin
  2
*D1
 70
     1
 10
0.0
 20
0.0
 30
0.0
  3
*D1
  1

  0
LINE
  5
43
330
42
100
AcDbEntity
  8
0
  6
ByBlock
 62
     0
100
AcDbLine
 10
-39.99999999999994
 20
-9.499999999999943
 30
0.0
 11
-39.99999999999994
 21
-79.72933982484699
 31
0.0
  0
LINE
  5
44
330
42
100
AcDbEntity
  8
0
  6
ByBlock
 62
     0
100
AcDbLine
 10
40.00000000000006
 20
-9.499999999999943
 30
0.0
 11
40.00000000000006
 21
-79.72933982484699
 31
0.0
  0
LINE
  5
45
330
42
100
AcDbEntity
  8
0
  6
ByBlock
 62
     0
100
AcDbLine
 10
-37.99999999999994
 20
-78.22933982484698
 30
0.0
 11
38.00000000000006
 21
-78.22933982484698
 31
0.0
  0
SOLID
  5
46
330
42
100
AcDbEntity
  8
0
  6
ByBlock
 62
     0
100
AcDbTrace
 10
-37.99999999999994
 20
-77.89600649151366
 30
0.0
 11
-37.99999999999994
 21
-78.56267315818032
 31
0.0
 12
-39.99999999999994
 22
-78.22933982484698
 32
0.0
 13
-39.99999999999994
 23
-78.22933982484698
 33
0.0
  0
SOLID
  5
47
330
42
100
AcDbEntity
  8
0
  6
ByBlock
 62
     0
100
AcDbTrace
 10
38.00000000000006
 20
-77.89600649151366
 30
0.0
 11
38.00000000000006
 21
-78.56267315818032
 31
0.0
 12
40.00000000000006
 22
-78.22933982484698
 32
0.0
 13
40.00000000000006
 23
-78.22933982484698
 33
0.0
  0
TEXT
  5
48
330
42
100
AcDbEntity
  8
0
  6
ByBlock
 62
     0
100
AcDbText
 10
-1.428571428571371
 20
-77.47933982484699
 30
0.0
 40
1.5
  1
80
  7
ROMANS
 72
     1
 11
0.0000000000000568
 21
-76.72933982484699
 31
0.0
100
AcDbText
 73
     2
  0
POINT
  5
49
330
42
100
AcDbEntity
  8
DEFPOINTS
  6
ByBlock
 62
     0
100
AcDbPoint
 10
-39.99999999999994
 20
-4.999999999999943
 30
0.0
  0
POINT
  5
4A
330
42
100
AcDbEntity
  8
DEFPOINTS
  6
ByBlock
 62
     0
100
AcDbPoint
 10
40.00000000000006
 20
-4.999999999999943
 30
0.0
  0
POINT
  5
4B
330
42
100
AcDbEntity
  8
DEFPOINTS
  6
ByBlock
 62
     0
100
AcDbPoint
 10
40.00000000000006
 20
-78.22933982484698
 30
0.0
  0
ENDBLK
  5
4D
330
42
100
AcDbEntity
  8
0
100
AcDbBlockEnd
  0
BLOCK
  5
3F
330
34
100
AcDbEntity
  8
0
100
AcDbBlockBegin
  2
*D2
 70
     1
 10
0.0
 20
0.0
 30
0.0
  3
*D2
  1

  0
LINE
  5
35
330
34
100
AcDbEntity
  8
0
  6
ByBlock
 62
     0
100
AcDbLine
 10
-69.99999999999994
 20
-9.499999999999943
 30
0.0
 11
-69.99999999999994
 21
-91.80427176886009
 31
0.0
  0
LINE
  5
36
330
34
100
AcDbEntity
  8
0
  6
ByBlock
 62
     0
100
AcDbLine
 10
70.00000000000006
 20
-9.499999999999943
 30
0.0
 11
70.00000000000006
 21
-91.80427176886009
 31
0.0
  0
LINE
  5
37
330
34
100
AcDbEntity
  8
0
  6
ByBlock
 62
     0
100
AcDbLine
 10
-67.99999999999994
 20
-90.30427176886009
 30
0.0
 11
68.00000000000006
 21
-90.30427176886009
 31
0.0
  0
SOLID
  5
38
330
34
100
AcDbEntity
  8
0
  6
ByBlock
 62
     0
100
AcDbTrace
 10
-67.99999999999994
 20
-89.97093843552676
 30
0.0
 11
-67.99999999999994
 21
-90.63760510219342
 31
0.0
 12
-69.99999999999994
 22
-90.30427176886009
 32
0.0
 13
-69.99999999999994
 23
-90.30427176886009
 33
0.0
  0
SOLID
  5
39
330
34
100
AcDbEntity
  8
0
  6
ByBlock
 62
     0
100
AcDbTrace
 10
68.00000000000006
 20
-89.97093843552676
 30
0.0
 11
68.00000000000006
 21
-90.63760510219342
 31
0.0
 12
70.00000000000006
 22
-90.30427176886009
 32
0.0
 13
70.00000000000006
 23
-90.30427176886009
 33
0.0
  0
TEXT
  5
3A
330
34
100
AcDbEntity
  8
0
  6
ByBlock
 62
     0
100
AcDbText
 10
-2.249999999999942
 20
-89.5542717688601
 30
0.0
 40
1.5
  1
140
  7
ROMANS
 72
     1
 11
0.0000000000000568
 21
-88.80427176886009
 31
0.0
100
AcDbText
 73
     2
  0
POINT
  5
3B
330
34
100
AcDbEntity
  8
DEFPOINTS
  6
ByBlock
 62
     0
100
AcDbPoint
 10
-69.99999999999994
 20
-4.999999999999943
 30
0.0
  0
POINT
  5
3D
330
34
100
AcDbEntity
  8
DEFPOINTS
  6
ByBlock
 62
     0
100
AcDbPoint
 10
70.00000000000006
 20
-4.999999999999943
 30
0.0
  0
POINT
  5
3E
330
34
100
AcDbEntity
  8
DEFPOINTS
  6
ByBlock
 62
     0
100
AcDbPoint
 10
70.00000000000006
 20
-90.30427176886009
 30
0.0
  0
ENDBLK
  5
40
330
34
100
AcDbEntity
  8
0
100
AcDbBlockEnd
  0
ENDSEC
  0
SECTION
  2
ENTITIES
  0
TEXT
  5
1E
330
2
100
AcDbEntity
  8
SPECD
  6
Continuous
 62
     6
100
AcDbText
 10
68.5714794277958
 20
-148.768240160378
 30
0.0
 40
5.0
  1
TWO PART STAINLESS STEEL SHEAR CONNECTOR
  7
ROMANS
 72
     4
 11
161.1905270468435
 21
-146.268240160378
 31
0.0
100
AcDbText
  0
TEXT
  5
20
330
2
100
AcDbEntity
  8
SPECD
  6
Continuous
 62
     6
100
AcDbText
 10
67.85029502173998
 20
-158.8729524861686
 30
0.0
 40
5.0
  1
COMPRISING SLEEVE AND DOWEL COMPONENT
  7
ROMANS
 72
     4
 11
155.8264854979305
 21
-156.3729524861686
 31
0.0
100
AcDbText
  0
TEXT
  5
21
330
2
100
AcDbEntity
  8
SPECD
  6
Continuous
 62
     6
100
AcDbText
 10
68.36342695174768
 20
-178.8231576097675
 30
0.0
 40
5.0
  1
AND CAPABLE OF TRANSFERRING A SERVICEABILITY
  7
ROMANS
 72
     4
 11
165.7443793327
 21
-176.3231576097675
 31
0.0
100
AcDbText
  0
LINE
  5
22
330
2
100
AcDbEntity
  8
SPECD
  6
Continuous
 62
     6
100
AcDbLine
 10
64.27974622295619
 20
-192.5611332061583
 30
0.0
 11
266.7666963295965
 21
-192.5611332061583
 31
0.0
  0
LINE
  5
23
330
2
100
AcDbEntity
  8
SPECD
  6
Continuous
 62
     6
100
AcDbLine
 10
64.27974622295619
 20
-139.527440620608
 30
0.0
 11
266.7666963295965
 21
-139.527440620608
 31
0.0
  0
TEXT
  5
24
330
2
100
AcDbEntity
  8
SPECD
  6
Continuous
 62
     6
100
AcDbText
 10
67.90899178179762
 20
-168.7741001958384
 30
0.0
 40
5.0
  1
SUITABLE FOR A DESIGN JOINT WIDTH OF ?? MM
  7
ROMANS
 72
     4
 11
162.78994416275
 21
-166.2741001958384
 31
0.0
100
AcDbText
  0
LINE
  5
25
330
2
100
AcDbEntity
  8
ANCON-TEXT
  6
Continuous
 62
     6
100
AcDbLine
 10
90.3126430081995
 20
-1.776457382585789
 30
0.0
 11
265.6913207000619
 21
-1.776457382585846
 31
0.0
  0
LINE
  5
27
330
2
100
AcDbEntity
  8
ANCON-TEXT
  6
Continuous
 62
     6
100
AcDbLine
 10
90.31264300819954
 20
25.25102769246129
 30
0.0
 11
265.691320700062
 21
25.25102769246129
 31
0.0
  0
LINE
  5
28
330
2
100
AcDbEntity
  8
ANCON-TEXT
  6
Continuous
 62
     6
100
AcDbLine
 10
90.3126430081995
 20
51.321788751507
 30
0.0
 11
265.6913207000619
 21
51.32178875150694
 31
0.0
  0
TEXT
  5
29
330
2
100
AcDbEntity
  8
ANCON-TEXT
  6
Continuous
 62
     6
100
AcDbText
 10
145.4163113730884
 20
41.05607259196531
 30
0.0
 40
5.0
  1
DESIGN JOINT
  7
ROMANS
 72
     4
 11
171.487739944517
 21
43.55607259196531
 31
0.0
100
AcDbText
  0
TEXT
  5
2A
330
2
100
AcDbEntity
  8
ANCON-TEXT
  6
Continuous
 62
     6
100
AcDbText
 10
161.8171547392758
 20
9.039099710512715
 30
0.0
 40
5.0
  1
?? MM
  7
ROMANS
 72
     4
 11
174.1981071202282
 21
11.53909971051271
 31
0.0
100
AcDbText
  0
TEXT
  5
2B
330
2
100
AcDbEntity
  8
ANCON-TEXT
  6
Continuous
 62
     6
100
AcDbText
 10
160.8925018492789
 20
30.1584492043464
 30
0.0
 40
5.0
  1
WIDTH
  7
ROMANS
 72
     4
 11
171.487739944517
 21
32.6584492043464
 31
0.0
100
AcDbText
  0
LINE
  5
2C
330
2
100
AcDbEntity
  8
DIMS
  6
CENTER2
100
AcDbLine
 10
0.0000000000000568
 20
55.00000000000007
 30
0.0
 11
0.0000000000000568
 21
-54.99999999999994
 31
0.0
  0
TEXT
  5
2F
330
2
100
AcDbEntity
  8
SPECD
  6
Continuous
 62
     1
100
AcDbText
 10
-63.14898945833036
 20
-148.7324915338538
 30
0.0
 40
5.0
  1
SPECIFICATION BY DESCRIPTION
  7
ROMANS
 72
     4
 11
-3.506132315473223
 21
-146.2324915338538
 31
0.0
100
AcDbText
  0
TEXT
  5
30
330
2
100
AcDbEntity
  8
SPECP
  6
Continuous
 62
     1
100
AcDbText
 10
-63.29262606795666
 20
-118.7980370693576
 30
0.0
 40
5.0
  1
SPECIFICATION BY PRODUCT
  7
ROMANS
 72
     4
 11
-9.840245115575726
 21
-116.2980370693576
 31
0.0
100
AcDbText
  0
DIMENSION
  5
32
330
2
100
AcDbEntity
  8
DIMS
100
AcDbDimension
  2
*D2
 10
70.00000000000006
 20
-90.30427176886009
 30
0.0
 11
0.0000000000000568
 21
-88.80427176886009
 31
0.0
 71
     5
 42
-1.0
  3
1-1
100
AcDbAlignedDimension
 13
-69.99999999999994
 23
-4.999999999999943
 33
0.0
 14
70.00000000000006
 24
-4.999999999999943
 34
0.0
100
AcDbRotatedDimension
  0
DIMENSION
  5
41
330
2
100
AcDbEntity
  8
DIMS
100
AcDbDimension
  2
*D1
 10
40.00000000000006
 20
-78.22933982484698
 30
0.0
 11
0.0000000000000568
 21
-76.72933982484699
 31
0.0
 71
     5
 42
-1.0
  3
1-1
100
AcDbAlignedDimension
 13
-39.99999999999994
 23
-4.999999999999943
 33
0.0
 14
40.00000000000006
 24
-4.999999999999943
 34
0.0
100
AcDbRotatedDimension
  0
DIMENSION
  5
4E
330
2
100
AcDbEntity
  8
DIMS
100
AcDbDimension
  2
*D0
 10
30.00000000000005
 20
-67.24569716939561
 30
0.0
 11
0.0000000000000568
 21
-65.74569716939561
 31
0.0
 71
     5
 42
-1.0
  3
1-1
100
AcDbAlignedDimension
 13
-29.99999999999994
 23
-49.99999999999994
 33
0.0
 14
30.00000000000005
 24
-49.99999999999994
 34
0.0
100
AcDbRotatedDimension
  0
LINE
  5
5B
330
2
100
AcDbEntity
  8
DIMS
  6
CENTER2
100
AcDbLine
 10
-74.99999999999994
 20
0.0000000000000568
 30
0.0
 11
75.00000000000006
 21
0.0000000000000568
 31
0.0
  0
ARC
  5
5C
330
2
100
AcDbEntity
  8
ANCON-DSD
100
AcDbCircle
 10
20.50000000000005
 20
32.00000000000005
 30
0.0
 40
3.5
100
AcDbArc
 50
0.0
 51
180.0
  0
ARC
  5
5E
330
2
100
AcDbEntity
  8
ANCON-DSD
100
AcDbCircle
 10
20.50000000000005
 20
-31.99999999999994
 30
0.0
 40
3.5
100
AcDbArc
 50
180.0
 51
0.0
  0
LINE
  5
5F
330
2
100
AcDbEntity
  8
DIMS
  6
CENTER2
100
AcDbLine
 10
-27.49999999999992
 20
-42.99999999999994
 30
0.0
 11
27.65585085078595
 21
-42.99999999999994
 31
0.0
  0
LINE
  5
60
330
2
100
AcDbEntity
  8
DIMS
  6
CENTER2
100
AcDbLine
 10
-27.49999999999994
 20
43.00000000000005
 30
0.0
 11
27.50000000000005
 21
43.00000000000006
 31
0.0
  0
LINE
  5
61
330
2
100
AcDbEntity
  8
ANCON-DSD
100
AcDbLine
 10
-29.99999999999994
 20
-49.99999999999994
 30
0.0
 11
30.00000000000005
 21
-49.99999999999994
 31
0.0
  0
LINE
  5
62
330
2
100
AcDbEntity
  8
ANCON-DSD
100
AcDbLine
 10
-29.99999999999994
 20
50.00000000000006
 30
0.0
 11
30.00000000000005
 21
50.00000000000006
 31
0.0
  0
LINE
  5
63
330
2
100
AcDbEntity
  8
ANCON-DSD
100
AcDbLine
 10
-69.99999999999994
 20
6.000000000000056
 30
0.0
 11
-29.99999999999994
 21
6.000000000000056
 31
0.0
  0
LINE
  5
64
330
2
100
AcDbEntity
  8
ANCON-DSD
100
AcDbLine
 10
-69.99999999999994
 20
-5.999999999999943
 30
0.0
 11
-29.99999999999994
 21
-5.999999999999943
 31
0.0
  0
LINE
  5
65
330
2
100
AcDbEntity
  8
ANCON-DSD
100
AcDbLine
 10
-69.99999999999994
 20
6.000000000000056
 30
0.0
 11
-69.99999999999994
 21
-5.999999999999943
 31
0.0
  0
CIRCLE
  5
66
330
2
100
AcDbEntity
  8
ANCON-DSD
100
AcDbCircle
 10
0.0000000000000568
 20
-19.99999999999994
 30
0.0
 40
8.75
  0
CIRCLE
  5
67
330
2
100
AcDbEntity
  8
ANCON-DSD
100
AcDbCircle
 10
0.0000000000000568
 20
-19.99999999999994
 30
0.0
 40
10.25
  0
LINE
  5
68
330
2
100
AcDbEntity
  8
ANCON-DSD
100
AcDbLine
 10
-23.99999999999994
 20
32.00000000000005
 30
0.0
 11
-23.99999999999994
 21
-31.99999999999994
 31
0.0
  0
LINE
  5
69
330
2
100
AcDbEntity
  8
ANCON-DSD
100
AcDbLine
 10
-16.99999999999994
 20
32.00000000000005
 30
0.0
 11
-16.99999999999994
 21
-31.99999999999994
 31
0.0
  0
LINE
  5
6A
330
2
100
AcDbEntity
  8
DIMS
  6
CENTER2
100
AcDbLine
 10
-20.49999999999994
 20
37.50000000000005
 30
0.0
 11
-20.49999999999994
 21
-37.49999999999994
 31
0.0
  0
LINE
  5
6B
330
2
100
AcDbEntity
  8
ANCON-DSD
100
AcDbLine
 10
17.00000000000005
 20
32.00000000000005
 30
0.0
 11
17.00000000000005
 21
-31.99999999999994
 31
0.0
  0
LINE
  5
6C
330
2
100
AcDbEntity
  8
ANCON-DSD
100
AcDbLine
 10
-29.99999999999994
 20
50.00000000000006
 30
0.0
 11
-29.99999999999994
 21
-49.99999999999994
 31
0.0
  0
ARC
  5
6D
330
2
100
AcDbEntity
  8
ANCON-DSD
100
AcDbCircle
 10
-20.49999999999994
 20
-31.99999999999994
 30
0.0
 40
3.5
100
AcDbArc
 50
180.0
 51
0.0
  0
CIRCLE
  5
6E
330
2
100
AcDbEntity
  8
ANCON-DSD
100
AcDbCircle
 10
-22.99999999999994
 20
-42.99999999999994
 30
0.0
 40
2.5
  0
LINE
  5
6F
330
2
100
AcDbEntity
  8
DIMS
  6
CENTER2
100
AcDbLine
 10
-22.99999999999994
 20
-38.49999999999997
 30
0.0
 11
-22.99999999999994
 21
-47.49999999999992
 31
0.0
  0
LINE
  5
70
330
2
100
AcDbEntity
  8
ANCON-DSD
100
AcDbLine
 10
-10.99999999999994
 20
-46.49999999999994
 30
0.0
 11
11.00000000000005
 21
-46.49999999999994
 31
0.0
  0
LINE
  5
71
330
2
100
AcDbEntity
  8
ANCON-DSD
100
AcDbLine
 10
-10.99999999999994
 20
-39.49999999999994
 30
0.0
 11
11.00000000000005
 21
-39.49999999999994
 31
0.0
  0
ARC
  5
72
330
2
100
AcDbEntity
  8
ANCON-DSD
100
AcDbCircle
 10
-10.99999999999994
 20
-42.99999999999994
 30
0.0
 40
3.5
100
AcDbArc
 50
90.0
 51
270.0
  0
ARC
  5
73
330
2
100
AcDbEntity
  8
ANCON-DSD
100
AcDbCircle
 10
11.00000000000005
 20
-42.99999999999994
 30
0.0
 40
3.5
100
AcDbArc
 50
270.0
 51
90.0
  0
ARC
  5
74
330
2
100
AcDbEntity
  8
ANCON-DSD
100
AcDbCircle
 10
-20.49999999999994
 20
32.00000000000005
 30
0.0
 40
3.5
100
AcDbArc
 50
0.0
 51
180.0
  0
CIRCLE
  5
75
330
2
100
AcDbEntity
  8
ANCON-DSD
100
AcDbCircle
 10
-22.99999999999994
 20
43.00000000000006
 30
0.0
 40
2.5
  0
LINE
  5
76
330
2
100
AcDbEntity
  8
ANCON-DSD
100
AcDbLine
 10
-39.99999999999994
 20
6.000000000000056
 30
0.0
 11
-39.99999999999994
 21
-5.999999999999943
 31
0.0
  0
LINE
  5
77
330
2
100
AcDbEntity
  8
DIMS
  6
CENTER2
100
AcDbLine
 10
-22.99999999999994
 20
47.50000000000006
 30
0.0
 11
-22.99999999999994
 21
38.50000000000005
 31
0.0
  0
CIRCLE
  5
78
330
2
100
AcDbEntity
  8
ANCON-DSD
100
AcDbCircle
 10
0.0000000000000568
 20
20.00000000000005
 30
0.0
 40
8.75
  0
CIRCLE
  5
79
330
2
100
AcDbEntity
  8
ANCON-DSD
100
AcDbCircle
 10
0.0000000000000568
 20
20.00000000000005
 30
0.0
 40
10.25
  0
LINE
  5
7A
330
2
100
AcDbEntity
  8
DIMS
  6
CENTER2
100
AcDbLine
 10
-12.65248619699292
 20
-19.99999999999994
 30
0.0
 11
12.49399908382713
 21
-19.99999999999994
 31
0.0
  0
LINE
  5
7C
330
2
100
AcDbEntity
  8
ANCON-DSD
100
AcDbLine
 10
-10.99999999999994
 20
39.50000000000006
 30
0.0
 11
11.00000000000005
 21
39.50000000000006
 31
0.0
  0
LINE
  5
7D
330
2
100
AcDbEntity
  8
ANCON-DSD
100
AcDbLine
 10
-10.99999999999994
 20
46.50000000000005
 30
0.0
 11
11.00000000000005
 21
46.50000000000005
 31
0.0
  0
LINE
  5
7E
330
2
100
AcDbEntity
  8
DIMS
  6
CENTER2
100
AcDbLine
 10
-12.65248619699292
 20
20.00000000000005
 30
0.0
 11
12.49399908382713
 21
20.00000000000005
 31
0.0
  0
ARC
  5
7F
330
2
100
AcDbEntity
  8
ANCON-DSD
100
AcDbCircle
 10
-10.99999999999994
 20
43.00000000000006
 30
0.0
 40
3.5
100
AcDbArc
 50
90.0
 51
270.0
  0
ARC
  5
80
330
2
100
AcDbEntity
  8
ANCON-DSD
100
AcDbCircle
 10
11.00000000000005
 20
43.00000000000006
 30
0.0
 40
3.5
100
AcDbArc
 50
270.0
 51
90.0
  0
TEXT
  5
81
330
2
100
AcDbEntity
  8
SPECD
  6
Continuous
 62
     6
100
AcDbText
 10
69.54920770809081
 20
-188.8580827747297
 30
0.0
 40
5.0
  1
LOAD OF ??? kN
  7
ROMANS
 72
     4
 11
102.1682553271384
 21
-186.3580827747297
 31
0.0
100
AcDbText
  0
LINE
  5
82
330
2
100
AcDbEntity
  8
SPECP
  6
Continuous
 62
     6
100
AcDbLine
 10
64.27974622295619
 20
-110.1609269535142
 30
0.0
 11
131.8695971457181
 21
-110.1609269535142
 31
0.0
  0
LINE
  5
83
330
2
100
AcDbEntity
  8
SPECP
  6
Continuous
 62
     6
100
AcDbLine
 10
64.27974622295619
 20
-122.0789022455154
 30
0.0
 11
131.8695971457181
 21
-122.0789022455154
 31
0.0
  0
TEXT
  5
84
330
2
100
AcDbEntity
  8
SPECP
  6
Continuous
 62
     6
100
AcDbText
 10
68.77385589634823
 20
-118.7980370693576
 30
0.0
 40
5.0
  1
STAIFIX DSD ??
  7
ROMANS
 72
     4
 11
98.29766542015779
 21
-116.2980370693576
 31
0.0
100
AcDbText
  0
LINE
  5
85
330
2
100
AcDbEntity
  8
SPECD
  6
Continuous
 62
     6
100
AcDbLine
 10
64.27974622295619
 20
-139.527440620608
 30
0.0
 11
64.27974622295619
 21
-192.5611332061583
 31
0.0
  0
LINE
  5
86
330
2
100
AcDbEntity
  8
SPECP
  6
Continuous
 62
     6
100
AcDbLine
 10
64.27974622295619
 20
-110.1609269535142
 30
0.0
 11
64.27974622295619
 21
-122.0789022455154
 31
0.0
  0
LINE
  5
87
330
2
100
AcDbEntity
  8
SPECP
  6
Continuous
 62
     6
100
AcDbLine
 10
131.8695971457181
 20
-110.1609269535142
 30
0.0
 11
131.8695971457181
 21
-122.0789022455154
 31
0.0
  0
LINE
  5
88
330
2
100
AcDbEntity
  8
ANCON-DSD
100
AcDbLine
 10
24.00000000000005
 20
32.00000000000005
 30
0.0
 11
24.00000000000005
 21
-31.99999999999994
 31
0.0
  0
LINE
  5
89
330
2
100
AcDbEntity
  8
DIMS
  6
CENTER2
100
AcDbLine
 10
20.50000000000005
 20
37.50000000000006
 30
0.0
 11
20.50000000000005
 21
-37.49999999999994
 31
0.0
  0
LINE
  5
8A
330
2
100
AcDbEntity
  8
ANCON-DSD
100
AcDbLine
 10
30.00000000000005
 20
50.00000000000006
 30
0.0
 11
30.00000000000005
 21
-49.99999999999994
 31
0.0
  0
LINE
  5
8B
330
2
100
AcDbEntity
  8
DIMS
  6
CENTER2
100
AcDbLine
 10
23.00000000000005
 20
-38.49999999999994
 30
0.0
 11
23.00000000000005
 21
-47.49999999999994
 31
0.0
  0
CIRCLE
  5
8C
330
2
100
AcDbEntity
  8
ANCON-DSD
100
AcDbCircle
 10
23.00000000000005
 20
-42.99999999999994
 30
0.0
 40
2.5
  0
LINE
  5
8D
330
2
100
AcDbEntity
  8
ANCON-DSD
100
AcDbLine
 10
30.00000000000005
 20
-5.999999999999943
 30
0.0
 11
70.00000000000006
 21
-5.999999999999943
 31
0.0
  0
LINE
  5
8E
330
2
100
AcDbEntity
  8
ANCON-DSD
100
AcDbLine
 10
30.00000000000005
 20
6.000000000000056
 30
0.0
 11
70.00000000000006
 21
6.000000000000056
 31
0.0
  0
LINE
  5
8F
330
2
100
AcDbEntity
  8
ANCON-DSD
100
AcDbLine
 10
40.00000000000006
 20
6.000000000000056
 30
0.0
 11
40.00000000000006
 21
-5.999999999999943
 31
0.0
  0
CIRCLE
  5
90
330
2
100
AcDbEntity
  8
ANCON-DSD
100
AcDbCircle
 10
23.00000000000005
 20
43.00000000000006
 30
0.0
 40
2.5
  0
LINE
  5
91
330
2
100
AcDbEntity
  8
DIMS
  6
CENTER2
100
AcDbLine
 10
23.00000000000005
 20
47.50000000000006
 30
0.0
 11
23.00000000000005
 21
38.50000000000005
 31
0.0
  0
LINE
  5
92
330
2
100
AcDbEntity
  8
ANCON-TEXT
  6
Continuous
 62
     6
100
AcDbLine
 10
90.31264300819954
 20
51.32178875150694
 30
0.0
 11
90.31264300819954
 21
-1.776457382585846
 31
0.0
  0
LINE
  5
93
330
2
100
AcDbEntity
  8
ANCON-DSD
100
AcDbLine
 10
70.00000000000006
 20
6.000000000000056
 30
0.0
 11
70.00000000000006
 21
-5.999999999999943
 31
0.0
  0
TEXT
  5
94
330
2
100
AcDbEntity
  8
ANCON-TEXT
  6
Continuous
 62
     6
100
AcDbText
 10
101.9362023583234
 20
9.039099710512715
 30
0.0
 40
5.0
  1
DSD30
  7
ROMANS
 72
     4
 11
114.1981071202281
 21
11.53909971051271
 31
0.0
100
AcDbText
  0
TEXT
  5
95
330
2
100
AcDbEntity
  8
ANCON-TEXT
  6
Continuous
 62
     6
100
AcDbText
 10
97.50502715727089
 20
41.05607259196531
 30
0.0
 40
5.0
  1
DSD REF:
  7
ROMANS
 72
     4
 11
115.4812176334613
 21
43.55607259196531
 31
0.0
100
AcDbText
  0
LINE
  5
96
330
2
100
AcDbEntity
  8
ANCON-TEXT
  6
Continuous
 62
     6
100
AcDbLine
 10
140.3126430081995
 20
51.32178875150694
 30
0.0
 11
140.3126430081995
 21
-1.776457382585846
 31
0.0
  0
LINE
  5
97
330
2
100
AcDbEntity
  8
SPECD
  6
Continuous
 62
     6
100
AcDbLine
 10
266.7666963295965
 20
-139.527440620608
 30
0.0
 11
266.7666963295965
 21
-192.5611332061583
 31
0.0
  0
TEXT
  5
98
330
2
100
AcDbEntity
  8
ANCON-TEXT
  6
Continuous
 62
     6
100
AcDbText
 10
206.3409642630853
 20
41.06090308909691
 30
0.0
 40
5.0
  1
SERVICEABILITY
  7
ROMANS
 72
     4
 11
234.1981071202281
 21
43.56090308909691
 31
0.0
100
AcDbText
  0
TEXT
  5
99
330
2
100
AcDbEntity
  8
ANCON-TEXT
  6
Continuous
 62
     6
100
AcDbText
 10
209.4362023583234
 20
30.11762415051856
 30
0.0
 40
5.0
  1
LOAD ( kN )
  7
ROMANS
 72
     4
 11
234.1981071202281
 21
32.2604812933757
 31
0.0
100
AcDbText
  0
LINE
  5
9A
330
2
100
AcDbEntity
  8
ANCON-TEXT
  6
Continuous
 62
     6
100
AcDbLine
 10
200.8207365652623
 20
51.32178875150694
 30
0.0
 11
200.8207365652623
 21
-1.776457382585846
 31
0.0
  0
TEXT
  5
9B
330
2
100
AcDbEntity
  8
ANCON-TEXT
  6
Continuous
 62
     6
100
AcDbText
 10
227.7695356916567
 20
9.039099710512715
 30
0.0
 40
5.0
  1
???
  7
ROMANS
 72
     4
 11
234.1981071202281
 21
11.53909971051271
 31
0.0
100
AcDbText
  0
LINE
  5
9C
330
2
100
AcDbEntity
  8
ANCON-TEXT
  6
Continuous
 62
     6
100
AcDbLine
 10
265.6913207000619
 20
51.32178875150694
 30
0.0
 11
265.6913207000619
 21
-1.776457382585846
 31
0.0
  0
ENDSEC
  0
SECTION
  2
OBJECTS
  0
DICTIONARY
  5
1A
330
0
100
AcDbDictionary
281
     1
  3
ACAD_GROUP
350
18
  3
ACAD_LAYOUT
350
A0
  3
ACAD_MLINESTYLE
350
19
  3
ACAD_PLOTSETTINGS
350
A1
  3
ACAD_PLOTSTYLENAME
350
9E
  0
DICTIONARY
  5
18
102
{ACAD_REACTORS
330
1A
102
}
330
1A
100
AcDbDictionary
281
     1
  0
DICTIONARY
  5
A0
102
{ACAD_REACTORS
330
1A
102
}
330
1A
100
AcDbDictionary
281
     1
  3
Layout1
350
A3
  3
Model
350
A2
  0
DICTIONARY
  5
19
102
{ACAD_REACTORS
330
1A
102
}
330
1A
100
AcDbDictionary
281
     1
  3
STANDARD
350
1C
  0
DICTIONARY
  5
A1
102
{ACAD_REACTORS
330
1A
102
}
330
1A
100
AcDbDictionary
281
     1
  0
ACDBDICTIONARYWDFLT
  5
9E
102
{ACAD_REACTORS
330
1A
102
}
330
1A
100
AcDbDictionary
281
     1
  3
Normal
350
9F
100
AcDbDictionaryWithDefault
340
9F
  0
LAYOUT
  5
A3
102
{ACAD_REACTORS
330
A0
102
}
330
A0
100
AcDbPlotSettings
  1

  2
Ancon 2
  4

  6

 40
0.0
 41
0.0
 42
0.0
 43
0.0
 44
0.0
 45
0.0
 46
0.0
 47
0.0
 48
0.0
 49
0.0
140
0.0
141
0.0
142
1.0
143
1.0
 70
   688
 72
     0
 73
     0
 74
     5
  7

 75
    16
147
1.0
148
0.0
149
0.0
100
AcDbLayout
  1
Layout1
 70
     1
 71
     1
 10
0.0
 20
0.0
 11
420.0
 21
297.0
 12
0.0
 22
0.0
 32
0.0
 14
1.000000000000000E+20
 24
1.000000000000000E+20
 34
1.000000000000000E+20
 15
-1.000000000000000E+20
 25
-1.000000000000000E+20
 35
-1.000000000000000E+20
146
0.0
 13
0.0
 23
0.0
 33
0.0
 16
1.0
 26
0.0
 36
0.0
 17
0.0
 27
1.0
 37
0.0
 76
     0
330
7
  0
LAYOUT
  5
A2
102
{ACAD_REACTORS
330
A0
102
}
330
A0
100
AcDbPlotSettings
  1

  2
Ancon 2
  4

  6

 40
0.0
 41
0.0
 42
0.0
 43
0.0
 44
0.0
 45
0.0
 46
0.0
 47
0.0
 48
0.0
 49
0.0
140
0.0
141
0.0
142
1.0
143
1.0
 70
  1712
 72
     0
 73
     0
 74
     0
  7

 75
     0
147
1.0
148
0.0
149
0.0
100
AcDbLayout
  1
Model
 70
     1
 71
     0
 10
0.0
 20
0.0
 11
12.0
 21
9.0
 12
0.0
 22
0.0
 32
0.0
 14
0.0
 24
0.0
 34
0.0
 15
0.0
 25
0.0
 35
0.0
146
0.0
 13
0.0
 23
0.0
 33
0.0
 16
1.0
 26
0.0
 36
0.0
 17
0.0
 27
1.0
 37
0.0
 76
     0
330
2
  0
MLINESTYLE
  5
1C
102
{ACAD_REACTORS
330
19
102
}
330
19
100
AcDbMlineStyle
  2
STANDARD
 70
     0
  3

 62
   256
 51
90.0
 52
90.0
 71
     2
 49
0.5
 62
   256
  6
BYLAYER
 49
-0.5
 62
   256
  6
BYLAYER
  0
ACDBPLACEHOLDER
  5
9F
102
{ACAD_REACTORS
330
9E
102
}
330
9E
  0
ENDSEC
  0
EOF
