  0
SECTION
  2
HEADER
  9
$ACADVER
  1
AC1015
  9
$ACADMAINTVER
 70
    10
  9
$DWGCODEPAGE
  3
ANSI_1252
  9
$INSBASE
 10
0.0000000000000284
 20
0.000000000000143
 30
0.0
  9
$EXTMIN
 10
-203.6155975269847
 20
-144.7460648130115
 30
0.0
  9
$EXTMAX
 10
339.4838796203883
 20
164.3937745137234
 30
0.0
  9
$LIMMIN
 10
0.0
 20
0.0
  9
$LIMMAX
 10
420.0
 20
297.0
  9
$ORTHOMODE
 70
     1
  9
$REGENMODE
 70
     1
  9
$FILLMODE
 70
     1
  9
$QTEXTMODE
 70
     0
  9
$MIRRTEXT
 70
     1
  9
$LTSCALE
 40
0.25
  9
$ATTMODE
 70
     1
  9
$TEXTSIZE
 40
5.0
  9
$TRACEWID
 40
10.0
  9
$TEXTSTYLE
  7
ROMANS
  9
$CLAYER
  8
DIMS
  9
$CELTYPE
  6
BYLAYER
  9
$CECOLOR
 62
   256
  9
$CELTSCALE
 40
1.0
  9
$DISPSILH
 70
     0
  9
$DIMSCALE
 40
0.0
  9
$DIMASZ
 40
4.0
  9
$DIMEXO
 40
3.0
  9
$DIMDLI
 40
10.0
  9
$DIMRND
 40
0.0
  9
$DIMDLE
 40
1.25
  9
$DIMEXE
 40
3.0
  9
$DIMTP
 40
0.0
  9
$DIMTM
 40
0.0
  9
$DIMTXT
 40
3.0
  9
$DIMCEN
 40
-3.0
  9
$DIMTSZ
 40
0.0
  9
$DIMTOL
 70
     0
  9
$DIMLIM
 70
     0
  9
$DIMTIH
 70
     0
  9
$DIMTOH
 70
     0
  9
$DIMSE1
 70
     0
  9
$DIMSE2
 70
     0
  9
$DIMTAD
 70
     1
  9
$DIMZIN
 70
    12
  9
$DIMBLK
  1

  9
$DIMASO
 70
     1
  9
$DIMSHO
 70
     0
  9
$DIMPOST
  1

  9
$DIMAPOST
  1

  9
$DIMALT
 70
     0
  9
$DIMALTD
 70
     2
  9
$DIMALTF
 40
0.039
  9
$DIMLFAC
 40
1.0
  9
$DIMTOFL
 70
     0
  9
$DIMTVP
 40
1.5
  9
$DIMTIX
 70
     0
  9
$DIMSOXD
 70
     0
  9
$DIMSAH
 70
     0
  9
$DIMBLK1
  1

  9
$DIMBLK2
  1

  9
$DIMSTYLE
  2
1-2
  9
$DIMCLRD
 70
     0
  9
$DIMCLRE
 70
     0
  9
$DIMCLRT
 70
     0
  9
$DIMTFAC
 40
0.75
  9
$DIMGAP
 40
1.5
  9
$DIMJUST
 70
     0
  9
$DIMSD1
 70
     0
  9
$DIMSD2
 70
     0
  9
$DIMTOLJ
 70
     1
  9
$DIMTZIN
 70
    12
  9
$DIMALTZ
 70
    12
  9
$DIMALTTZ
 70
    12
  9
$DIMUPT
 70
     0
  9
$DIMDEC
 70
     2
  9
$DIMTDEC
 70
     2
  9
$DIMALTU
 70
     2
  9
$DIMALTTD
 70
     2
  9
$DIMTXSTY
  7
ROMANS
  9
$DIMAUNIT
 70
     0
  9
$DIMADEC
 70
     0
  9
$DIMALTRND
 40
0.0
  9
$DIMAZIN
 70
     0
  9
$DIMDSEP
 70
    46
  9
$DIMATFIT
 70
     3
  9
$DIMFRAC
 70
     0
  9
$DIMLDRBLK
  1

  9
$DIMLUNIT
 70
     2
  9
$DIMLWD
 70
    -2
  9
$DIMLWE
 70
    -2
  9
$DIMTMOVE
 70
     2
  9
$LUNITS
 70
     2
  9
$LUPREC
 70
     2
  9
$SKETCHINC
 40
1.0
  9
$FILLETRAD
 40
0.0
  9
$AUNITS
 70
     0
  9
$AUPREC
 70
     4
  9
$MENU
  1
acad
  9
$ELEVATION
 40
0.0
  9
$PELEVATION
 40
0.0
  9
$THICKNESS
 40
0.0
  9
$LIMCHECK
 70
     0
  9
$CHAMFERA
 40
0.0
  9
$CHAMFERB
 40
0.0
  9
$CHAMFERC
 40
0.0
  9
$CHAMFERD
 40
0.0
  9
$SKPOLY
 70
     0
  9
$TDCREATE
 40
2449527.571155092
  9
$TDUCREATE
 40
2449527.529488425
  9
$TDUPDATE
 40
2452498.536712963
  9
$TDUUPDATE
 40
2452498.495046296
  9
$TDINDWG
 40
0.5285042014
  9
$TDUSRTIMER
 40
0.5285042014
  9
$USRTIMER
 70
     1
  9
$ANGBASE
 50
0.0
  9
$ANGDIR
 70
     0
  9
$PDMODE
 70
     0
  9
$PDSIZE
 40
0.0
  9
$PLINEWID
 40
0.0
  9
$SPLFRAME
 70
     0
  9
$SPLINETYPE
 70
     6
  9
$SPLINESEGS
 70
     8
  9
$HANDSEED
  5
147
  9
$SURFTAB1
 70
    18
  9
$SURFTAB2
 70
    18
  9
$SURFTYPE
 70
     6
  9
$SURFU
 70
    18
  9
$SURFV
 70
    18
  9
$UCSBASE
  2

  9
$UCSNAME
  2

  9
$UCSORG
 10
0.0
 20
0.0
 30
0.0
  9
$UCSXDIR
 10
1.0
 20
0.0
 30
0.0
  9
$UCSYDIR
 10
0.0
 20
1.0
 30
0.0
  9
$UCSORTHOREF
  2

  9
$UCSORTHOVIEW
 70
     0
  9
$UCSORGTOP
 10
0.0
 20
0.0
 30
0.0
  9
$UCSORGBOTTOM
 10
0.0
 20
0.0
 30
0.0
  9
$UCSORGLEFT
 10
0.0
 20
0.0
 30
0.0
  9
$UCSORGRIGHT
 10
0.0
 20
0.0
 30
0.0
  9
$UCSORGFRONT
 10
0.0
 20
0.0
 30
0.0
  9
$UCSORGBACK
 10
0.0
 20
0.0
 30
0.0
  9
$PUCSBASE
  2

  9
$PUCSNAME
  2

  9
$PUCSORG
 10
0.0
 20
0.0
 30
0.0
  9
$PUCSXDIR
 10
1.0
 20
0.0
 30
0.0
  9
$PUCSYDIR
 10
0.0
 20
1.0
 30
0.0
  9
$PUCSORTHOREF
  2

  9
$PUCSORTHOVIEW
 70
     0
  9
$PUCSORGTOP
 10
0.0
 20
0.0
 30
0.0
  9
$PUCSORGBOTTOM
 10
0.0
 20
0.0
 30
0.0
  9
$PUCSORGLEFT
 10
0.0
 20
0.0
 30
0.0
  9
$PUCSORGRIGHT
 10
0.0
 20
0.0
 30
0.0
  9
$PUCSORGFRONT
 10
0.0
 20
0.0
 30
0.0
  9
$PUCSORGBACK
 10
0.0
 20
0.0
 30
0.0
  9
$USERI1
 70
     0
  9
$USERI2
 70
     0
  9
$USERI3
 70
     0
  9
$USERI4
 70
     0
  9
$USERI5
 70
     0
  9
$USERR1
 40
0.0
  9
$USERR2
 40
0.0
  9
$USERR3
 40
0.0
  9
$USERR4
 40
0.0
  9
$USERR5
 40
0.0
  9
$WORLDVIEW
 70
     1
  9
$SHADEDGE
 70
     3
  9
$SHADEDIF
 70
    70
  9
$TILEMODE
 70
     1
  9
$MAXACTVP
 70
    16
  9
$PINSBASE
 10
0.0
 20
0.0
 30
0.0
  9
$PLIMCHECK
 70
     0
  9
$PEXTMIN
 10
1.000000000000000E+20
 20
1.000000000000000E+20
 30
1.000000000000000E+20
  9
$PEXTMAX
 10
-1.000000000000000E+20
 20
-1.000000000000000E+20
 30
-1.000000000000000E+20
  9
$PLIMMIN
 10
0.0
 20
0.0
  9
$PLIMMAX
 10
420.0
 20
297.0
  9
$UNITMODE
 70
     0
  9
$VISRETAIN
 70
     0
  9
$PLINEGEN
 70
     0
  9
$PSLTSCALE
 70
     1
  9
$TREEDEPTH
 70
  3020
  9
$CMLSTYLE
  2
STANDARD
  9
$CMLJUST
 70
     0
  9
$CMLSCALE
 40
1.0
  9
$PROXYGRAPHICS
 70
     1
  9
$MEASUREMENT
 70
     0
  9
$CELWEIGHT
370
    -1
  9
$ENDCAPS
280
     0
  9
$JOINSTYLE
280
     0
  9
$LWDISPLAY
290
     0
  9
$INSUNITS
 70
     0
  9
$HYPERLINKBASE
  1

  9
$STYLESHEET
  1

  9
$XEDIT
290
     1
  9
$CEPSNTYPE
380
     0
  9
$PSTYLEMODE
290
     1
  9
$FINGERPRINTGUID
  2
{D41545C0-4A8D-469D-9F54-A0561191FA20}
  9
$VERSIONGUID
  2
{627E282C-AD1D-11D6-AAC6-0010A4A25215}
  9
$EXTNAMES
290
     1
  9
$PSVPSCALE
 40
0.0
  9
$OLESTARTUP
290
     0
  0
ENDSEC
  0
SECTION
  2
CLASSES
  0
CLASS
  1
DICTIONARYVAR
  2
AcDbDictionaryVar
  3
AutoCAD 2000
 90
    32768
280
     0
281
     0
  0
CLASS
  1
LWPOLYLINE
  2
AcDbPolyline
  3
AutoCAD 2000
 90
    32768
280
     0
281
     1
  0
CLASS
  1
ACDBDICTIONARYWDFLT
  2
AcDbDictionaryWithDefault
  3
AutoCAD 2000
 90
        0
280
     0
281
     0
  0
CLASS
  1
ACDBPLACEHOLDER
  2
AcDbPlaceHolder
  3
AutoCAD 2000
 90
        0
280
     0
281
     0
  0
CLASS
  1
LAYOUT
  2
AcDbLayout
  3
AutoCAD 2000
 90
        0
280
     0
281
     0
  0
CLASS
  1
LONG_TRANSACTION
  2
AcDbLongTransaction
  3
AutoCAD 2000
 90
    32768
280
     0
281
     0
  0
CLASS
  1
LWPOLYLINE
  2
AcDbPolyline
  3
AutoCAD 2000
 90
    32768
280
     0
281
     1
  0
CLASS
  1
HATCH
  2
AcDbHatch
  3
AutoCAD 2000
 90
    32768
280
     0
281
     1
  0
CLASS
  1
XRECORD
  2
AcDbXrecord
  3
AutoCAD 2000
 90
    32768
280
     0
281
     0
  0
ENDSEC
  0
SECTION
  2
TABLES
  0
TABLE
  2
VPORT
  5
12
330
0
100
AcDbSymbolTable
 70
     3
  0
VPORT
  5
146
330
12
100
AcDbSymbolTableRecord
100
AcDbViewportTableRecord
  2
*Active
 70
     0
 10
0.0
 20
0.0
 11
1.0
 21
1.0
 12
72.81896399748155
 22
23.23785245842896
 13
0.0
 23
0.0
 14
5.0
 24
5.0
 15
10.0
 25
10.0
 16
0.0
 26
0.0
 36
1.0
 17
0.0
 27
0.0
 37
0.0
 40
434.4853733155873
 41
1.760948905109489
 42
50.0
 43
0.0
 44
0.0
 50
0.0
 51
0.0
 71
     0
 72
   100
 73
     1
 74
     1
 75
     0
 76
     0
 77
     0
 78
     0
281
     0
 65
     1
110
0.0
120
0.0
130
0.0
111
1.0
121
0.0
131
0.0
112
0.0
122
1.0
132
0.0
 79
     0
146
0.0
  0
ENDTAB
  0
TABLE
  2
LTYPE
  5
D
330
0
100
AcDbSymbolTable
 70
     3
  0
LTYPE
  5
E
330
D
100
AcDbSymbolTableRecord
100
AcDbLinetypeTableRecord
  2
BYBLOCK
 70
     0
  3

 72
    65
 73
     0
 40
0.0
  0
LTYPE
  5
F
330
D
100
AcDbSymbolTableRecord
100
AcDbLinetypeTableRecord
  2
BYLAYER
 70
     0
  3

 72
    65
 73
     0
 40
0.0
  0
LTYPE
  5
5
330
D
100
AcDbSymbolTableRecord
100
AcDbLinetypeTableRecord
  2
CONTINUOUS
 70
     0
  3
Solid line
 72
    65
 73
     0
 40
0.0
  0
LTYPE
  5
20
330
D
100
AcDbSymbolTableRecord
100
AcDbLinetypeTableRecord
  2
CENTER2
 70
     0
  3
___ _ ___ _ ___ _ ___ _ ___ _ ___ _ ___ _ ___ _
 72
    65
 73
     4
 40
28.57499999999999
 49
19.05
 74
     0
 49
-3.174999999999999
 74
     0
 49
3.174999999999999
 74
     0
 49
-3.174999999999999
 74
     0
  0
LTYPE
  5
75
330
D
100
AcDbSymbolTableRecord
100
AcDbLinetypeTableRecord
  2
HIDDEN
 70
     0
  3
__ __ __ __ __ __ __ __ __ __ __ __ __ __ __ __
 72
    65
 73
     2
 40
9.524999999999998
 49
6.349999999999999
 74
     0
 49
-3.174999999999999
 74
     0
  0
ENDTAB
  0
TABLE
  2
LAYER
  5
A
330
0
100
AcDbSymbolTable
 70
    10
  0
LAYER
  5
4
330
A
100
AcDbSymbolTableRecord
100
AcDbLayerTableRecord
  2
0
 70
     0
 62
     7
  6
CONTINUOUS
370
    -3
390
10B
  0
LAYER
  5
1B
330
A
100
AcDbSymbolTableRecord
100
AcDbLayerTableRecord
  2
DIMS
 70
     0
 62
     1
  6
CONTINUOUS
370
    -3
390
10B
  0
LAYER
  5
32
330
A
100
AcDbSymbolTableRecord
100
AcDbLayerTableRecord
  2
ANCON-DSD
 70
     0
 62
     3
  6
CONTINUOUS
370
    -3
390
10B
  0
LAYER
  5
2C
330
A
100
AcDbSymbolTableRecord
100
AcDbLayerTableRecord
  2
DEFPOINTS
 70
     0
 62
     7
  6
CONTINUOUS
290
     0
370
    -3
390
10B
  0
LAYER
  5
43
330
A
100
AcDbSymbolTableRecord
100
AcDbLayerTableRecord
  2
CONCRETE
 70
     0
 62
     2
  6
CONTINUOUS
370
    -3
390
10B
  0
LAYER
  5
C1
330
A
100
AcDbSymbolTableRecord
100
AcDbLayerTableRecord
  2
ORIGIN
 70
     0
 62
     7
  6
CONTINUOUS
370
    -3
390
10B
  0
LAYER
  5
35
330
A
100
AcDbSymbolTableRecord
100
AcDbLayerTableRecord
  2
20MM-JOINT
 70
     0
 62
     7
  6
CONTINUOUS
370
    -3
390
10B
  0
LAYER
  5
103
330
A
100
AcDbSymbolTableRecord
100
AcDbLayerTableRecord
  2
SPECP
 70
     0
 62
     6
  6
CONTINUOUS
370
    -3
390
10B
  0
LAYER
  5
47
330
A
100
AcDbSymbolTableRecord
100
AcDbLayerTableRecord
  2
SPECD
 70
     0
 62
     6
  6
CONTINUOUS
370
    -3
390
10B
  0
LAYER
  5
52
330
A
100
AcDbSymbolTableRecord
100
AcDbLayerTableRecord
  2
20MM-DIMS
 70
     0
 62
     1
  6
CONTINUOUS
370
    -3
390
10B
  0
ENDTAB
  0
TABLE
  2
STYLE
  5
B
330
0
100
AcDbSymbolTable
 70
     2
  0
STYLE
  5
C
330
B
100
AcDbSymbolTableRecord
100
AcDbTextStyleTableRecord
  2
STANDARD
 70
     0
 40
0.0
 41
1.0
 50
0.0
 71
     0
 42
6.0
  3
txt.shx
  4

  0
STYLE
  5
1C
330
B
100
AcDbSymbolTableRecord
100
AcDbTextStyleTableRecord
  2
ROMANS
 70
     0
 40
0.0
 41
1.0
 50
0.0
 71
     0
 42
5.0
  3
romans
  4

  0
ENDTAB
  0
TABLE
  2
VIEW
  5
10
330
0
100
AcDbSymbolTable
 70
     0
  0
ENDTAB
  0
TABLE
  2
UCS
  5
11
330
0
100
AcDbSymbolTable
 70
     0
  0
ENDTAB
  0
TABLE
  2
APPID
  5
14
330
0
100
AcDbSymbolTable
 70
     1
  0
APPID
  5
15
330
14
100
AcDbSymbolTableRecord
100
AcDbRegAppTableRecord
  2
ACAD
 70
     0
  0
ENDTAB
  0
TABLE
  2
DIMSTYLE
  5
16
330
0
100
AcDbSymbolTable
 70
     1
100
AcDbDimStyleTable
 71
     0
  0
DIMSTYLE
105
1E
102
{ACAD_REACTORS
330
23
330
77
330
D4
330
AD
330
A0
330
92
330
51
330
85
330
65
102
}
330
16
100
AcDbSymbolTableRecord
100
AcDbDimStyleTableRecord
  2
1-2
 70
     0
 40
0.0
 41
4.0
 42
3.0
 43
10.0
 44
3.0
 46
1.25
 73
     0
 74
     0
 77
     1
 78
    12
140
3.0
141
-3.0
143
0.039
145
1.5
146
0.75
147
1.5
271
     2
272
     2
279
     2
284
    12
285
    12
286
    12
340
1C
  0
ENDTAB
  0
TABLE
  2
BLOCK_RECORD
  5
1
330
0
100
AcDbSymbolTable
 70
    10
  0
BLOCK_RECORD
  5
2
102
{ACAD_XDICTIONARY
360
137
102
}
330
1
100
AcDbSymbolTableRecord
100
AcDbBlockTableRecord
  2
*MODEL_SPACE
340
10E
  0
BLOCK_RECORD
  5
7
102
{ACAD_XDICTIONARY
360
139
102
}
330
1
100
AcDbSymbolTableRecord
100
AcDbBlockTableRecord
  2
*PAPER_SPACE
340
10F
  0
BLOCK_RECORD
  5
78
330
1
100
AcDbSymbolTableRecord
100
AcDbBlockTableRecord
  2
*D0
340
0
  0
BLOCK_RECORD
  5
24
330
1
100
AcDbSymbolTableRecord
100
AcDbBlockTableRecord
  2
*D1
340
0
  0
BLOCK_RECORD
  5
D5
330
1
100
AcDbSymbolTableRecord
100
AcDbBlockTableRecord
  2
*D2
340
0
  0
BLOCK_RECORD
  5
AE
330
1
100
AcDbSymbolTableRecord
100
AcDbBlockTableRecord
  2
*D3
340
0
  0
BLOCK_RECORD
  5
A1
330
1
100
AcDbSymbolTableRecord
100
AcDbBlockTableRecord
  2
*D4
340
0
  0
BLOCK_RECORD
  5
93
330
1
100
AcDbSymbolTableRecord
100
AcDbBlockTableRecord
  2
*D5
340
0
  0
BLOCK_RECORD
  5
86
330
1
100
AcDbSymbolTableRecord
100
AcDbBlockTableRecord
  2
*D6
340
0
  0
BLOCK_RECORD
  5
66
330
1
100
AcDbSymbolTableRecord
100
AcDbBlockTableRecord
  2
*D7
340
0
  0
BLOCK_RECORD
  5
53
330
1
100
AcDbSymbolTableRecord
100
AcDbBlockTableRecord
  2
*D8
340
0
  0
BLOCK_RECORD
  5
45
330
1
100
AcDbSymbolTableRecord
100
AcDbBlockTableRecord
  2
A$C6BE937E7
340
0
  0
ENDTAB
  0
ENDSEC
  0
SECTION
  2
BLOCKS
  0
BLOCK
  5
3
330
2
100
AcDbEntity
  8
0
100
AcDbBlockBegin
  2
*MODEL_SPACE
 70
     0
 10
0.0
 20
0.0
 30
0.0
  3
*MODEL_SPACE
  1

  0
ENDBLK
  5
6
330
2
100
AcDbEntity
  8
0
100
AcDbBlockEnd
  0
BLOCK
  5
8
330
7
100
AcDbEntity
 67
     1
  8
0
100
AcDbBlockBegin
  2
*PAPER_SPACE
 70
     0
 10
0.0
 20
0.0
 30
0.0
  3
*PAPER_SPACE
  1

  0
ENDBLK
  5
9
330
7
100
AcDbEntity
 67
     1
  8
0
100
AcDbBlockEnd
  0
BLOCK
  5
82
330
78
100
AcDbEntity
  8
0
100
AcDbBlockBegin
  2
*D0
 70
     1
 10
0.0
 20
0.0
 30
0.0
  3
*D0
  1

  0
LINE
  5
79
330
78
100
AcDbEntity
  8
0
  6
ByBlock
 62
     0
100
AcDbLine
 10
27.99999999999988
 20
-47.99999999999994
 30
0.0
 11
27.99999999999988
 21
-88.40007801013536
 31
0.0
  0
LINE
  5
7A
330
78
100
AcDbEntity
  8
0
  6
ByBlock
 62
     0
100
AcDbLine
 10
2.000000000000002
 20
-33.0
 30
0.0
 11
2.000000000000002
 21
-88.40007801013536
 31
0.0
  0
LINE
  5
7B
330
78
100
AcDbEntity
  8
0
  6
ByBlock
 62
     0
100
AcDbLine
 10
23.99999999999987
 20
-85.40007801013535
 30
0.0
 11
6.000000000000002
 21
-85.40007801013535
 31
0.0
  0
SOLID
  5
7C
330
78
100
AcDbEntity
  8
0
  6
ByBlock
 62
     0
100
AcDbTrace
 10
23.99999999999987
 20
-84.73341134346869
 30
0.0
 11
23.99999999999987
 21
-86.06674467680203
 31
0.0
 12
27.99999999999988
 22
-85.40007801013535
 32
0.0
 13
27.99999999999988
 23
-85.40007801013535
 33
0.0
  0
SOLID
  5
7D
330
78
100
AcDbEntity
  8
0
  6
ByBlock
 62
     0
100
AcDbTrace
 10
6.000000000000002
 20
-84.73341134346869
 30
0.0
 11
6.000000000000002
 21
-86.06674467680203
 31
0.0
 12
2.000000000000002
 22
-85.40007801013535
 32
0.0
 13
2.000000000000002
 23
-85.40007801013535
 33
0.0
  0
TEXT
  5
7E
330
78
100
AcDbEntity
  8
0
  6
ByBlock
 62
     0
100
AcDbText
 10
12.14285714285708
 20
-83.90007801013537
 30
0.0
 40
3.0
  1
26
  7
ROMANS
 72
     1
 11
14.99999999999994
 21
-82.40007801013536
 31
0.0
100
AcDbText
 73
     2
  0
POINT
  5
7F
330
78
100
AcDbEntity
  8
DEFPOINTS
  6
ByBlock
 62
     0
100
AcDbPoint
 10
27.99999999999988
 20
-44.99999999999994
 30
0.0
  0
POINT
  5
80
330
78
100
AcDbEntity
  8
DEFPOINTS
  6
ByBlock
 62
     0
100
AcDbPoint
 10
2.000000000000002
 20
-30.0
 30
0.0
  0
POINT
  5
81
330
78
100
AcDbEntity
  8
DEFPOINTS
  6
ByBlock
 62
     0
100
AcDbPoint
 10
2.000000000000002
 20
-85.40007801013535
 30
0.0
  0
ENDBLK
  5
83
330
78
100
AcDbEntity
  8
0
100
AcDbBlockEnd
  0
BLOCK
  5
2F
330
24
100
AcDbEntity
  8
0
100
AcDbBlockBegin
  2
*D1
 70
     1
 10
0.0
 20
0.0
 30
0.0
  3
*D1
  1

  0
LINE
  5
25
330
24
100
AcDbEntity
  8
0
  6
ByBlock
 62
     0
100
AcDbLine
 10
0.0000000000000027
 20
-33.0
 30
0.0
 11
0.0000000000000027
 21
-122.679842650603
 31
0.0
  0
LINE
  5
26
330
24
100
AcDbEntity
  8
0
  6
ByBlock
 62
     0
100
AcDbLine
 10
135.0
 20
-12.0
 30
0.0
 11
135.0
 21
-122.679842650603
 31
0.0
  0
LINE
  5
27
330
24
100
AcDbEntity
  8
0
  6
ByBlock
 62
     0
100
AcDbLine
 10
4.000000000000002
 20
-119.679842650603
 30
0.0
 11
131.0
 21
-119.679842650603
 31
0.0
  0
SOLID
  5
28
330
24
100
AcDbEntity
  8
0
  6
ByBlock
 62
     0
100
AcDbTrace
 10
4.000000000000002
 20
-119.0131759839363
 30
0.0
 11
4.000000000000002
 21
-120.3465093172697
 31
0.0
 12
0.0000000000000027
 22
-119.679842650603
 32
0.0
 13
0.0000000000000027
 23
-119.679842650603
 33
0.0
  0
SOLID
  5
29
330
24
100
AcDbEntity
  8
0
  6
ByBlock
 62
     0
100
AcDbTrace
 10
131.0
 20
-119.0131759839363
 30
0.0
 11
131.0
 21
-120.3465093172697
 31
0.0
 12
135.0
 22
-119.679842650603
 32
0.0
 13
135.0
 23
-119.679842650603
 33
0.0
  0
TEXT
  5
2A
330
24
100
AcDbEntity
  8
0
  6
ByBlock
 62
     0
100
AcDbText
 10
63.0
 20
-118.179842650603
 30
0.0
 40
3.0
  1
135
  7
ROMANS
 72
     1
 11
67.5
 21
-116.679842650603
 31
0.0
100
AcDbText
 73
     2
  0
POINT
  5
2B
330
24
100
AcDbEntity
  8
DEFPOINTS
  6
ByBlock
 62
     0
100
AcDbPoint
 10
0.0000000000000027
 20
-30.0
 30
0.0
  0
POINT
  5
2D
330
24
100
AcDbEntity
  8
DEFPOINTS
  6
ByBlock
 62
     0
100
AcDbPoint
 10
135.0
 20
-9.0
 30
0.0
  0
POINT
  5
2E
330
24
100
AcDbEntity
  8
DEFPOINTS
  6
ByBlock
 62
     0
100
AcDbPoint
 10
135.0
 20
-119.679842650603
 30
0.0
  0
ENDBLK
  5
30
330
24
100
AcDbEntity
  8
0
100
AcDbBlockEnd
  0
BLOCK
  5
DF
330
D5
100
AcDbEntity
  8
0
100
AcDbBlockBegin
  2
*D2
 70
     1
 10
0.0
 20
0.0
 30
0.0
  3
*D2
  1

  0
LINE
  5
D6
330
D5
100
AcDbEntity
  8
0
  6
ByBlock
 62
     0
100
AcDbLine
 10
27.99999999999988
 20
-47.99999999999994
 30
0.0
 11
27.99999999999988
 21
-88.40007801013536
 31
0.0
  0
LINE
  5
D7
330
D5
100
AcDbEntity
  8
0
  6
ByBlock
 62
     0
100
AcDbLine
 10
57.99999999999979
 20
-77.99999999999994
 30
0.0
 11
57.99999999999979
 21
-88.40007801013536
 31
0.0
  0
LINE
  5
D8
330
D5
100
AcDbEntity
  8
0
  6
ByBlock
 62
     0
100
AcDbLine
 10
31.99999999999988
 20
-85.40007801013535
 30
0.0
 11
53.99999999999979
 21
-85.40007801013535
 31
0.0
  0
SOLID
  5
D9
330
D5
100
AcDbEntity
  8
0
  6
ByBlock
 62
     0
100
AcDbTrace
 10
31.99999999999988
 20
-84.73341134346869
 30
0.0
 11
31.99999999999988
 21
-86.06674467680203
 31
0.0
 12
27.99999999999988
 22
-85.40007801013535
 32
0.0
 13
27.99999999999988
 23
-85.40007801013535
 33
0.0
  0
SOLID
  5
DA
330
D5
100
AcDbEntity
  8
0
  6
ByBlock
 62
     0
100
AcDbTrace
 10
53.99999999999979
 20
-84.73341134346869
 30
0.0
 11
53.99999999999979
 21
-86.06674467680203
 31
0.0
 12
57.99999999999979
 22
-85.40007801013535
 32
0.0
 13
57.99999999999979
 23
-85.40007801013535
 33
0.0
  0
TEXT
  5
DB
330
D5
100
AcDbEntity
  8
0
  6
ByBlock
 62
     0
100
AcDbText
 10
40.14285714285698
 20
-83.90007801013537
 30
0.0
 40
3.0
  1
30
  7
ROMANS
 72
     1
 11
42.99999999999983
 21
-82.40007801013536
 31
0.0
100
AcDbText
 73
     2
  0
POINT
  5
DC
330
D5
100
AcDbEntity
  8
DEFPOINTS
  6
ByBlock
 62
     0
100
AcDbPoint
 10
27.99999999999988
 20
-44.99999999999994
 30
0.0
  0
POINT
  5
DD
330
D5
100
AcDbEntity
  8
DEFPOINTS
  6
ByBlock
 62
     0
100
AcDbPoint
 10
57.99999999999979
 20
-74.99999999999994
 30
0.0
  0
POINT
  5
DE
330
D5
100
AcDbEntity
  8
DEFPOINTS
  6
ByBlock
 62
     0
100
AcDbPoint
 10
57.99999999999979
 20
-85.40007801013535
 30
0.0
  0
ENDBLK
  5
E0
330
D5
100
AcDbEntity
  8
0
100
AcDbBlockEnd
  0
BLOCK
  5
B8
330
AE
100
AcDbEntity
  8
0
100
AcDbBlockBegin
  2
*D3
 70
     1
 10
0.0
 20
0.0
 30
0.0
  3
*D3
  1

  0
LINE
  5
AF
330
AE
100
AcDbEntity
  8
0
  6
ByBlock
 62
     0
100
AcDbLine
 10
-80.99999999999969
 20
-77.99999999999994
 30
0.0
 11
-80.99999999999969
 21
-88.40007801013536
 31
0.0
  0
LINE
  5
B0
330
AE
100
AcDbEntity
  8
0
  6
ByBlock
 62
     0
100
AcDbLine
 10
-50.9999999999998
 20
-47.99999999999994
 30
0.0
 11
-50.9999999999998
 21
-88.40007801013536
 31
0.0
  0
LINE
  5
B1
330
AE
100
AcDbEntity
  8
0
  6
ByBlock
 62
     0
100
AcDbLine
 10
-76.99999999999969
 20
-85.40007801013535
 30
0.0
 11
-54.9999999999998
 21
-85.40007801013535
 31
0.0
  0
SOLID
  5
B2
330
AE
100
AcDbEntity
  8
0
  6
ByBlock
 62
     0
100
AcDbTrace
 10
-76.99999999999969
 20
-84.73341134346869
 30
0.0
 11
-76.99999999999969
 21
-86.06674467680203
 31
0.0
 12
-80.99999999999969
 22
-85.40007801013535
 32
0.0
 13
-80.99999999999969
 23
-85.40007801013535
 33
0.0
  0
SOLID
  5
B3
330
AE
100
AcDbEntity
  8
0
  6
ByBlock
 62
     0
100
AcDbTrace
 10
-54.9999999999998
 20
-84.73341134346869
 30
0.0
 11
-54.9999999999998
 21
-86.06674467680203
 31
0.0
 12
-50.9999999999998
 22
-85.40007801013535
 32
0.0
 13
-50.9999999999998
 23
-85.40007801013535
 33
0.0
  0
TEXT
  5
B4
330
AE
100
AcDbEntity
  8
0
  6
ByBlock
 62
     0
100
AcDbText
 10
-68.85714285714261
 20
-83.90007801013537
 30
0.0
 40
3.0
  1
30
  7
ROMANS
 72
     1
 11
-65.99999999999974
 21
-82.40007801013536
 31
0.0
100
AcDbText
 73
     2
  0
POINT
  5
B5
330
AE
100
AcDbEntity
  8
DEFPOINTS
  6
ByBlock
 62
     0
100
AcDbPoint
 10
-80.99999999999969
 20
-74.99999999999994
 30
0.0
  0
POINT
  5
B6
330
AE
100
AcDbEntity
  8
DEFPOINTS
  6
ByBlock
 62
     0
100
AcDbPoint
 10
-50.9999999999998
 20
-44.99999999999994
 30
0.0
  0
POINT
  5
B7
330
AE
100
AcDbEntity
  8
DEFPOINTS
  6
ByBlock
 62
     0
100
AcDbPoint
 10
-50.9999999999998
 20
-85.40007801013535
 30
0.0
  0
ENDBLK
  5
B9
330
AE
100
AcDbEntity
  8
0
100
AcDbBlockEnd
  0
BLOCK
  5
AB
330
A1
100
AcDbEntity
  8
0
100
AcDbBlockBegin
  2
*D4
 70
     1
 10
0.0
 20
0.0
 30
0.0
  3
*D4
  1

  0
LINE
  5
A2
330
A1
100
AcDbEntity
  8
0
  6
ByBlock
 62
     0
100
AcDbLine
 10
-50.9999999999998
 20
-47.99999999999994
 30
0.0
 11
-50.9999999999998
 21
-88.40007801013536
 31
0.0
  0
LINE
  5
A3
330
A1
100
AcDbEntity
  8
0
  6
ByBlock
 62
     0
100
AcDbLine
 10
-25.0
 20
-17.99999999999994
 30
0.0
 11
-25.0
 21
-88.40007801013536
 31
0.0
  0
LINE
  5
A4
330
A1
100
AcDbEntity
  8
0
  6
ByBlock
 62
     0
100
AcDbLine
 10
-46.9999999999998
 20
-85.40007801013535
 30
0.0
 11
-29.0
 21
-85.40007801013535
 31
0.0
  0
SOLID
  5
A5
330
A1
100
AcDbEntity
  8
0
  6
ByBlock
 62
     0
100
AcDbTrace
 10
-46.9999999999998
 20
-84.73341134346869
 30
0.0
 11
-46.9999999999998
 21
-86.06674467680203
 31
0.0
 12
-50.9999999999998
 22
-85.40007801013535
 32
0.0
 13
-50.9999999999998
 23
-85.40007801013535
 33
0.0
  0
SOLID
  5
A6
330
A1
100
AcDbEntity
  8
0
  6
ByBlock
 62
     0
100
AcDbTrace
 10
-29.0
 20
-84.73341134346869
 30
0.0
 11
-29.0
 21
-86.06674467680203
 31
0.0
 12
-25.0
 22
-85.40007801013535
 32
0.0
 13
-25.0
 23
-85.40007801013535
 33
0.0
  0
TEXT
  5
A7
330
A1
100
AcDbEntity
  8
0
  6
ByBlock
 62
     0
100
AcDbText
 10
-40.85714285714275
 20
-83.90007801013537
 30
0.0
 40
3.0
  1
26
  7
ROMANS
 72
     1
 11
-37.9999999999999
 21
-82.40007801013536
 31
0.0
100
AcDbText
 73
     2
  0
POINT
  5
A8
330
A1
100
AcDbEntity
  8
DEFPOINTS
  6
ByBlock
 62
     0
100
AcDbPoint
 10
-50.9999999999998
 20
-44.99999999999994
 30
0.0
  0
POINT
  5
A9
330
A1
100
AcDbEntity
  8
DEFPOINTS
  6
ByBlock
 62
     0
100
AcDbPoint
 10
-25.0
 20
-14.99999999999994
 30
0.0
  0
POINT
  5
AA
330
A1
100
AcDbEntity
  8
DEFPOINTS
  6
ByBlock
 62
     0
100
AcDbPoint
 10
-25.0
 20
-85.40007801013535
 30
0.0
  0
ENDBLK
  5
AC
330
A1
100
AcDbEntity
  8
0
100
AcDbBlockEnd
  0
BLOCK
  5
9E
330
93
100
AcDbEntity
  8
0
100
AcDbBlockBegin
  2
*D5
 70
     1
 10
0.0
 20
0.0
 30
0.0
  3
*D5
  1

  0
LINE
  5
94
330
93
100
AcDbEntity
  8
0
  6
ByBlock
 62
     0
100
AcDbLine
 10
-25.0
 20
-17.99999999999994
 30
0.0
 11
-25.0
 21
-88.40007801013536
 31
0.0
  0
LINE
  5
95
330
93
100
AcDbEntity
  8
0
  6
ByBlock
 62
     0
100
AcDbLine
 10
-19.99999999999997
 20
-17.99999999999994
 30
0.0
 11
-19.99999999999997
 21
-88.40007801013536
 31
0.0
  0
LINE
  5
96
330
93
100
AcDbEntity
  8
0
  6
ByBlock
 62
     0
100
AcDbLine
 10
-29.0
 20
-85.40007801013535
 30
0.0
 11
-33.0
 21
-85.40007801013535
 31
0.0
  0
LINE
  5
97
330
93
100
AcDbEntity
  8
0
  6
ByBlock
 62
     0
100
AcDbLine
 10
-15.99999999999997
 20
-85.40007801013535
 30
0.0
 11
-11.99999999999997
 21
-85.40007801013535
 31
0.0
  0
SOLID
  5
98
330
93
100
AcDbEntity
  8
0
  6
ByBlock
 62
     0
100
AcDbTrace
 10
-29.0
 20
-84.73341134346869
 30
0.0
 11
-29.0
 21
-86.06674467680203
 31
0.0
 12
-25.0
 22
-85.40007801013535
 32
0.0
 13
-25.0
 23
-85.40007801013535
 33
0.0
  0
SOLID
  5
99
330
93
100
AcDbEntity
  8
0
  6
ByBlock
 62
     0
100
AcDbTrace
 10
-15.99999999999997
 20
-84.73341134346869
 30
0.0
 11
-15.99999999999997
 21
-86.06674467680203
 31
0.0
 12
-19.99999999999997
 22
-85.40007801013535
 32
0.0
 13
-19.99999999999997
 23
-85.40007801013535
 33
0.0
  0
TEXT
  5
9A
330
93
100
AcDbEntity
  8
0
  6
ByBlock
 62
     0
100
AcDbText
 10
-15.21477824670729
 20
-83.90007801013537
 30
0.0
 40
3.0
  1
5
  7
ROMANS
 72
     1
 11
-13.78620681813586
 21
-82.40007801013536
 31
0.0
100
AcDbText
 73
     2
  0
POINT
  5
9B
330
93
100
AcDbEntity
  8
DEFPOINTS
  6
ByBlock
 62
     0
100
AcDbPoint
 10
-25.0
 20
-14.99999999999994
 30
0.0
  0
POINT
  5
9C
330
93
100
AcDbEntity
  8
DEFPOINTS
  6
ByBlock
 62
     0
100
AcDbPoint
 10
-19.99999999999997
 20
-14.99999999999994
 30
0.0
  0
POINT
  5
9D
330
93
100
AcDbEntity
  8
DEFPOINTS
  6
ByBlock
 62
     0
100
AcDbPoint
 10
-19.99999999999997
 20
-85.40007801013535
 30
0.0
  0
ENDBLK
  5
9F
330
93
100
AcDbEntity
  8
0
100
AcDbBlockEnd
  0
BLOCK
  5
90
330
86
100
AcDbEntity
  8
0
100
AcDbBlockBegin
  2
*D6
 70
     1
 10
0.0
 20
0.0
 30
0.0
  3
*D6
  1

  0
LINE
  5
87
330
86
100
AcDbEntity
  8
0
  6
ByBlock
 62
     0
100
AcDbLine
 10
-19.99999999999996
 20
-17.99999999999995
 30
0.0
 11
-19.99999999999996
 21
-122.679842650603
 31
0.0
  0
LINE
  5
88
330
86
100
AcDbEntity
  8
0
  6
ByBlock
 62
     0
100
AcDbLine
 10
0.0000000000000343
 20
-33.0
 30
0.0
 11
0.0000000000000343
 21
-122.679842650603
 31
0.0
  0
LINE
  5
89
330
86
100
AcDbEntity
  8
0
  6
ByBlock
 62
     0
100
AcDbLine
 10
-15.99999999999996
 20
-119.679842650603
 30
0.0
 11
-3.999999999999965
 21
-119.679842650603
 31
0.0
  0
SOLID
  5
8A
330
86
100
AcDbEntity
  8
0
  6
ByBlock
 62
     0
100
AcDbTrace
 10
-15.99999999999996
 20
-119.0131759839363
 30
0.0
 11
-15.99999999999996
 21
-120.3465093172697
 31
0.0
 12
-19.99999999999996
 22
-119.679842650603
 32
0.0
 13
-19.99999999999996
 23
-119.679842650603
 33
0.0
  0
SOLID
  5
8B
330
86
100
AcDbEntity
  8
0
  6
ByBlock
 62
     0
100
AcDbTrace
 10
-3.999999999999965
 20
-119.0131759839363
 30
0.0
 11
-3.999999999999965
 21
-120.3465093172697
 31
0.0
 12
0.0000000000000343
 22
-119.679842650603
 32
0.0
 13
0.0000000000000343
 23
-119.679842650603
 33
0.0
  0
TEXT
  5
8C
330
86
100
AcDbEntity
  8
0
  6
ByBlock
 62
     0
100
AcDbText
 10
-12.85714285714282
 20
-118.179842650603
 30
0.0
 40
3.0
  1
20
  7
ROMANS
 72
     1
 11
-9.999999999999966
 21
-116.679842650603
 31
0.0
100
AcDbText
 73
     2
  0
POINT
  5
8D
330
86
100
AcDbEntity
  8
DEFPOINTS
  6
ByBlock
 62
     0
100
AcDbPoint
 10
-19.99999999999996
 20
-14.99999999999994
 30
0.0
  0
POINT
  5
8E
330
86
100
AcDbEntity
  8
DEFPOINTS
  6
ByBlock
 62
     0
100
AcDbPoint
 10
0.0000000000000343
 20
-30.0
 30
0.0
  0
POINT
  5
8F
330
86
100
AcDbEntity
  8
DEFPOINTS
  6
ByBlock
 62
     0
100
AcDbPoint
 10
0.0000000000000343
 20
-119.679842650603
 30
0.0
  0
ENDBLK
  5
91
330
86
100
AcDbEntity
  8
0
100
AcDbBlockEnd
  0
BLOCK
  5
72
330
66
100
AcDbEntity
  8
0
100
AcDbBlockBegin
  2
*D7
 70
     1
 10
0.0
 20
0.0
 30
0.0
  3
*D7
  1

  0
LINE
  5
67
330
66
100
AcDbEntity
  8
0
  6
ByBlock
 62
     0
100
AcDbLine
 10
0.0000000000000343
 20
-33.0
 30
0.0
 11
0.0000000000000343
 21
-106.5768475876738
 31
0.0
  0
LINE
  5
68
330
66
100
AcDbEntity
  8
0
  6
ByBlock
 62
     0
100
AcDbLine
 10
2.000000000000002
 20
-33.0
 30
0.0
 11
2.000000000000002
 21
-106.5768475876738
 31
0.0
  0
LINE
  5
69
330
66
100
AcDbEntity
  8
0
  6
ByBlock
 62
     0
100
AcDbLine
 10
-3.999999999999965
 20
-103.5768475876738
 30
0.0
 11
-7.999999999999965
 21
-103.5768475876738
 31
0.0
  0
LINE
  5
6A
330
66
100
AcDbEntity
  8
0
  6
ByBlock
 62
     0
100
AcDbLine
 10
6.000000000000002
 20
-103.5768475876738
 30
0.0
 11
10.0
 21
-103.5768475876738
 31
0.0
  0
LINE
  5
6B
330
66
100
AcDbEntity
  8
0
  6
ByBlock
 62
     0
100
AcDbLine
 10
10.0
 20
-103.5768475876738
 30
0.0
 11
13.5
 21
-103.5768475876738
 31
0.0
  0
SOLID
  5
6C
330
66
100
AcDbEntity
  8
0
  6
ByBlock
 62
     0
100
AcDbTrace
 10
-3.999999999999965
 20
-102.9101809210071
 30
0.0
 11
-3.999999999999965
 21
-104.2435142543405
 31
0.0
 12
0.0000000000000343
 22
-103.5768475876738
 32
0.0
 13
0.0000000000000343
 23
-103.5768475876738
 33
0.0
  0
SOLID
  5
6D
330
66
100
AcDbEntity
  8
0
  6
ByBlock
 62
     0
100
AcDbTrace
 10
6.000000000000002
 20
-102.9101809210071
 30
0.0
 11
6.000000000000002
 21
-104.2435142543405
 31
0.0
 12
2.000000000000002
 22
-103.5768475876738
 32
0.0
 13
2.000000000000002
 23
-103.5768475876738
 33
0.0
  0
TEXT
  5
6E
330
66
100
AcDbEntity
  8
0
  6
ByBlock
 62
     0
100
AcDbText
 10
11.07142857142857
 20
-102.0768475876738
 30
0.0
 40
3.0
  1
2
  7
ROMANS
 72
     1
 11
12.5
 21
-100.5768475876738
 31
0.0
100
AcDbText
 73
     2
  0
POINT
  5
6F
330
66
100
AcDbEntity
  8
DEFPOINTS
  6
ByBlock
 62
     0
100
AcDbPoint
 10
0.0000000000000343
 20
-30.0
 30
0.0
  0
POINT
  5
70
330
66
100
AcDbEntity
  8
DEFPOINTS
  6
ByBlock
 62
     0
100
AcDbPoint
 10
2.000000000000002
 20
-30.0
 30
0.0
  0
POINT
  5
71
330
66
100
AcDbEntity
  8
DEFPOINTS
  6
ByBlock
 62
     0
100
AcDbPoint
 10
2.000000000000002
 20
-103.5768475876738
 30
0.0
  0
ENDBLK
  5
73
330
66
100
AcDbEntity
  8
0
100
AcDbBlockEnd
  0
BLOCK
  5
5D
330
53
100
AcDbEntity
  8
0
100
AcDbBlockBegin
  2
*D8
 70
     1
 10
0.0
 20
0.0
 30
0.0
  3
*D8
  1

  0
LINE
  5
54
330
53
100
AcDbEntity
  8
0
  6
ByBlock
 62
     0
100
AcDbLine
 10
-160.0
 20
-8.999999999999971
 30
0.0
 11
-160.0
 21
-122.679842650603
 31
0.0
  0
LINE
  5
55
330
53
100
AcDbEntity
  8
0
  6
ByBlock
 62
     0
100
AcDbLine
 10
-19.99999999999997
 20
-17.99999999999994
 30
0.0
 11
-19.99999999999997
 21
-122.679842650603
 31
0.0
  0
LINE
  5
56
330
53
100
AcDbEntity
  8
0
  6
ByBlock
 62
     0
100
AcDbLine
 10
-156.0
 20
-119.679842650603
 30
0.0
 11
-23.99999999999997
 21
-119.679842650603
 31
0.0
  0
SOLID
  5
57
330
53
100
AcDbEntity
  8
0
  6
ByBlock
 62
     0
100
AcDbTrace
 10
-156.0
 20
-119.0131759839363
 30
0.0
 11
-156.0
 21
-120.3465093172697
 31
0.0
 12
-160.0
 22
-119.679842650603
 32
0.0
 13
-160.0
 23
-119.679842650603
 33
0.0
  0
SOLID
  5
58
330
53
100
AcDbEntity
  8
0
  6
ByBlock
 62
     0
100
AcDbTrace
 10
-23.99999999999997
 20
-119.0131759839363
 30
0.0
 11
-23.99999999999997
 21
-120.3465093172697
 31
0.0
 12
-19.99999999999997
 22
-119.679842650603
 32
0.0
 13
-19.99999999999997
 23
-119.679842650603
 33
0.0
  0
TEXT
  5
59
330
53
100
AcDbEntity
  8
0
  6
ByBlock
 62
     0
100
AcDbText
 10
-94.50000000000001
 20
-118.179842650603
 30
0.0
 40
3.0
  1
140
  7
ROMANS
 72
     1
 11
-90.00000000000001
 21
-116.679842650603
 31
0.0
100
AcDbText
 73
     2
  0
POINT
  5
5A
330
53
100
AcDbEntity
  8
DEFPOINTS
  6
ByBlock
 62
     0
100
AcDbPoint
 10
-160.0
 20
-5.999999999999971
 30
0.0
  0
POINT
  5
5B
330
53
100
AcDbEntity
  8
DEFPOINTS
  6
ByBlock
 62
     0
100
AcDbPoint
 10
-19.99999999999997
 20
-14.99999999999994
 30
0.0
  0
POINT
  5
5C
330
53
100
AcDbEntity
  8
DEFPOINTS
  6
ByBlock
 62
     0
100
AcDbPoint
 10
-19.99999999999997
 20
-119.679842650603
 30
0.0
  0
ENDBLK
  5
5E
330
53
100
AcDbEntity
  8
0
100
AcDbBlockEnd
  0
BLOCK
  5
4F
330
45
100
AcDbEntity
  8
0
100
AcDbBlockBegin
  2
A$C6BE937E7
 70
     0
 10
0.0
 20
0.0
 30
0.0
  3
A$C6BE937E7
  1

  0
TEXT
  5
46
330
45
100
AcDbEntity
  8
SPECD
 62
     6
100
AcDbText
 10
4.668392196768905
 20
18.71588358345923
 30
0.0
 40
5.0
  1
AND 20mm-JOINT. AND UNFREEZE DESIRED NEW 
  7
ROMANS
 72
     4
 11
102.5255350539117
 21
21.21588358345923
 31
0.0
100
AcDbText
  0
LINE
  5
48
330
45
100
AcDbEntity
  8
SPECD
 62
     6
100
AcDbLine
 10
0.0000004097963711
 20
53.03369301694681
 30
0.0
 11
202.4869505164367
 21
53.03369301694681
 31
0.0
  0
LINE
  5
49
330
45
100
AcDbEntity
  8
SPECD
 62
     6
100
AcDbLine
 10
0.0000004097963711
 20
0.0000004313964723
 30
0.0
 11
202.4869505164367
 21
0.0000004313964723
 31
0.0
  0
TEXT
  5
4A
330
45
100
AcDbEntity
  8
SPECD
 62
     6
100
AcDbText
 10
4.207581425801549
 20
28.3361790613278
 30
0.0
 40
5.0
  1
FOR OTHER WIDTHS, FREEZE LAYERS 20mm-DIMS
  7
ROMANS
 72
     4
 11
101.3504385686587
 21
30.35998858513733
 31
0.0
100
AcDbText
  0
TEXT
  5
4B
330
45
100
AcDbEntity
  8
SPECD
 62
     6
100
AcDbText
 10
4.215424032625506
 20
43.79289347717675
 30
0.0
 40
5.0
  1
DRAWING SHOWS 20mm JOINT.
  7
ROMANS
 72
     4
 11
63.73923355643501
 21
46.29289347717675
 31
0.0
100
AcDbText
  0
TEXT
  5
4C
330
45
100
AcDbEntity
  8
SPECD
 62
     6
100
AcDbText
 10
4.481432930145061
 20
8.212600757984517
 30
0.0
 40
5.0
  1
JOINT AND DIMS LAYERS.
  7
ROMANS
 72
     4
 11
52.33857578728794
 21
10.71260075798451
 31
0.0
100
AcDbText
  0
LINE
  5
4D
330
45
100
AcDbEntity
  8
SPECD
 62
     6
100
AcDbLine
 10
0.0000004097963711
 20
53.03369301694681
 30
0.0
 11
0.0000004097963711
 21
0.0000004313964723
 31
0.0
  0
LINE
  5
4E
330
45
100
AcDbEntity
  8
SPECD
 62
     6
100
AcDbLine
 10
202.4869505164367
 20
53.03369301694681
 30
0.0
 11
202.4869505164367
 21
0.0000004313964723
 31
0.0
  0
ENDBLK
  5
50
330
45
100
AcDbEntity
  8
0
100
AcDbBlockEnd
  0
ENDSEC
  0
SECTION
  2
ENTITIES
  0
LINE
  5
1F
330
2
100
AcDbEntity
  8
DIMS
  6
CENTER2
 62
     1
100
AcDbLine
 10
-0.0000000000001141
 20
0.0000000000000028
 30
0.0
 11
144.0
 21
0.0000000000000028
 31
0.0
  0
TEXT
  5
21
330
2
100
AcDbEntity
  8
DIMS
 62
     1
100
AcDbText
 10
9.568193832461375
 20
125.8219377013082
 30
0.0
 40
5.0
  1
SPECIFICATION BY DESCRIPTION
  7
ROMANS
 72
     4
 11
69.21105097531851
 21
128.3219377013082
 31
0.0
100
AcDbText
  0
TEXT
  5
22
330
2
100
AcDbEntity
  8
DIMS
 62
     1
100
AcDbText
 10
9.42455722283509
 20
155.7563921658044
 30
0.0
 40
5.0
  1
SPECIFICATION BY PRODUCT
  7
ROMANS
 72
     4
 11
62.87693817521603
 21
158.2563921658044
 31
0.0
100
AcDbText
  0
DIMENSION
  5
23
330
2
100
AcDbEntity
  8
DIMS
 62
     1
100
AcDbDimension
  2
*D1
 10
135.0
 20
-119.679842650603
 30
0.0
 11
67.5
 21
-116.679842650603
 31
0.0
 71
     5
 42
-1.0
  3
1-2
100
AcDbAlignedDimension
 13
0.0000000000000027
 23
-30.0
 33
0.0
 14
135.0
 24
-9.0
 34
0.0
100
AcDbRotatedDimension
  0
LINE
  5
31
330
2
100
AcDbEntity
  8
ANCON-DSD
100
AcDbLine
 10
4.000000000000042
 20
-10.0
 30
0.0
 11
135.0
 21
-10.0
 31
0.0
  0
LINE
  5
33
330
2
100
AcDbEntity
  8
ANCON-DSD
100
AcDbLine
 10
4.0
 20
10.0
 30
0.0
 11
135.0
 21
10.0
 31
0.0
  0
LINE
  5
34
330
2
100
AcDbEntity
  8
20MM-JOINT
  6
Continuous
 62
     3
100
AcDbLine
 10
-45.00000000000008
 20
40.00000000000008
 30
0.0
 11
-44.99999999999997
 21
8.000000000000031
 31
0.0
  0
LINE
  5
36
330
2
100
AcDbEntity
  8
20MM-JOINT
  6
Continuous
 62
     3
100
AcDbLine
 10
-57.00000000000006
 20
40.00000000000008
 30
0.0
 11
-56.99999999999997
 21
8.000000000000024
 31
0.0
  0
LINE
  5
37
330
2
100
AcDbEntity
  8
20MM-JOINT
  6
Continuous
 62
     3
100
AcDbLine
 10
-75.00000000000017
 20
70.00000000000008
 30
0.0
 11
-74.99999999999994
 21
8.000000000000031
 31
0.0
  0
LINE
  5
38
330
2
100
AcDbEntity
  8
20MM-JOINT
  6
Continuous
 62
     3
100
AcDbLine
 10
-87.00000000000017
 20
70.00000000000008
 30
0.0
 11
-86.99999999999997
 21
8.000000000000024
 31
0.0
  0
LINE
  5
39
330
2
100
AcDbEntity
  8
ANCON-DSD
  6
Continuous
 62
     3
100
AcDbLine
 10
64.00000000000026
 20
70.00000000000006
 30
0.0
 11
64.00000000000007
 21
9.999999999999996
 31
0.0
  0
LINE
  5
3A
330
2
100
AcDbEntity
  8
ANCON-DSD
  6
Continuous
 62
     3
100
AcDbLine
 10
52.00000000000025
 20
70.00000000000006
 30
0.0
 11
52.00000000000006
 21
10.0
 31
0.0
  0
LINE
  5
3B
330
2
100
AcDbEntity
  8
ANCON-DSD
  6
Continuous
 62
     3
100
AcDbLine
 10
34.00000000000015
 20
40.00000000000006
 30
0.0
 11
34.00000000000006
 21
9.999999999999996
 31
0.0
  0
LINE
  5
3C
330
2
100
AcDbEntity
  8
ANCON-DSD
  6
Continuous
 62
     3
100
AcDbLine
 10
22.00000000000017
 20
40.00000000000007
 30
0.0
 11
22.00000000000006
 21
10.0
 31
0.0
  0
LINE
  5
3D
330
2
100
AcDbEntity
  8
20MM-JOINT
  6
CENTER2
 62
     1
100
AcDbLine
 10
-51.00000000000008
 20
45.00000000000008
 30
0.0
 11
-50.9999999999998
 21
-44.99999999999994
 31
0.0
  0
LINE
  5
3E
330
2
100
AcDbEntity
  8
20MM-JOINT
  6
CENTER2
 62
     1
100
AcDbLine
 10
-81.00000000000017
 20
75.00000000000008
 30
0.0
 11
-80.99999999999969
 21
-74.99999999999994
 31
0.0
  0
LINE
  5
3F
330
2
100
AcDbEntity
  8
DIMS
  6
CENTER2
 62
     1
100
AcDbLine
 10
58.00000000000027
 20
75.00000000000006
 30
0.0
 11
57.99999999999979
 21
-74.99999999999994
 31
0.0
  0
LINE
  5
40
330
2
100
AcDbEntity
  8
DIMS
  6
CENTER2
 62
     1
100
AcDbLine
 10
28.00000000000018
 20
45.00000000000007
 30
0.0
 11
27.99999999999988
 21
-44.99999999999994
 31
0.0
  0
LINE
  5
41
330
2
100
AcDbEntity
  8
20MM-JOINT
 62
     2
100
AcDbLine
 10
-19.99999999999994
 20
-144.7460648130115
 30
0.0
 11
-20.0
 21
144.7279442517058
 31
0.0
  0
LINE
  5
42
330
2
100
AcDbEntity
  8
CONCRETE
100
AcDbLine
 10
0.0000000000000568
 20
-144.7370045323585
 30
0.0
 11
0.0
 21
144.7370045323586
 31
0.0
  0
DIMENSION
  5
51
330
2
100
AcDbEntity
  8
20MM-DIMS
100
AcDbDimension
  2
*D8
 10
-19.99999999999997
 20
-119.679842650603
 30
0.0
 11
-90.00000000000001
 21
-116.679842650603
 31
0.0
 71
     5
 42
-1.0
  3
1-2
100
AcDbAlignedDimension
 13
-160.0
 23
-5.999999999999971
 33
0.0
 14
-19.99999999999997
 24
-14.99999999999994
 34
0.0
100
AcDbRotatedDimension
  0
LINE
  5
5F
330
2
100
AcDbEntity
  8
20MM-JOINT
  6
CENTER2
 62
     1
100
AcDbLine
 10
-165.0
 20
0.0000000000000568
 30
0.0
 11
20.00000000000005
 21
0.0000000000000568
 31
0.0
  0
LINE
  5
60
330
2
100
AcDbEntity
  8
20MM-JOINT
 62
     3
100
AcDbLine
 10
-160.0
 20
-7.999999999999971
 30
0.0
 11
-25.0
 21
-7.999999999999971
 31
0.0
  0
LINE
  5
61
330
2
100
AcDbEntity
  8
20MM-JOINT
 62
     3
100
AcDbLine
 10
-160.0
 20
8.000000000000028
 30
0.0
 11
-25.0
 21
8.000000000000028
 31
0.0
  0
LINE
  5
62
330
2
100
AcDbEntity
  8
20MM-JOINT
  6
Continuous
 62
     3
100
AcDbLine
 10
-86.99999999999972
 20
-69.99999999999994
 30
0.0
 11
-74.9999999999997
 21
-69.99999999999994
 31
0.0
  0
LINE
  5
63
330
2
100
AcDbEntity
  8
20MM-JOINT
  6
Continuous
 62
     3
100
AcDbLine
 10
-86.99999999999992
 20
-7.999999999999975
 30
0.0
 11
-86.99999999999972
 21
-69.99999999999994
 31
0.0
  0
LINE
  5
64
330
2
100
AcDbEntity
  8
20MM-JOINT
 62
     3
100
AcDbLine
 10
-160.0
 20
8.000000000000028
 30
0.0
 11
-160.0
 21
-7.999999999999971
 31
0.0
  0
DIMENSION
  5
65
330
2
100
AcDbEntity
  8
DIMS
100
AcDbDimension
  2
*D7
 10
2.000000000000002
 20
-103.5768475876738
 30
0.0
 11
12.5
 21
-100.5768475876738
 31
0.0
 71
     5
 42
-1.0
  3
1-2
100
AcDbAlignedDimension
 13
0.0000000000000343
 23
-30.0
 33
0.0
 14
2.000000000000002
 24
-30.0
 34
0.0
100
AcDbRotatedDimension
  0
LINE
  5
74
330
2
100
AcDbEntity
  8
20MM-JOINT
  6
HIDDEN
 62
     3
100
AcDbLine
 10
0.0000000000000269
 20
8.000000000000028
 30
0.0
 11
99.99999999999994
 21
8.000000000000028
 31
0.0
  0
LINE
  5
76
330
2
100
AcDbEntity
  8
20MM-JOINT
  6
HIDDEN
 62
     3
100
AcDbLine
 10
0.00000000000003
 20
-7.999999999999972
 30
0.0
 11
99.99999999999994
 21
-7.999999999999971
 31
0.0
  0
DIMENSION
  5
77
330
2
100
AcDbEntity
  8
DIMS
 62
     1
100
AcDbDimension
  2
*D0
 10
2.000000000000002
 20
-85.40007801013535
 30
0.0
 11
14.99999999999994
 21
-82.40007801013536
 31
0.0
 71
     5
 42
-1.0
  3
1-2
100
AcDbAlignedDimension
 13
27.99999999999988
 23
-44.99999999999994
 33
0.0
 14
2.000000000000002
 24
-30.0
 34
0.0
100
AcDbRotatedDimension
  0
LINE
  5
84
330
2
100
AcDbEntity
  8
20MM-JOINT
  6
Continuous
 62
     3
100
AcDbLine
 10
-74.99999999999992
 20
-7.999999999999968
 30
0.0
 11
-74.99999999999968
 21
-69.99999999999992
 31
0.0
  0
DIMENSION
  5
85
330
2
100
AcDbEntity
  8
20MM-DIMS
100
AcDbDimension
  2
*D6
 10
0.0000000000000343
 20
-119.679842650603
 30
0.0
 11
-9.999999999999966
 21
-116.679842650603
 31
0.0
 71
     5
 42
-1.0
  3
1-2
100
AcDbAlignedDimension
 13
-19.99999999999996
 23
-14.99999999999994
 33
0.0
 14
0.0000000000000343
 24
-30.0
 34
0.0
100
AcDbRotatedDimension
  0
DIMENSION
  5
92
330
2
100
AcDbEntity
  8
20MM-DIMS
100
AcDbDimension
  2
*D5
 10
-19.99999999999997
 20
-85.40007801013535
 30
0.0
 11
-13.78620681813586
 21
-82.40007801013536
 31
0.0
 70
   128
 71
     5
 42
-1.0
  3
1-2
100
AcDbAlignedDimension
 13
-25.0
 23
-14.99999999999994
 33
0.0
 14
-19.99999999999997
 24
-14.99999999999994
 34
0.0
100
AcDbRotatedDimension
  0
DIMENSION
  5
A0
330
2
100
AcDbEntity
  8
20MM-DIMS
100
AcDbDimension
  2
*D4
 10
-25.0
 20
-85.40007801013535
 30
0.0
 11
-37.9999999999999
 21
-82.40007801013536
 31
0.0
 71
     5
 42
-1.0
  3
1-2
100
AcDbAlignedDimension
 13
-50.9999999999998
 23
-44.99999999999994
 33
0.0
 14
-25.0
 24
-14.99999999999994
 34
0.0
100
AcDbRotatedDimension
  0
DIMENSION
  5
AD
330
2
100
AcDbEntity
  8
20MM-DIMS
100
AcDbDimension
  2
*D3
 10
-50.9999999999998
 20
-85.40007801013535
 30
0.0
 11
-65.99999999999974
 21
-82.40007801013536
 31
0.0
 71
     5
 42
-1.0
  3
1-2
100
AcDbAlignedDimension
 13
-80.99999999999969
 23
-74.99999999999994
 33
0.0
 14
-50.9999999999998
 24
-44.99999999999994
 34
0.0
100
AcDbRotatedDimension
  0
LINE
  5
BA
330
2
100
AcDbEntity
  8
20MM-JOINT
  6
Continuous
 62
     3
100
AcDbLine
 10
-56.99999999999992
 20
-8.000000000000003
 30
0.0
 11
-56.9999999999998
 21
-39.99999999999994
 31
0.0
  0
LINE
  5
BB
330
2
100
AcDbEntity
  8
20MM-JOINT
  6
Continuous
 62
     3
100
AcDbLine
 10
-44.99999999999992
 20
-7.999999999999996
 30
0.0
 11
-44.9999999999998
 21
-39.99999999999994
 31
0.0
  0
LINE
  5
BC
330
2
100
AcDbEntity
  8
20MM-JOINT
  6
Continuous
 62
     3
100
AcDbLine
 10
-56.99999999999981
 20
-39.99999999999994
 30
0.0
 11
-44.99999999999979
 21
-39.99999999999994
 31
0.0
  0
LINE
  5
BD
330
2
100
AcDbEntity
  8
20MM-JOINT
 62
     3
100
AcDbLine
 10
-19.99999999999997
 20
15.00000000000008
 30
0.0
 11
-19.99999999999997
 21
-14.99999999999994
 31
0.0
  0
LINE
  5
BE
330
2
100
AcDbEntity
  8
20MM-JOINT
 62
     3
100
AcDbLine
 10
-24.99999999999997
 20
15.00000000000008
 30
0.0
 11
-25.0
 21
-14.99999999999994
 31
0.0
  0
LINE
  5
C3
330
2
100
AcDbEntity
  8
ANCON-DSD
100
AcDbLine
 10
4.000000000000002
 20
13.5
 30
0.0
 11
4.000000000000059
 21
-13.5
 31
0.0
  0
LINE
  5
C4
330
2
100
AcDbEntity
  8
ANCON-DSD
100
AcDbLine
 10
2.000000000000002
 20
30.0181205613058
 30
0.0
 11
2.000000000000002
 21
-30.0
 31
0.0
  0
LINE
  5
C5
330
2
100
AcDbEntity
  8
ANCON-DSD
100
AcDbLine
 10
0.0000000000000027
 20
30.0181205613058
 30
0.0
 11
0.0000000000000027
 21
-30.0
 31
0.0
  0
LINE
  5
C6
330
2
100
AcDbEntity
  8
20MM-JOINT
 62
     3
100
AcDbLine
 10
-20.0
 20
-7.999999999999971
 30
0.0
 11
0.00000000000003
 21
-7.99999999999997
 31
0.0
  0
LINE
  5
C7
330
2
100
AcDbEntity
  8
20MM-JOINT
  6
CENTER2
 62
     3
100
AcDbLine
 10
-25.00000000000003
 20
-14.99999999999994
 30
0.0
 11
-19.99999999999997
 21
-14.99999999999994
 31
0.0
  0
ARC
  5
C8
330
2
100
AcDbEntity
  8
ANCON-DSD
100
AcDbCircle
 10
-0.0624999999999973
 20
-23.0
 30
0.0
 40
4.0625
100
AcDbArc
 50
300.5102374061155
 51
59.48976259388445
  0
LINE
  5
C9
330
2
100
AcDbEntity
  8
ANCON-DSD
100
AcDbLine
 10
0.0000000000000027
 20
-30.0
 30
0.0
 11
2.000000000000002
 21
-30.0
 31
0.0
  0
ARC
  5
CA
330
2
100
AcDbEntity
  8
ANCON-DSD
100
AcDbCircle
 10
2.000000000000002
 20
-13.5
 30
0.0
 40
2.0
100
AcDbArc
 50
270.0
 51
0.0
  0
LINE
  5
CB
330
2
100
AcDbEntity
  8
20MM-JOINT
 62
     3
100
AcDbLine
 10
-20.0
 20
8.000000000000028
 30
0.0
 11
0.0000000000000269
 21
8.000000000000028
 31
0.0
  0
LINE
  5
CC
330
2
100
AcDbEntity
  8
20MM-JOINT
  6
CENTER2
 62
     3
100
AcDbLine
 10
-24.99999999999997
 20
15.00000000000008
 30
0.0
 11
-19.99999999999997
 21
15.00000000000008
 31
0.0
  0
ARC
  5
CD
330
2
100
AcDbEntity
  8
ANCON-DSD
100
AcDbCircle
 10
2.000000000000002
 20
13.5
 30
0.0
 40
1.997220966142208
100
AcDbArc
 50
0.0
 51
90.0
  0
ARC
  5
CE
330
2
100
AcDbEntity
  8
ANCON-DSD
100
AcDbCircle
 10
-0.0624999999999405
 20
23.0
 30
0.0
 40
4.062499999999995
100
AcDbArc
 50
300.5102374061146
 51
59.48976259388494
  0
LINE
  5
CF
330
2
100
AcDbEntity
  8
ANCON-DSD
100
AcDbLine
 10
0.0000000000000027
 20
30.0
 30
0.0
 11
0.0000000000000027
 21
30.0181205613058
 31
0.0
  0
LINE
  5
D0
330
2
100
AcDbEntity
  8
ANCON-DSD
100
AcDbLine
 10
0.0000000000000027
 20
30.0
 30
0.0
 11
2.000000000000002
 21
30.0
 31
0.0
  0
LINE
  5
D1
330
2
100
AcDbEntity
  8
ANCON-DSD
  6
Continuous
 62
     3
100
AcDbLine
 10
51.99999999999999
 20
-9.999999999999996
 30
0.0
 11
51.99999999999978
 21
-69.99999999999992
 31
0.0
  0
LINE
  5
D2
330
2
100
AcDbEntity
  8
ANCON-DSD
  6
Continuous
 62
     3
100
AcDbLine
 10
64.0
 20
-10.0
 30
0.0
 11
63.99999999999981
 21
-69.99999999999994
 31
0.0
  0
LINE
  5
D3
330
2
100
AcDbEntity
  8
ANCON-DSD
  6
Continuous
 62
     3
100
AcDbLine
 10
63.99999999999981
 20
-69.99999999999994
 30
0.0
 11
51.99999999999978
 21
-69.99999999999994
 31
0.0
  0
DIMENSION
  5
D4
330
2
100
AcDbEntity
  8
DIMS
100
AcDbDimension
  2
*D2
 10
57.99999999999979
 20
-85.40007801013535
 30
0.0
 11
42.99999999999983
 21
-82.40007801013536
 31
0.0
 71
     5
 42
-1.0
  3
1-2
100
AcDbAlignedDimension
 13
27.99999999999988
 23
-44.99999999999994
 33
0.0
 14
57.99999999999979
 24
-74.99999999999994
 34
0.0
100
AcDbRotatedDimension
  0
LINE
  5
E1
330
2
100
AcDbEntity
  8
ANCON-DSD
  6
Continuous
 62
     3
100
AcDbLine
 10
33.99999999999999
 20
-10.0
 30
0.0
 11
33.9999999999999
 21
-39.99999999999992
 31
0.0
  0
LINE
  5
E2
330
2
100
AcDbEntity
  8
ANCON-DSD
  6
Continuous
 62
     3
100
AcDbLine
 10
22.0
 20
-9.999999999999996
 30
0.0
 11
21.99999999999989
 21
-39.99999999999992
 31
0.0
  0
LINE
  5
E3
330
2
100
AcDbEntity
  8
ANCON-DSD
  6
Continuous
 62
     3
100
AcDbLine
 10
33.9999999999999
 20
-39.99999999999993
 30
0.0
 11
21.99999999999989
 21
-39.99999999999993
 31
0.0
  0
LINE
  5
E4
330
2
100
AcDbEntity
  8
20MM-JOINT
  6
HIDDEN
 62
     3
100
AcDbLine
 10
99.99999999999994
 20
8.000000000000028
 30
0.0
 11
99.99999999999994
 21
-7.999999999999971
 31
0.0
  0
LINE
  5
E5
330
2
100
AcDbEntity
  8
20MM-JOINT
  6
Continuous
 62
     3
100
AcDbLine
 10
-87.00000000000017
 20
70.00000000000008
 30
0.0
 11
-75.00000000000017
 21
70.00000000000007
 31
0.0
  0
LINE
  5
E6
330
2
100
AcDbEntity
  8
20MM-JOINT
 62
     6
100
AcDbLine
 10
-203.6155975269847
 20
138.3230134546778
 30
0.0
 11
-28.23691983512216
 21
138.3230134546778
 31
0.0
  0
LINE
  5
E7
330
2
100
AcDbEntity
  8
20MM-JOINT
 62
     6
100
AcDbLine
 10
-203.6155975269846
 20
111.2955283796307
 30
0.0
 11
-28.23691983512219
 21
111.2955283796307
 31
0.0
  0
LINE
  5
E8
330
2
100
AcDbEntity
  8
20MM-JOINT
 62
     6
100
AcDbLine
 10
-203.6155975269846
 20
164.3937745137234
 30
0.0
 11
-28.23691983512219
 21
164.3937745137234
 31
0.0
  0
TEXT
  5
E9
330
2
100
AcDbEntity
  8
20MM-JOINT
 62
     6
100
AcDbText
 10
-87.58727627209884
 20
153.5431354325121
 30
0.0
 40
5.0
  1
SERVICEABILITY
  7
ROMANS
 72
     4
 11
-59.73013341495598
 21
156.0431354325121
 31
0.0
100
AcDbText
  0
TEXT
  5
EA
330
2
100
AcDbEntity
  8
20MM-JOINT
 62
     6
100
AcDbText
 10
-191.9920381768607
 20
122.1110854727292
 30
0.0
 40
5.0
  1
DSD30
  7
ROMANS
 72
     4
 11
-179.7301334149559
 21
124.6110854727292
 31
0.0
100
AcDbText
  0
TEXT
  5
EB
330
2
100
AcDbEntity
  8
20MM-JOINT
 62
     6
100
AcDbText
 10
-197.7063238911464
 20
153.4870216140852
 30
0.0
 40
5.0
  1
DSD REF:
  7
ROMANS
 72
     4
 11
-179.7301334149559
 21
155.9870216140852
 31
0.0
100
AcDbText
  0
LINE
  5
EC
330
2
100
AcDbEntity
  8
20MM-JOINT
 62
     6
100
AcDbLine
 10
-203.6155975269846
 20
164.3937745137234
 30
0.0
 11
-203.6155975269846
 21
111.2955283796307
 31
0.0
  0
LINE
  5
ED
330
2
100
AcDbEntity
  8
20MM-JOINT
 62
     6
100
AcDbLine
 10
-153.6155975269846
 20
164.3937745137234
 30
0.0
 11
-153.6155975269846
 21
111.2955283796307
 31
0.0
  0
LINE
  5
EE
330
2
100
AcDbEntity
  8
20MM-JOINT
 62
     6
100
AcDbLine
 10
-93.10750396992181
 20
164.3937745137234
 30
0.0
 11
-93.10750396992181
 21
111.2955283796307
 31
0.0
  0
TEXT
  5
EF
330
2
100
AcDbEntity
  8
20MM-JOINT
 62
     6
100
AcDbText
 10
-148.8717728653228
 20
153.4870216140852
 30
0.0
 40
5.0
  1
DESIGN JOINT
  7
ROMANS
 72
     4
 11
-122.8003442938942
 21
155.9870216140852
 31
0.0
100
AcDbText
  0
TEXT
  5
F0
330
2
100
AcDbEntity
  8
20MM-JOINT
 62
     6
100
AcDbText
 10
-132.5872762720988
 20
122.1110854727292
 30
0.0
 40
5.0
  1
20 MM
  7
ROMANS
 72
     4
 11
-119.7301334149559
 21
124.6110854727292
 31
0.0
100
AcDbText
  0
TEXT
  5
F1
330
2
100
AcDbEntity
  8
20MM-JOINT
 62
     6
100
AcDbText
 10
-133.3955823891323
 20
144.7951291658169
 30
0.0
 40
5.0
  1
WIDTH
  7
ROMANS
 72
     4
 11
-122.8003442938942
 21
147.2951291658169
 31
0.0
100
AcDbText
  0
LINE
  5
F2
330
2
100
AcDbEntity
  8
20MM-JOINT
 62
     6
100
AcDbLine
 10
-28.23691983512219
 20
164.3937745137234
 30
0.0
 11
-28.23691983512219
 21
111.2955283796307
 31
0.0
  0
LINE
  5
F3
330
2
100
AcDbEntity
  8
20MM-JOINT
  6
Continuous
 62
     3
100
AcDbLine
 10
-57.00000000000006
 20
40.00000000000008
 30
0.0
 11
-45.00000000000008
 21
40.00000000000008
 31
0.0
  0
TEXT
  5
F4
330
2
100
AcDbEntity
  8
20MM-JOINT
 62
     6
100
AcDbText
 10
-84.49203817686074
 20
144.7922023599884
 30
0.0
 40
5.0
  1
LOAD ( kN )
  7
ROMANS
 72
     4
 11
-59.73013341495598
 21
146.9350595028456
 31
0.0
100
AcDbText
  0
TEXT
  5
F5
330
2
100
AcDbEntity
  8
20MM-JOINT
 62
     6
100
AcDbText
 10
-68.06346674828931
 20
122.1110854727292
 30
0.0
 40
5.0
  1
33.7
  7
ROMANS
 72
     4
 11
-59.73013341495598
 21
124.6110854727292
 31
0.0
100
AcDbText
  0
LINE
  5
F6
330
2
100
AcDbEntity
  8
ANCON-DSD
  6
Continuous
 62
     3
100
AcDbLine
 10
64.00000000000024
 20
70.00000000000006
 30
0.0
 11
52.00000000000025
 21
70.00000000000006
 31
0.0
  0
LINE
  5
F7
330
2
100
AcDbEntity
  8
ANCON-DSD
  6
Continuous
 62
     3
100
AcDbLine
 10
34.00000000000015
 20
40.00000000000007
 30
0.0
 11
22.00000000000017
 21
40.00000000000007
 31
0.0
  0
ARC
  5
F8
330
2
100
AcDbEntity
  8
ANCON-DSD
100
AcDbCircle
 10
124.5000000000001
 20
0.0
 30
0.0
 40
14.49999999999992
100
AcDbArc
 50
316.397181027296
 51
43.60281897270392
  0
LINE
  5
F9
330
2
100
AcDbEntity
  8
ANCON-DSD
100
AcDbLine
 10
135.0
 20
10.0
 30
0.0
 11
135.0
 21
-10.0
 31
0.0
  0
LINE
  5
FA
330
2
100
AcDbEntity
  8
SPECD
 62
     6
100
AcDbLine
 10
136.9969295137479
 20
135.0269886145541
 30
0.0
 11
339.4838796203883
 21
135.0269886145541
 31
0.0
  0
LINE
  5
FB
330
2
100
AcDbEntity
  8
SPECD
 62
     6
100
AcDbLine
 10
136.9969295137479
 20
81.99329602900377
 30
0.0
 11
339.4838796203883
 21
81.99329602900377
 31
0.0
  0
TEXT
  5
FC
330
2
100
AcDbEntity
  8
SPECD
 62
     6
100
AcDbText
 10
141.0806102425394
 20
95.73127162539462
 30
0.0
 40
5.0
  1
AND CAPABLE OF TRANSFERRING A SERVICEABILITY
  7
ROMANS
 72
     4
 11
238.4615626234918
 21
98.23127162539464
 31
0.0
100
AcDbText
  0
TEXT
  5
FD
330
2
100
AcDbEntity
  8
SPECD
 62
     6
100
AcDbText
 10
140.6261750725893
 20
105.7803290393237
 30
0.0
 40
5.0
  1
SUITABLE FOR A DESIGN JOINT WIDTH OF ?? MM
  7
ROMANS
 72
     4
 11
235.5071274535418
 21
108.2803290393236
 31
0.0
100
AcDbText
  0
TEXT
  5
FE
330
2
100
AcDbEntity
  8
SPECD
 62
     6
100
AcDbText
 10
140.5674783125317
 20
115.6814767489934
 30
0.0
 40
5.0
  1
COMPRISING SLEEVE AND DOWEL COMPONENT
  7
ROMANS
 72
     4
 11
228.5436687887222
 21
118.1814767489934
 31
0.0
100
AcDbText
  0
TEXT
  5
FF
330
2
100
AcDbEntity
  8
SPECD
 62
     6
100
AcDbText
 10
141.2886627185875
 20
125.786189074784
 30
0.0
 40
5.0
  1
TWO PART STAINLESS STEEL SHEAR CONNECTOR
  7
ROMANS
 72
     4
 11
233.9077103376353
 21
128.286189074784
 31
0.0
100
AcDbText
  0
TEXT
  5
100
330
2
100
AcDbEntity
  8
SPECD
 62
     6
100
AcDbText
 10
142.2663909988825
 20
85.69634646043235
 30
0.0
 40
5.0
  1
LOAD OF ??? kN
  7
ROMANS
 72
     4
 11
174.8854386179302
 21
88.19634646043235
 31
0.0
100
AcDbText
  0
LINE
  5
101
330
2
100
AcDbEntity
  8
SPECD
 62
     6
100
AcDbLine
 10
136.9969295137479
 20
135.0269886145541
 30
0.0
 11
136.9969295137479
 21
81.99329602900377
 31
0.0
  0
LINE
  5
102
330
2
100
AcDbEntity
  8
SPECP
 62
     6
100
AcDbLine
 10
136.9969295137479
 20
152.4755269896466
 30
0.0
 11
204.5867804365098
 21
152.4755269896466
 31
0.0
  0
LINE
  5
104
330
2
100
AcDbEntity
  8
SPECP
 62
     6
100
AcDbLine
 10
136.9969295137479
 20
164.3935022816479
 30
0.0
 11
204.5867804365098
 21
164.3935022816479
 31
0.0
  0
TEXT
  5
105
330
2
100
AcDbEntity
  8
SPECP
 62
     6
100
AcDbText
 10
141.4910391871399
 20
155.7563921658044
 30
0.0
 40
5.0
  1
STAIFIX DSD ??
  7
ROMANS
 72
     4
 11
171.0148487109495
 21
158.2563921658044
 31
0.0
100
AcDbText
  0
LINE
  5
106
330
2
100
AcDbEntity
  8
SPECP
 62
     6
100
AcDbLine
 10
136.9969295137479
 20
164.3935022816479
 30
0.0
 11
136.9969295137479
 21
152.4755269896466
 31
0.0
  0
LINE
  5
107
330
2
100
AcDbEntity
  8
SPECP
 62
     6
100
AcDbLine
 10
204.5867804365098
 20
164.3935022816479
 30
0.0
 11
204.5867804365098
 21
152.4755269896466
 31
0.0
  0
LINE
  5
108
330
2
100
AcDbEntity
  8
SPECD
 62
     6
100
AcDbLine
 10
339.4838796203883
 20
135.0269886145541
 30
0.0
 11
339.4838796203883
 21
81.99329602900377
 31
0.0
  0
ENDSEC
  0
SECTION
  2
OBJECTS
  0
DICTIONARY
  5
1A
330
0
100
AcDbDictionary
281
     1
  3
ACAD_GROUP
350
18
  3
ACAD_LAYOUT
350
10C
  3
ACAD_MLINESTYLE
350
19
  3
ACAD_PLOTSETTINGS
350
10D
  3
ACAD_PLOTSTYLENAME
350
10A
  0
DICTIONARY
  5
137
330
2
100
AcDbDictionary
280
     1
281
     1
  3
ACAD_LAYOUTSELFREF
360
138
  0
DICTIONARY
  5
139
330
7
100
AcDbDictionary
280
     1
281
     1
  3
ACAD_LAYOUTSELFREF
360
13A
  0
DICTIONARY
  5
18
102
{ACAD_REACTORS
330
1A
102
}
330
1A
100
AcDbDictionary
281
     1
  0
DICTIONARY
  5
10C
102
{ACAD_REACTORS
330
1A
102
}
330
1A
100
AcDbDictionary
281
     1
  3
Layout1
350
10F
  3
Model
350
10E
  0
DICTIONARY
  5
19
102
{ACAD_REACTORS
330
1A
102
}
330
1A
100
AcDbDictionary
281
     1
  3
STANDARD
350
1D
  0
DICTIONARY
  5
10D
102
{ACAD_REACTORS
330
1A
102
}
330
1A
100
AcDbDictionary
281
     1
  0
ACDBDICTIONARYWDFLT
  5
10A
102
{ACAD_REACTORS
330
1A
102
}
330
1A
100
AcDbDictionary
281
     1
  3
Normal
350
10B
100
AcDbDictionaryWithDefault
340
10B
  0
XRECORD
  5
138
102
{ACAD_REACTORS
330
137
102
}
330
137
100
AcDbXrecord
280
     1
340
2
  0
XRECORD
  5
13A
102
{ACAD_REACTORS
330
139
102
}
330
139
100
AcDbXrecord
280
     1
340
7
  0
LAYOUT
  5
10F
102
{ACAD_REACTORS
330
10C
102
}
330
10C
100
AcDbPlotSettings
  1

  2
None
  4

  6

 40
0.0
 41
0.0
 42
0.0
 43
0.0
 44
0.0
 45
0.0
 46
0.0
 47
0.0
 48
0.0
 49
0.0
140
0.0
141
0.0
142
1.0
143
1.0
 70
   688
 72
     0
 73
     0
 74
     5
  7
Std pen settings.ctb
 75
    16
147
1.0
148
0.0
149
0.0
100
AcDbLayout
  1
Layout1
 70
     1
 71
     1
 10
0.0
 20
0.0
 11
420.0
 21
297.0
 12
0.0
 22
0.0
 32
0.0
 14
1.000000000000000E+20
 24
1.000000000000000E+20
 34
1.000000000000000E+20
 15
-1.000000000000000E+20
 25
-1.000000000000000E+20
 35
-1.000000000000000E+20
146
0.0
 13
0.0
 23
0.0
 33
0.0
 16
1.0
 26
0.0
 36
0.0
 17
0.0
 27
1.0
 37
0.0
 76
     0
330
7
  0
LAYOUT
  5
10E
102
{ACAD_REACTORS
330
10C
102
}
330
10C
100
AcDbPlotSettings
  1

  2
None
  4

  6

 40
0.0
 41
0.0
 42
0.0
 43
0.0
 44
0.0
 45
0.0
 46
0.0
 47
0.0
 48
0.0
 49
0.0
140
0.0
141
0.0
142
1.0
143
1.0
 70
  1712
 72
     0
 73
     0
 74
     0
  7
Std pen settings.ctb
 75
     0
147
1.0
148
0.0
149
0.0
100
AcDbLayout
  1
Model
 70
     1
 71
     0
 10
0.0
 20
0.0
 11
12.0
 21
9.0
 12
0.0
 22
0.0
 32
0.0
 14
0.0
 24
0.0
 34
0.0
 15
0.0
 25
0.0
 35
0.0
146
0.0
 13
0.0
 23
0.0
 33
0.0
 16
1.0
 26
0.0
 36
0.0
 17
0.0
 27
1.0
 37
0.0
 76
     0
330
2
  0
MLINESTYLE
  5
1D
102
{ACAD_REACTORS
330
19
102
}
330
19
100
AcDbMlineStyle
  2
STANDARD
 70
     0
  3

 62
   256
 51
90.0
 52
90.0
 71
     2
 49
0.5
 62
   256
  6
BYLAYER
 49
-0.5
 62
   256
  6
BYLAYER
  0
ACDBPLACEHOLDER
  5
10B
102
{ACAD_REACTORS
330
10A
102
}
330
10A
  0
ENDSEC
  0
EOF
