  0
SECTION
  2
HEADER
  9
$ACADVER
  1
AC1015
  9
$ACADMAINTVER
 70
    10
  9
$DWGCODEPAGE
  3
ANSI_1252
  9
$INSBASE
 10
0.0000000000001137
 20
0.0000000000001119
 30
0.0
  9
$EXTMIN
 10
-226.2857452908586
 20
-144.7460648130115
 30
0.0
  9
$EXTMAX
 10
339.4838796203882
 20
164.6501194574857
 30
0.0
  9
$LIMMIN
 10
0.0
 20
0.0
  9
$LIMMAX
 10
420.0
 20
297.0
  9
$ORTHOMODE
 70
     1
  9
$REGENMODE
 70
     1
  9
$FILLMODE
 70
     1
  9
$QTEXTMODE
 70
     0
  9
$MIRRTEXT
 70
     1
  9
$LTSCALE
 40
0.25
  9
$ATTMODE
 70
     1
  9
$TEXTSIZE
 40
5.0
  9
$TRACEWID
 40
10.0
  9
$TEXTSTYLE
  7
ROMANS
  9
$CLAYER
  8
DIMS
  9
$CELTYPE
  6
ByLayer
  9
$CECOLOR
 62
   256
  9
$CELTSCALE
 40
1.0
  9
$DISPSILH
 70
     0
  9
$DIMSCALE
 40
0.0
  9
$DIMASZ
 40
4.0
  9
$DIMEXO
 40
3.0
  9
$DIMDLI
 40
10.0
  9
$DIMRND
 40
0.0
  9
$DIMDLE
 40
1.25
  9
$DIMEXE
 40
3.0
  9
$DIMTP
 40
0.0
  9
$DIMTM
 40
0.0
  9
$DIMTXT
 40
3.0
  9
$DIMCEN
 40
-3.0
  9
$DIMTSZ
 40
0.0
  9
$DIMTOL
 70
     0
  9
$DIMLIM
 70
     0
  9
$DIMTIH
 70
     0
  9
$DIMTOH
 70
     0
  9
$DIMSE1
 70
     0
  9
$DIMSE2
 70
     0
  9
$DIMTAD
 70
     1
  9
$DIMZIN
 70
    12
  9
$DIMBLK
  1

  9
$DIMASO
 70
     1
  9
$DIMSHO
 70
     0
  9
$DIMPOST
  1

  9
$DIMAPOST
  1

  9
$DIMALT
 70
     0
  9
$DIMALTD
 70
     2
  9
$DIMALTF
 40
0.039
  9
$DIMLFAC
 40
1.0
  9
$DIMTOFL
 70
     0
  9
$DIMTVP
 40
1.5
  9
$DIMTIX
 70
     0
  9
$DIMSOXD
 70
     0
  9
$DIMSAH
 70
     0
  9
$DIMBLK1
  1

  9
$DIMBLK2
  1

  9
$DIMSTYLE
  2
1-2
  9
$DIMCLRD
 70
     0
  9
$DIMCLRE
 70
     0
  9
$DIMCLRT
 70
     0
  9
$DIMTFAC
 40
0.75
  9
$DIMGAP
 40
1.5
  9
$DIMJUST
 70
     0
  9
$DIMSD1
 70
     0
  9
$DIMSD2
 70
     0
  9
$DIMTOLJ
 70
     1
  9
$DIMTZIN
 70
    12
  9
$DIMALTZ
 70
    12
  9
$DIMALTTZ
 70
    12
  9
$DIMUPT
 70
     0
  9
$DIMDEC
 70
     2
  9
$DIMTDEC
 70
     2
  9
$DIMALTU
 70
     2
  9
$DIMALTTD
 70
     2
  9
$DIMTXSTY
  7
STANDARD
  9
$DIMAUNIT
 70
     0
  9
$DIMADEC
 70
     0
  9
$DIMALTRND
 40
0.0
  9
$DIMAZIN
 70
     0
  9
$DIMDSEP
 70
    46
  9
$DIMATFIT
 70
     3
  9
$DIMFRAC
 70
     0
  9
$DIMLDRBLK
  1

  9
$DIMLUNIT
 70
     2
  9
$DIMLWD
 70
    -2
  9
$DIMLWE
 70
    -2
  9
$DIMTMOVE
 70
     2
  9
$LUNITS
 70
     2
  9
$LUPREC
 70
     2
  9
$SKETCHINC
 40
1.0
  9
$FILLETRAD
 40
0.0
  9
$AUNITS
 70
     0
  9
$AUPREC
 70
     4
  9
$MENU
  1
acad
  9
$ELEVATION
 40
0.0
  9
$PELEVATION
 40
0.0
  9
$THICKNESS
 40
0.0
  9
$LIMCHECK
 70
     0
  9
$CHAMFERA
 40
0.0
  9
$CHAMFERB
 40
0.0
  9
$CHAMFERC
 40
0.0
  9
$CHAMFERD
 40
0.0
  9
$SKPOLY
 70
     0
  9
$TDCREATE
 40
2449527.571155092
  9
$TDUCREATE
 40
2449527.529488425
  9
$TDUPDATE
 40
2452498.543583102
  9
$TDUUPDATE
 40
2452498.501916435
  9
$TDINDWG
 40
0.2980284606
  9
$TDUSRTIMER
 40
0.2980284606
  9
$USRTIMER
 70
     1
  9
$ANGBASE
 50
0.0
  9
$ANGDIR
 70
     0
  9
$PDMODE
 70
     0
  9
$PDSIZE
 40
0.0
  9
$PLINEWID
 40
0.0
  9
$SPLFRAME
 70
     0
  9
$SPLINETYPE
 70
     6
  9
$SPLINESEGS
 70
     8
  9
$HANDSEED
  5
1A2
  9
$SURFTAB1
 70
    18
  9
$SURFTAB2
 70
    18
  9
$SURFTYPE
 70
     6
  9
$SURFU
 70
    18
  9
$SURFV
 70
    18
  9
$UCSBASE
  2

  9
$UCSNAME
  2

  9
$UCSORG
 10
0.0
 20
0.0
 30
0.0
  9
$UCSXDIR
 10
1.0
 20
0.0
 30
0.0
  9
$UCSYDIR
 10
0.0
 20
1.0
 30
0.0
  9
$UCSORTHOREF
  2

  9
$UCSORTHOVIEW
 70
     0
  9
$UCSORGTOP
 10
0.0
 20
0.0
 30
0.0
  9
$UCSORGBOTTOM
 10
0.0
 20
0.0
 30
0.0
  9
$UCSORGLEFT
 10
0.0
 20
0.0
 30
0.0
  9
$UCSORGRIGHT
 10
0.0
 20
0.0
 30
0.0
  9
$UCSORGFRONT
 10
0.0
 20
0.0
 30
0.0
  9
$UCSORGBACK
 10
0.0
 20
0.0
 30
0.0
  9
$PUCSBASE
  2

  9
$PUCSNAME
  2

  9
$PUCSORG
 10
0.0
 20
0.0
 30
0.0
  9
$PUCSXDIR
 10
1.0
 20
0.0
 30
0.0
  9
$PUCSYDIR
 10
0.0
 20
1.0
 30
0.0
  9
$PUCSORTHOREF
  2

  9
$PUCSORTHOVIEW
 70
     0
  9
$PUCSORGTOP
 10
0.0
 20
0.0
 30
0.0
  9
$PUCSORGBOTTOM
 10
0.0
 20
0.0
 30
0.0
  9
$PUCSORGLEFT
 10
0.0
 20
0.0
 30
0.0
  9
$PUCSORGRIGHT
 10
0.0
 20
0.0
 30
0.0
  9
$PUCSORGFRONT
 10
0.0
 20
0.0
 30
0.0
  9
$PUCSORGBACK
 10
0.0
 20
0.0
 30
0.0
  9
$USERI1
 70
     0
  9
$USERI2
 70
     0
  9
$USERI3
 70
     0
  9
$USERI4
 70
     0
  9
$USERI5
 70
     0
  9
$USERR1
 40
0.0
  9
$USERR2
 40
0.0
  9
$USERR3
 40
0.0
  9
$USERR4
 40
0.0
  9
$USERR5
 40
0.0
  9
$WORLDVIEW
 70
     1
  9
$SHADEDGE
 70
     3
  9
$SHADEDIF
 70
    70
  9
$TILEMODE
 70
     1
  9
$MAXACTVP
 70
    16
  9
$PINSBASE
 10
0.0
 20
0.0
 30
0.0
  9
$PLIMCHECK
 70
     0
  9
$PEXTMIN
 10
1.614583349603368
 20
1.129749872553066
 30
0.0
  9
$PEXTMAX
 10
14.5312501464303
 20
10.1677488529776
 30
0.0
  9
$PLIMMIN
 10
-0.1979161059762549
 20
-0.1979166691697489
  9
$PLIMMAX
 10
16.34375024029589
 20
11.49541603298637
  9
$UNITMODE
 70
     0
  9
$VISRETAIN
 70
     0
  9
$PLINEGEN
 70
     0
  9
$PSLTSCALE
 70
     1
  9
$TREEDEPTH
 70
  3020
  9
$CMLSTYLE
  2
Standard
  9
$CMLJUST
 70
     0
  9
$CMLSCALE
 40
1.0
  9
$PROXYGRAPHICS
 70
     1
  9
$MEASUREMENT
 70
     0
  9
$CELWEIGHT
370
    -1
  9
$ENDCAPS
280
     0
  9
$JOINSTYLE
280
     0
  9
$LWDISPLAY
290
     0
  9
$INSUNITS
 70
     0
  9
$HYPERLINKBASE
  1

  9
$STYLESHEET
  1

  9
$XEDIT
290
     1
  9
$CEPSNTYPE
380
     0
  9
$PSTYLEMODE
290
     1
  9
$FINGERPRINTGUID
  2
{CBF448E0-649F-44ED-93F3-5FF96F239BD1}
  9
$VERSIONGUID
  2
{627E2872-AD1D-11D6-AAC6-0010A4A25215}
  9
$EXTNAMES
290
     1
  9
$PSVPSCALE
 40
0.0
  9
$OLESTARTUP
290
     0
  0
ENDSEC
  0
SECTION
  2
CLASSES
  0
CLASS
  1
ACDBDICTIONARYWDFLT
  2
AcDbDictionaryWithDefault
  3
AutoCAD 2000
 90
        0
280
     1
281
     0
  0
CLASS
  1
ACDBPLACEHOLDER
  2
AcDbPlaceHolder
  3
AutoCAD 2000
 90
        0
280
     1
281
     0
  0
CLASS
  1
LAYOUT
  2
AcDbLayout
  3
AutoCAD 2000
 90
        0
280
     1
281
     0
  0
CLASS
  1
LONG_TRANSACTION
  2
AcDbLongTransaction
  3
AutoCAD 2000
 90
    32768
280
     1
281
     0
  0
CLASS
  1
LWPOLYLINE
  2
AcDbPolyline
  3
AutoCAD 2000
 90
    32768
280
     0
281
     1
  0
CLASS
  1
HATCH
  2
AcDbHatch
  3
AutoCAD 2000
 90
    32768
280
     0
281
     1
  0
CLASS
  1
XRECORD
  2
AcDbXrecord
  3
AutoCAD 2000
 90
    32768
280
     0
281
     0
  0
CLASS
  1
LONG_TRANSACTION
  2
AcDbLongTransaction
  3
AutoCAD 2000
 90
    32768
280
     1
281
     0
  0
CLASS
  1
LWPOLYLINE
  2
AcDbPolyline
  3
AutoCAD 2000
 90
    32768
280
     0
281
     1
  0
CLASS
  1
HATCH
  2
AcDbHatch
  3
AutoCAD 2000
 90
    32768
280
     0
281
     1
  0
CLASS
  1
XRECORD
  2
AcDbXrecord
  3
AutoCAD 2000
 90
    32768
280
     0
281
     0
  0
CLASS
  1
LONG_TRANSACTION
  2
AcDbLongTransaction
  3
AutoCAD 2000
 90
    32768
280
     0
281
     0
  0
CLASS
  1
LWPOLYLINE
  2
AcDbPolyline
  3
AutoCAD 2000
 90
    32768
280
     0
281
     1
  0
CLASS
  1
HATCH
  2
AcDbHatch
  3
AutoCAD 2000
 90
    32768
280
     0
281
     1
  0
CLASS
  1
XRECORD
  2
AcDbXrecord
  3
AutoCAD 2000
 90
    32768
280
     0
281
     0
  0
ENDSEC
  0
SECTION
  2
TABLES
  0
TABLE
  2
VPORT
  5
1C
330
0
100
AcDbSymbolTable
 70
     3
  0
VPORT
  5
1A1
330
1C
100
AcDbSymbolTableRecord
100
AcDbViewportTableRecord
  2
*Active
 70
     0
 10
0.0
 20
0.0
 11
1.0
 21
1.0
 12
48.91997057979626
 22
19.5065054983894
 13
0.0
 23
0.0
 14
5.0
 24
5.0
 15
10.0
 25
10.0
 16
0.0
 26
0.0
 36
1.0
 17
0.0
 27
0.0
 37
0.0
 40
338.5946040864562
 41
1.760948905109489
 42
50.0
 43
0.0
 44
0.0
 50
0.0
 51
0.0
 71
     0
 72
   100
 73
     1
 74
     1
 75
     0
 76
     0
 77
     0
 78
     0
281
     0
 65
     1
110
0.0
120
0.0
130
0.0
111
1.0
121
0.0
131
0.0
112
0.0
122
1.0
132
0.0
 79
     0
146
0.0
  0
ENDTAB
  0
TABLE
  2
LTYPE
  5
13
330
0
100
AcDbSymbolTable
 70
     3
  0
LTYPE
  5
14
330
13
100
AcDbSymbolTableRecord
100
AcDbLinetypeTableRecord
  2
ByBlock
 70
     0
  3

 72
    65
 73
     0
 40
0.0
  0
LTYPE
  5
17
330
13
100
AcDbSymbolTableRecord
100
AcDbLinetypeTableRecord
  2
ByLayer
 70
     0
  3

 72
    65
 73
     0
 40
0.0
  0
LTYPE
  5
8
330
13
100
AcDbSymbolTableRecord
100
AcDbLinetypeTableRecord
  2
CONTINUOUS
 70
     0
  3
Solid line
 72
    65
 73
     0
 40
0.0
  0
LTYPE
  5
2E
330
13
100
AcDbSymbolTableRecord
100
AcDbLinetypeTableRecord
  2
CENTER2
 70
     0
  3
___ _ ___ _ ___ _ ___ _ ___ _ ___ _ ___ _ ___ _
 72
    65
 73
     4
 40
28.57499999999999
 49
19.05
 74
     0
 49
-3.174999999999999
 74
     0
 49
3.174999999999999
 74
     0
 49
-3.174999999999999
 74
     0
  0
LTYPE
  5
44
330
13
100
AcDbSymbolTableRecord
100
AcDbLinetypeTableRecord
  2
HIDDEN
 70
     0
  3
__ __ __ __ __ __ __ __ __ __ __ __ __ __ __ __
 72
    65
 73
     2
 40
9.524999999999998
 49
6.349999999999999
 74
     0
 49
-3.174999999999999
 74
     0
  0
ENDTAB
  0
TABLE
  2
LAYER
  5
10
330
0
100
AcDbSymbolTable
 70
     9
  0
LAYER
  5
7
330
10
100
AcDbSymbolTableRecord
100
AcDbLayerTableRecord
  2
0
 70
     0
 62
     7
  6
CONTINUOUS
370
    -3
390
160
  0
LAYER
  5
27
330
10
100
AcDbSymbolTableRecord
100
AcDbLayerTableRecord
  2
DIMS
 70
     0
 62
     1
  6
CONTINUOUS
370
    -3
390
160
  0
LAYER
  5
56
330
10
100
AcDbSymbolTableRecord
100
AcDbLayerTableRecord
  2
ANCON-DSD
 70
     0
 62
     3
  6
CONTINUOUS
370
    -3
390
160
  0
LAYER
  5
3B
330
10
100
AcDbSymbolTableRecord
100
AcDbLayerTableRecord
  2
DEFPOINTS
 70
     0
 62
     7
  6
CONTINUOUS
290
     0
370
    -3
390
160
  0
LAYER
  5
5F
330
10
100
AcDbSymbolTableRecord
100
AcDbLayerTableRecord
  2
CONCRETE
 70
     0
 62
     2
  6
CONTINUOUS
370
    -3
390
160
  0
LAYER
  5
43
330
10
100
AcDbSymbolTableRecord
100
AcDbLayerTableRecord
  2
20MM-JOINT
 70
     0
 62
     7
  6
CONTINUOUS
370
    -3
390
160
  0
LAYER
  5
6E
330
10
100
AcDbSymbolTableRecord
100
AcDbLayerTableRecord
  2
20MM-DIMS
 70
     0
 62
     1
  6
CONTINUOUS
370
    -3
390
160
  0
LAYER
  5
157
330
10
100
AcDbSymbolTableRecord
100
AcDbLayerTableRecord
  2
SPECP
 70
     0
 62
     6
  6
CONTINUOUS
370
    -3
390
160
  0
LAYER
  5
63
330
10
100
AcDbSymbolTableRecord
100
AcDbLayerTableRecord
  2
SPECD
 70
     0
 62
     6
  6
CONTINUOUS
370
    -3
390
160
  0
ENDTAB
  0
TABLE
  2
STYLE
  5
11
330
0
100
AcDbSymbolTable
 70
     2
  0
STYLE
  5
12
330
11
100
AcDbSymbolTableRecord
100
AcDbTextStyleTableRecord
  2
STANDARD
 70
     0
 40
0.0
 41
1.0
 50
0.0
 71
     0
 42
6.0
  3
txt.shx
  4

  0
STYLE
  5
28
330
11
100
AcDbSymbolTableRecord
100
AcDbTextStyleTableRecord
  2
ROMANS
 70
     0
 40
0.0
 41
1.0
 50
0.0
 71
     0
 42
5.0
  3
romans
  4

  0
ENDTAB
  0
TABLE
  2
VIEW
  5
1A
330
0
100
AcDbSymbolTable
 70
     0
  0
ENDTAB
  0
TABLE
  2
UCS
  5
1B
330
0
100
AcDbSymbolTable
 70
     0
  0
ENDTAB
  0
TABLE
  2
APPID
  5
1E
330
0
100
AcDbSymbolTable
 70
     1
  0
APPID
  5
1F
330
1E
100
AcDbSymbolTableRecord
100
AcDbRegAppTableRecord
  2
ACAD
 70
     0
  0
ENDTAB
  0
TABLE
  2
DIMSTYLE
  5
20
330
0
100
AcDbSymbolTable
 70
     1
100
AcDbDimStyleTable
 71
     0
  0
DIMSTYLE
105
2A
102
{ACAD_REACTORS
330
95
330
E3
330
D6
330
48
330
13C
330
12D
330
11C
330
10F
330
B3
330
A4
330
32
330
C0
330
6D
330
84
102
}
330
20
100
AcDbSymbolTableRecord
100
AcDbDimStyleTableRecord
  2
1-2
 70
     0
 40
0.0
 41
4.0
 42
3.0
 43
10.0
 44
3.0
 46
1.25
 73
     0
 74
     0
 77
     1
 78
    12
140
3.0
141
-3.0
143
0.039
145
1.5
146
0.75
147
1.5
271
     2
272
     2
279
     2
284
    12
285
    12
286
    12
340
12
  0
ENDTAB
  0
TABLE
  2
BLOCK_RECORD
  5
1
330
0
100
AcDbSymbolTable
 70
    15
  0
BLOCK_RECORD
  5
2
102
{ACAD_XDICTIONARY
360
3
102
}
330
1
100
AcDbSymbolTableRecord
100
AcDbBlockTableRecord
  2
*Model_Space
340
163
  0
BLOCK_RECORD
  5
A
102
{ACAD_XDICTIONARY
360
B
102
}
330
1
100
AcDbSymbolTableRecord
100
AcDbBlockTableRecord
  2
*Paper_Space
340
164
  0
BLOCK_RECORD
  5
E4
330
1
100
AcDbSymbolTableRecord
100
AcDbBlockTableRecord
  2
*D0
340
0
  0
BLOCK_RECORD
  5
D7
330
1
100
AcDbSymbolTableRecord
100
AcDbBlockTableRecord
  2
*D1
340
0
  0
BLOCK_RECORD
  5
13D
330
1
100
AcDbSymbolTableRecord
100
AcDbBlockTableRecord
  2
*D2
340
0
  0
BLOCK_RECORD
  5
12E
330
1
100
AcDbSymbolTableRecord
100
AcDbBlockTableRecord
  2
*D3
340
0
  0
BLOCK_RECORD
  5
11D
330
1
100
AcDbSymbolTableRecord
100
AcDbBlockTableRecord
  2
*D4
340
0
  0
BLOCK_RECORD
  5
110
330
1
100
AcDbSymbolTableRecord
100
AcDbBlockTableRecord
  2
*D5
340
0
  0
BLOCK_RECORD
  5
33
330
1
100
AcDbSymbolTableRecord
100
AcDbBlockTableRecord
  2
*D6
340
0
  0
BLOCK_RECORD
  5
96
330
1
100
AcDbSymbolTableRecord
100
AcDbBlockTableRecord
  2
*D7
340
0
  0
BLOCK_RECORD
  5
49
330
1
100
AcDbSymbolTableRecord
100
AcDbBlockTableRecord
  2
*D8
340
0
  0
BLOCK_RECORD
  5
A5
330
1
100
AcDbSymbolTableRecord
100
AcDbBlockTableRecord
  2
*D9
340
0
  0
BLOCK_RECORD
  5
B4
330
1
100
AcDbSymbolTableRecord
100
AcDbBlockTableRecord
  2
*D10
340
0
  0
BLOCK_RECORD
  5
C1
330
1
100
AcDbSymbolTableRecord
100
AcDbBlockTableRecord
  2
*D11
340
0
  0
BLOCK_RECORD
  5
6F
330
1
100
AcDbSymbolTableRecord
100
AcDbBlockTableRecord
  2
*D12
340
0
  0
BLOCK_RECORD
  5
85
330
1
100
AcDbSymbolTableRecord
100
AcDbBlockTableRecord
  2
*D13
340
0
  0
BLOCK_RECORD
  5
61
330
1
100
AcDbSymbolTableRecord
100
AcDbBlockTableRecord
  2
A$C6BE937E7
340
0
  0
ENDTAB
  0
ENDSEC
  0
SECTION
  2
BLOCKS
  0
BLOCK
  5
6
330
2
100
AcDbEntity
  8
0
100
AcDbBlockBegin
  2
*Model_Space
 70
     0
 10
0.0
 20
0.0
 30
0.0
  3
*Model_Space
  1

  0
ENDBLK
  5
9
330
2
100
AcDbEntity
  8
0
100
AcDbBlockEnd
  0
BLOCK
  5
E
330
A
100
AcDbEntity
 67
     1
  8
0
100
AcDbBlockBegin
  2
*Paper_Space
 70
     0
 10
0.0
 20
0.0
 30
0.0
  3
*Paper_Space
  1

  0
ENDBLK
  5
F
330
A
100
AcDbEntity
 67
     1
  8
0
100
AcDbBlockEnd
  0
BLOCK
  5
EE
330
E4
100
AcDbEntity
  8
0
100
AcDbBlockBegin
  2
*D0
 70
     1
 10
0.0
 20
0.0
 30
0.0
  3
*D0
  1

  0
LINE
  5
E5
330
E4
100
AcDbEntity
  8
0
  6
ByBlock
 62
     0
100
AcDbLine
 10
702.4941010892165
 20
376.0585170401141
 30
0.0
 11
702.4941010892165
 21
343.2075723464731
 31
0.0
  0
LINE
  5
E6
330
E4
100
AcDbEntity
  8
0
  6
ByBlock
 62
     0
100
AcDbLine
 10
728.4941010892165
 20
412.3018090515067
 30
0.0
 11
728.4941010892165
 21
343.2075723464731
 31
0.0
  0
LINE
  5
E7
330
E4
100
AcDbEntity
  8
0
  6
ByBlock
 62
     0
100
AcDbLine
 10
706.4941010892165
 20
346.2075723464731
 30
0.0
 11
724.4941010892165
 21
346.2075723464731
 31
0.0
  0
SOLID
  5
E8
330
E4
100
AcDbEntity
  8
0
  6
ByBlock
 62
     0
100
AcDbTrace
 10
706.4941010892165
 20
346.8742390131398
 30
0.0
 11
706.4941010892165
 21
345.5409056798064
 31
0.0
 12
702.4941010892165
 22
346.2075723464731
 32
0.0
 13
702.4941010892165
 23
346.2075723464731
 33
0.0
  0
SOLID
  5
E9
330
E4
100
AcDbEntity
  8
0
  6
ByBlock
 62
     0
100
AcDbTrace
 10
724.4941010892165
 20
346.8742390131398
 30
0.0
 11
724.4941010892165
 21
345.5409056798064
 31
0.0
 12
728.4941010892165
 22
346.2075723464731
 32
0.0
 13
728.4941010892165
 23
346.2075723464731
 33
0.0
  0
TEXT
  5
EA
330
E4
100
AcDbEntity
  8
0
  6
ByBlock
 62
     0
100
AcDbText
 10
712.6369582320736
 20
347.7075723464731
 30
0.0
 40
3.0
  1
26
  7
ROMANS
 72
     1
 11
715.4941010892165
 21
349.2075723464731
 31
0.0
100
AcDbText
 73
     2
  0
POINT
  5
EB
330
E4
100
AcDbEntity
  8
DEFPOINTS
  6
ByBlock
 62
     0
100
AcDbPoint
 10
702.4941010892165
 20
379.0585170401141
 30
0.0
  0
POINT
  5
EC
330
E4
100
AcDbEntity
  8
DEFPOINTS
  6
ByBlock
 62
     0
100
AcDbPoint
 10
728.4941010892165
 20
415.3018090515066
 30
0.0
  0
POINT
  5
ED
330
E4
100
AcDbEntity
  8
DEFPOINTS
  6
ByBlock
 62
     0
100
AcDbPoint
 10
728.4941010892165
 20
346.2075723464731
 30
0.0
  0
ENDBLK
  5
EF
330
E4
100
AcDbEntity
  8
0
100
AcDbBlockEnd
  0
BLOCK
  5
E1
330
D7
100
AcDbEntity
  8
0
100
AcDbBlockBegin
  2
*D1
 70
     1
 10
0.0
 20
0.0
 30
0.0
  3
*D1
  1

  0
LINE
  5
D8
330
D7
100
AcDbEntity
  8
0
  6
ByBlock
 62
     0
100
AcDbLine
 10
728.4941010892165
 20
412.3018090515067
 30
0.0
 11
728.4941010892165
 21
343.2075723464731
 31
0.0
  0
LINE
  5
D9
330
D7
100
AcDbEntity
  8
0
  6
ByBlock
 62
     0
100
AcDbLine
 10
758.4941010892166
 20
412.3018090515067
 30
0.0
 11
758.4941010892166
 21
343.2075723464731
 31
0.0
  0
LINE
  5
DA
330
D7
100
AcDbEntity
  8
0
  6
ByBlock
 62
     0
100
AcDbLine
 10
732.4941010892165
 20
346.2075723464731
 30
0.0
 11
754.4941010892166
 21
346.2075723464731
 31
0.0
  0
SOLID
  5
DB
330
D7
100
AcDbEntity
  8
0
  6
ByBlock
 62
     0
100
AcDbTrace
 10
732.4941010892165
 20
346.8742390131398
 30
0.0
 11
732.4941010892165
 21
345.5409056798064
 31
0.0
 12
728.4941010892165
 22
346.2075723464731
 32
0.0
 13
728.4941010892165
 23
346.2075723464731
 33
0.0
  0
SOLID
  5
DC
330
D7
100
AcDbEntity
  8
0
  6
ByBlock
 62
     0
100
AcDbTrace
 10
754.4941010892166
 20
346.8742390131398
 30
0.0
 11
754.4941010892166
 21
345.5409056798064
 31
0.0
 12
758.4941010892166
 22
346.2075723464731
 32
0.0
 13
758.4941010892166
 23
346.2075723464731
 33
0.0
  0
TEXT
  5
DD
330
D7
100
AcDbEntity
  8
0
  6
ByBlock
 62
     0
100
AcDbText
 10
740.6369582320738
 20
347.7075723464731
 30
0.0
 40
3.0
  1
30
  7
ROMANS
 72
     1
 11
743.4941010892166
 21
349.2075723464731
 31
0.0
100
AcDbText
 73
     2
  0
POINT
  5
DE
330
D7
100
AcDbEntity
  8
DEFPOINTS
  6
ByBlock
 62
     0
100
AcDbPoint
 10
728.4941010892165
 20
415.3018090515066
 30
0.0
  0
POINT
  5
DF
330
D7
100
AcDbEntity
  8
DEFPOINTS
  6
ByBlock
 62
     0
100
AcDbPoint
 10
758.4941010892166
 20
415.3018090515066
 30
0.0
  0
POINT
  5
E0
330
D7
100
AcDbEntity
  8
DEFPOINTS
  6
ByBlock
 62
     0
100
AcDbPoint
 10
758.4941010892166
 20
346.2075723464731
 30
0.0
  0
ENDBLK
  5
E2
330
D7
100
AcDbEntity
  8
0
100
AcDbBlockEnd
  0
BLOCK
  5
147
330
13D
100
AcDbEntity
  8
0
100
AcDbBlockBegin
  2
*D2
 70
     1
 10
0.0
 20
0.0
 30
0.0
  3
*D2
  1

  0
LINE
  5
13E
330
13D
100
AcDbEntity
  8
0
  6
ByBlock
 62
     0
100
AcDbLine
 10
848.4941010892166
 20
439.567577320767
 30
0.0
 11
882.3390367724654
 21
439.567577320767
 31
0.0
  0
LINE
  5
13F
330
13D
100
AcDbEntity
  8
0
  6
ByBlock
 62
     0
100
AcDbLine
 10
848.4941010892166
 20
411.567577320767
 30
0.0
 11
882.3390367724654
 21
411.567577320767
 31
0.0
  0
LINE
  5
140
330
13D
100
AcDbEntity
  8
0
  6
ByBlock
 62
     0
100
AcDbLine
 10
879.3390367724652
 20
435.567577320767
 30
0.0
 11
879.3390367724652
 21
415.567577320767
 31
0.0
  0
SOLID
  5
141
330
13D
100
AcDbEntity
  8
0
  6
ByBlock
 62
     0
100
AcDbTrace
 10
878.6723701057987
 20
435.567577320767
 30
0.0
 11
880.0057034391318
 21
435.567577320767
 31
0.0
 12
879.3390367724652
 22
439.567577320767
 32
0.0
 13
879.3390367724652
 23
439.567577320767
 33
0.0
  0
SOLID
  5
142
330
13D
100
AcDbEntity
  8
0
  6
ByBlock
 62
     0
100
AcDbTrace
 10
878.6723701057987
 20
415.567577320767
 30
0.0
 11
880.0057034391318
 21
415.567577320767
 31
0.0
 12
879.3390367724652
 22
411.567577320767
 32
0.0
 13
879.3390367724652
 23
411.567577320767
 33
0.0
  0
TEXT
  5
143
330
13D
100
AcDbEntity
  8
0
  6
ByBlock
 62
     0
100
AcDbText
 10
877.8390367724652
 20
422.7104344636242
 30
0.0
 40
3.0
  1
28
 50
90.0
  7
ROMANS
 72
     1
 11
876.3390367724653
 21
425.5675773207671
 31
0.0
100
AcDbText
 73
     2
  0
POINT
  5
144
330
13D
100
AcDbEntity
  8
DEFPOINTS
  6
ByBlock
 62
     0
100
AcDbPoint
 10
845.4941010892165
 20
439.567577320767
 30
0.0
  0
POINT
  5
145
330
13D
100
AcDbEntity
  8
DEFPOINTS
  6
ByBlock
 62
     0
100
AcDbPoint
 10
845.4941010892165
 20
411.567577320767
 30
0.0
  0
POINT
  5
146
330
13D
100
AcDbEntity
  8
DEFPOINTS
  6
ByBlock
 62
     0
100
AcDbPoint
 10
879.3390367724652
 20
411.567577320767
 30
0.0
  0
ENDBLK
  5
148
330
13D
100
AcDbEntity
  8
0
100
AcDbBlockEnd
  0
BLOCK
  5
13A
330
12E
100
AcDbEntity
  8
0
100
AcDbBlockBegin
  2
*D3
 70
     1
 10
0.0
 20
0.0
 30
0.0
  3
*D3
  1

  0
LINE
  5
12F
330
12E
100
AcDbEntity
  8
0
  6
ByBlock
 62
     0
100
AcDbLine
 10
848.4941010892166
 20
439.567577320767
 30
0.0
 11
882.3390367724654
 21
439.567577320767
 31
0.0
  0
LINE
  5
130
330
12E
100
AcDbEntity
  8
0
  6
ByBlock
 62
     0
100
AcDbLine
 10
856.4941010892166
 20
450.5675773207671
 30
0.0
 11
882.3390367724654
 21
450.5675773207671
 31
0.0
  0
LINE
  5
131
330
12E
100
AcDbEntity
  8
0
  6
ByBlock
 62
     0
100
AcDbLine
 10
879.3390367724652
 20
435.567577320767
 30
0.0
 11
879.3390367724652
 21
431.567577320767
 31
0.0
  0
LINE
  5
132
330
12E
100
AcDbEntity
  8
0
  6
ByBlock
 62
     0
100
AcDbLine
 10
879.3390367724652
 20
454.5675773207671
 30
0.0
 11
879.3390367724652
 21
458.5675773207671
 31
0.0
  0
LINE
  5
133
330
12E
100
AcDbEntity
  8
0
  6
ByBlock
 62
     0
100
AcDbLine
 10
879.3390367724652
 20
458.5675773207671
 30
0.0
 11
879.3390367724652
 21
463.6390058921956
 31
0.0
  0
SOLID
  5
134
330
12E
100
AcDbEntity
  8
0
  6
ByBlock
 62
     0
100
AcDbTrace
 10
878.6723701057987
 20
435.567577320767
 30
0.0
 11
880.0057034391318
 21
435.567577320767
 31
0.0
 12
879.3390367724652
 22
439.567577320767
 32
0.0
 13
879.3390367724652
 23
439.567577320767
 33
0.0
  0
SOLID
  5
135
330
12E
100
AcDbEntity
  8
0
  6
ByBlock
 62
     0
100
AcDbTrace
 10
878.6723701057987
 20
454.5675773207671
 30
0.0
 11
880.0057034391318
 21
454.5675773207671
 31
0.0
 12
879.3390367724652
 22
450.5675773207671
 32
0.0
 13
879.3390367724652
 23
450.5675773207671
 33
0.0
  0
TEXT
  5
136
330
12E
100
AcDbEntity
  8
0
  6
ByBlock
 62
     0
100
AcDbText
 10
877.8390367724652
 20
459.2104344636242
 30
0.0
 40
3.0
  1
11
 50
90.0
  7
ROMANS
 72
     1
 11
876.3390367724653
 21
461.8532916064814
 31
0.0
100
AcDbText
 73
     2
  0
POINT
  5
137
330
12E
100
AcDbEntity
  8
DEFPOINTS
  6
ByBlock
 62
     0
100
AcDbPoint
 10
845.4941010892165
 20
439.567577320767
 30
0.0
  0
POINT
  5
138
330
12E
100
AcDbEntity
  8
DEFPOINTS
  6
ByBlock
 62
     0
100
AcDbPoint
 10
853.4941010892165
 20
450.5675773207671
 30
0.0
  0
POINT
  5
139
330
12E
100
AcDbEntity
  8
DEFPOINTS
  6
ByBlock
 62
     0
100
AcDbPoint
 10
879.3390367724652
 20
450.5675773207671
 30
0.0
  0
ENDBLK
  5
13B
330
12E
100
AcDbEntity
  8
0
100
AcDbBlockEnd
  0
BLOCK
  5
129
330
11D
100
AcDbEntity
  8
0
100
AcDbBlockBegin
  2
*D4
 70
     1
 10
0.0
 20
0.0
 30
0.0
  3
*D4
  1

  0
LINE
  5
11E
330
11D
100
AcDbEntity
  8
0
  6
ByBlock
 62
     0
100
AcDbLine
 10
848.4941010892166
 20
411.567577320767
 30
0.0
 11
882.3390367724654
 21
411.567577320767
 31
0.0
  0
LINE
  5
11F
330
11D
100
AcDbEntity
  8
0
  6
ByBlock
 62
     0
100
AcDbLine
 10
856.4941010892166
 20
400.5675773207671
 30
0.0
 11
882.3390367724654
 21
400.5675773207671
 31
0.0
  0
LINE
  5
120
330
11D
100
AcDbEntity
  8
0
  6
ByBlock
 62
     0
100
AcDbLine
 10
879.3390367724652
 20
415.567577320767
 30
0.0
 11
879.3390367724652
 21
419.567577320767
 31
0.0
  0
LINE
  5
121
330
11D
100
AcDbEntity
  8
0
  6
ByBlock
 62
     0
100
AcDbLine
 10
879.3390367724652
 20
396.5675773207671
 30
0.0
 11
879.3390367724652
 21
392.5675773207671
 31
0.0
  0
LINE
  5
122
330
11D
100
AcDbEntity
  8
0
  6
ByBlock
 62
     0
100
AcDbLine
 10
879.3390367724652
 20
392.5675773207671
 30
0.0
 11
879.3390367724652
 21
387.4961487493385
 31
0.0
  0
SOLID
  5
123
330
11D
100
AcDbEntity
  8
0
  6
ByBlock
 62
     0
100
AcDbTrace
 10
878.6723701057987
 20
415.567577320767
 30
0.0
 11
880.0057034391318
 21
415.567577320767
 31
0.0
 12
879.3390367724652
 22
411.567577320767
 32
0.0
 13
879.3390367724652
 23
411.567577320767
 33
0.0
  0
SOLID
  5
124
330
11D
100
AcDbEntity
  8
0
  6
ByBlock
 62
     0
100
AcDbTrace
 10
878.6723701057987
 20
396.5675773207671
 30
0.0
 11
880.0057034391318
 21
396.5675773207671
 31
0.0
 12
879.3390367724652
 22
400.5675773207671
 32
0.0
 13
879.3390367724652
 23
400.5675773207671
 33
0.0
  0
TEXT
  5
125
330
11D
100
AcDbEntity
  8
0
  6
ByBlock
 62
     0
100
AcDbText
 10
877.8390367724652
 20
386.6390058921956
 30
0.0
 40
3.0
  1
11
 50
90.0
  7
ROMANS
 72
     1
 11
876.3390367724653
 21
389.2818630350528
 31
0.0
100
AcDbText
 73
     2
  0
POINT
  5
126
330
11D
100
AcDbEntity
  8
DEFPOINTS
  6
ByBlock
 62
     0
100
AcDbPoint
 10
845.4941010892165
 20
411.567577320767
 30
0.0
  0
POINT
  5
127
330
11D
100
AcDbEntity
  8
DEFPOINTS
  6
ByBlock
 62
     0
100
AcDbPoint
 10
853.4941010892165
 20
400.5675773207671
 30
0.0
  0
POINT
  5
128
330
11D
100
AcDbEntity
  8
DEFPOINTS
  6
ByBlock
 62
     0
100
AcDbPoint
 10
879.3390367724652
 20
400.5675773207671
 30
0.0
  0
ENDBLK
  5
12A
330
11D
100
AcDbEntity
  8
0
100
AcDbBlockEnd
  0
BLOCK
  5
11A
330
110
100
AcDbEntity
  8
0
100
AcDbBlockBegin
  2
*D5
 70
     1
 10
0.0
 20
0.0
 30
0.0
  3
*D5
  1

  0
LINE
  5
111
330
110
100
AcDbEntity
  8
0
  6
ByBlock
 62
     0
100
AcDbLine
 10
856.4941010892166
 20
450.5675773207671
 30
0.0
 11
902.9438889010304
 21
450.5675773207671
 31
0.0
  0
LINE
  5
112
330
110
100
AcDbEntity
  8
0
  6
ByBlock
 62
     0
100
AcDbLine
 10
856.4941010892166
 20
400.5675773207671
 30
0.0
 11
902.9438889010304
 21
400.5675773207671
 31
0.0
  0
LINE
  5
113
330
110
100
AcDbEntity
  8
0
  6
ByBlock
 62
     0
100
AcDbLine
 10
899.9438889010304
 20
446.5675773207671
 30
0.0
 11
899.9438889010304
 21
404.5675773207671
 31
0.0
  0
SOLID
  5
114
330
110
100
AcDbEntity
  8
0
  6
ByBlock
 62
     0
100
AcDbTrace
 10
899.2772222343637
 20
446.5675773207671
 30
0.0
 11
900.610555567697
 21
446.5675773207671
 31
0.0
 12
899.9438889010304
 22
450.5675773207671
 32
0.0
 13
899.9438889010304
 23
450.5675773207671
 33
0.0
  0
SOLID
  5
115
330
110
100
AcDbEntity
  8
0
  6
ByBlock
 62
     0
100
AcDbTrace
 10
899.2772222343637
 20
404.5675773207671
 30
0.0
 11
900.610555567697
 21
404.5675773207671
 31
0.0
 12
899.9438889010304
 22
400.5675773207671
 32
0.0
 13
899.9438889010304
 23
400.5675773207671
 33
0.0
  0
TEXT
  5
116
330
110
100
AcDbEntity
  8
0
  6
ByBlock
 62
     0
100
AcDbText
 10
898.4438889010304
 20
422.7104344636242
 30
0.0
 40
3.0
  1
50
 50
90.0
  7
ROMANS
 72
     1
 11
896.9438889010303
 21
425.5675773207671
 31
0.0
100
AcDbText
 73
     2
  0
POINT
  5
117
330
110
100
AcDbEntity
  8
DEFPOINTS
  6
ByBlock
 62
     0
100
AcDbPoint
 10
853.4941010892165
 20
450.5675773207671
 30
0.0
  0
POINT
  5
118
330
110
100
AcDbEntity
  8
DEFPOINTS
  6
ByBlock
 62
     0
100
AcDbPoint
 10
853.4941010892165
 20
400.5675773207671
 30
0.0
  0
POINT
  5
119
330
110
100
AcDbEntity
  8
DEFPOINTS
  6
ByBlock
 62
     0
100
AcDbPoint
 10
899.9438889010304
 20
400.5675773207671
 30
0.0
  0
ENDBLK
  5
11B
330
110
100
AcDbEntity
  8
0
100
AcDbBlockEnd
  0
BLOCK
  5
40
330
33
100
AcDbEntity
  8
0
100
AcDbBlockBegin
  2
*D6
 70
     1
 10
0.0
 20
0.0
 30
0.0
  3
*D6
  1

  0
LINE
  5
34
330
33
100
AcDbEntity
  8
0
  6
ByBlock
 62
     0
100
AcDbLine
 10
5.000000000000113
 20
49.99093971934701
 30
0.0
 11
222.6002622152784
 21
49.99093971934701
 31
0.0
  0
LINE
  5
35
330
33
100
AcDbEntity
  8
0
  6
ByBlock
 62
     0
100
AcDbLine
 10
5.000000000000113
 20
-50.00906028065293
 30
0.0
 11
222.6002622152784
 21
-50.00906028065293
 31
0.0
  0
LINE
  5
36
330
33
100
AcDbEntity
  8
0
  6
ByBlock
 62
     0
100
AcDbLine
 10
219.6002622152784
 20
45.99093971934701
 30
0.0
 11
219.6002622152784
 21
-46.00906028065293
 31
0.0
  0
SOLID
  5
37
330
33
100
AcDbEntity
  8
0
  6
ByBlock
 62
     0
100
AcDbTrace
 10
218.9335955486118
 20
45.99093971934701
 30
0.0
 11
220.2669288819451
 21
45.99093971934701
 31
0.0
 12
219.6002622152784
 22
49.99093971934701
 32
0.0
 13
219.6002622152784
 23
49.99093971934701
 33
0.0
  0
SOLID
  5
38
330
33
100
AcDbEntity
  8
0
  6
ByBlock
 62
     0
100
AcDbTrace
 10
218.9335955486118
 20
-46.00906028065293
 30
0.0
 11
220.2669288819451
 21
-46.00906028065293
 31
0.0
 12
219.6002622152784
 22
-50.00906028065293
 32
0.0
 13
219.6002622152784
 23
-50.00906028065293
 33
0.0
  0
TEXT
  5
39
330
33
100
AcDbEntity
  8
0
  6
ByBlock
 62
     0
100
AcDbText
 10
218.1002622152784
 20
-4.50906028065296
 30
0.0
 40
3.0
  1
100
 50
90.0
  7
ROMANS
 72
     1
 11
216.6002622152784
 21
-0.0090602806529603
 31
0.0
100
AcDbText
 73
     2
  0
POINT
  5
3A
330
33
100
AcDbEntity
  8
DEFPOINTS
  6
ByBlock
 62
     0
100
AcDbPoint
 10
2.000000000000113
 20
49.99093971934701
 30
0.0
  0
POINT
  5
3E
330
33
100
AcDbEntity
  8
DEFPOINTS
  6
ByBlock
 62
     0
100
AcDbPoint
 10
2.000000000000113
 20
-50.00906028065293
 30
0.0
  0
POINT
  5
3F
330
33
100
AcDbEntity
  8
DEFPOINTS
  6
ByBlock
 62
     0
100
AcDbPoint
 10
219.6002622152784
 20
-50.00906028065293
 30
0.0
  0
ENDBLK
  5
41
330
33
100
AcDbEntity
  8
0
100
AcDbBlockEnd
  0
BLOCK
  5
A1
330
96
100
AcDbEntity
  8
0
100
AcDbBlockBegin
  2
*D7
 70
     1
 10
0.0
 20
0.0
 30
0.0
  3
*D7
  1

  0
LINE
  5
97
330
96
100
AcDbEntity
  8
0
  6
ByBlock
 62
     0
100
AcDbLine
 10
2.000000000000113
 20
-53.00906028065293
 30
0.0
 11
2.000000000000113
 21
-82.39448731268721
 31
0.0
  0
LINE
  5
98
330
96
100
AcDbEntity
  8
0
  6
ByBlock
 62
     0
100
AcDbLine
 10
0.0000000000001137
 20
-53.00906028065293
 30
0.0
 11
0.0000000000001137
 21
-82.39448731268721
 31
0.0
  0
LINE
  5
99
330
96
100
AcDbEntity
  8
0
  6
ByBlock
 62
     0
100
AcDbLine
 10
6.000000000000113
 20
-79.3944873126872
 30
0.0
 11
10.00000000000011
 21
-79.3944873126872
 31
0.0
  0
LINE
  5
9A
330
96
100
AcDbEntity
  8
0
  6
ByBlock
 62
     0
100
AcDbLine
 10
-3.999999999999886
 20
-79.3944873126872
 30
0.0
 11
-7.999999999999886
 21
-79.3944873126872
 31
0.0
  0
SOLID
  5
9B
330
96
100
AcDbEntity
  8
0
  6
ByBlock
 62
     0
100
AcDbTrace
 10
6.000000000000113
 20
-78.72782064602053
 30
0.0
 11
6.000000000000113
 21
-80.06115397935387
 31
0.0
 12
2.000000000000113
 22
-79.3944873126872
 32
0.0
 13
2.000000000000113
 23
-79.3944873126872
 33
0.0
  0
SOLID
  5
9C
330
96
100
AcDbEntity
  8
0
  6
ByBlock
 62
     0
100
AcDbTrace
 10
-3.999999999999886
 20
-78.72782064602053
 30
0.0
 11
-3.999999999999886
 21
-80.06115397935387
 31
0.0
 12
0.0000000000001137
 22
-79.3944873126872
 32
0.0
 13
0.0000000000001137
 23
-79.3944873126872
 33
0.0
  0
TEXT
  5
9D
330
96
100
AcDbEntity
  8
0
  6
ByBlock
 62
     0
100
AcDbText
 10
-7.620154574935902
 20
-77.8944873126872
 30
0.0
 40
3.0
  1
2
  7
ROMANS
 72
     1
 11
-6.191583146364473
 21
-76.3944873126872
 31
0.0
100
AcDbText
 73
     2
  0
POINT
  5
9E
330
96
100
AcDbEntity
  8
DEFPOINTS
  6
ByBlock
 62
     0
100
AcDbPoint
 10
2.000000000000113
 20
-50.00906028065293
 30
0.0
  0
POINT
  5
9F
330
96
100
AcDbEntity
  8
DEFPOINTS
  6
ByBlock
 62
     0
100
AcDbPoint
 10
0.0000000000001137
 20
-50.00906028065293
 30
0.0
  0
POINT
  5
A0
330
96
100
AcDbEntity
  8
DEFPOINTS
  6
ByBlock
 62
     0
100
AcDbPoint
 10
0.0000000000001137
 20
-79.3944873126872
 30
0.0
  0
ENDBLK
  5
A2
330
96
100
AcDbEntity
  8
0
100
AcDbBlockEnd
  0
BLOCK
  5
53
330
49
100
AcDbEntity
  8
0
100
AcDbBlockBegin
  2
*D8
 70
     1
 10
0.0
 20
0.0
 30
0.0
  3
*D8
  1

  0
LINE
  5
4A
330
49
100
AcDbEntity
  8
0
  6
ByBlock
 62
     0
100
AcDbLine
 10
0.0000000000001137
 20
-53.00906028065293
 30
0.0
 11
0.0000000000001137
 21
-100.8385515301373
 31
0.0
  0
LINE
  5
4B
330
49
100
AcDbEntity
  8
0
  6
ByBlock
 62
     0
100
AcDbLine
 10
145.0000000000001
 20
-39.0
 30
0.0
 11
145.0000000000001
 21
-100.8385515301373
 31
0.0
  0
LINE
  5
4C
330
49
100
AcDbEntity
  8
0
  6
ByBlock
 62
     0
100
AcDbLine
 10
4.000000000000113
 20
-97.83855153013735
 30
0.0
 11
141.0000000000001
 21
-97.83855153013735
 31
0.0
  0
SOLID
  5
4D
330
49
100
AcDbEntity
  8
0
  6
ByBlock
 62
     0
100
AcDbTrace
 10
4.000000000000113
 20
-97.17188486347069
 30
0.0
 11
4.000000000000113
 21
-98.50521819680402
 31
0.0
 12
0.0000000000001137
 22
-97.83855153013735
 32
0.0
 13
0.0000000000001137
 23
-97.83855153013735
 33
0.0
  0
SOLID
  5
4E
330
49
100
AcDbEntity
  8
0
  6
ByBlock
 62
     0
100
AcDbTrace
 10
141.0000000000001
 20
-97.17188486347069
 30
0.0
 11
141.0000000000001
 21
-98.50521819680402
 31
0.0
 12
145.0000000000001
 22
-97.83855153013735
 32
0.0
 13
145.0000000000001
 23
-97.83855153013735
 33
0.0
  0
TEXT
  5
4F
330
49
100
AcDbEntity
  8
0
  6
ByBlock
 62
     0
100
AcDbText
 10
68.00000000000011
 20
-96.33855153013735
 30
0.0
 40
3.0
  1
145
  7
ROMANS
 72
     1
 11
72.50000000000011
 21
-94.83855153013735
 31
0.0
100
AcDbText
 73
     2
  0
POINT
  5
50
330
49
100
AcDbEntity
  8
DEFPOINTS
  6
ByBlock
 62
     0
100
AcDbPoint
 10
0.0000000000001137
 20
-50.00906028065293
 30
0.0
  0
POINT
  5
51
330
49
100
AcDbEntity
  8
DEFPOINTS
  6
ByBlock
 62
     0
100
AcDbPoint
 10
145.0000000000001
 20
-36.0
 30
0.0
  0
POINT
  5
52
330
49
100
AcDbEntity
  8
DEFPOINTS
  6
ByBlock
 62
     0
100
AcDbPoint
 10
145.0000000000001
 20
-97.83855153013735
 30
0.0
  0
ENDBLK
  5
54
330
49
100
AcDbEntity
  8
0
100
AcDbBlockEnd
  0
BLOCK
  5
AF
330
A5
100
AcDbEntity
  8
0
100
AcDbBlockBegin
  2
*D9
 70
     1
 10
0.0
 20
0.0
 30
0.0
  3
*D9
  1

  0
LINE
  5
A6
330
A5
100
AcDbEntity
  8
0
  6
ByBlock
 62
     0
100
AcDbLine
 10
-25.0
 20
-44.00000000000018
 30
0.0
 11
-25.0
 21
-82.39448731268721
 31
0.0
  0
LINE
  5
A7
330
A5
100
AcDbEntity
  8
0
  6
ByBlock
 62
     0
100
AcDbLine
 10
-50.99999999999988
 20
-15.1757210168899
 30
0.0
 11
-50.99999999999988
 21
-82.39448731268721
 31
0.0
  0
LINE
  5
A8
330
A5
100
AcDbEntity
  8
0
  6
ByBlock
 62
     0
100
AcDbLine
 10
-29.0
 20
-79.3944873126872
 30
0.0
 11
-46.99999999999988
 21
-79.3944873126872
 31
0.0
  0
SOLID
  5
A9
330
A5
100
AcDbEntity
  8
0
  6
ByBlock
 62
     0
100
AcDbTrace
 10
-29.0
 20
-78.72782064602053
 30
0.0
 11
-29.0
 21
-80.06115397935387
 31
0.0
 12
-25.0
 22
-79.3944873126872
 32
0.0
 13
-25.0
 23
-79.3944873126872
 33
0.0
  0
SOLID
  5
AA
330
A5
100
AcDbEntity
  8
0
  6
ByBlock
 62
     0
100
AcDbTrace
 10
-46.99999999999988
 20
-78.72782064602053
 30
0.0
 11
-46.99999999999988
 21
-80.06115397935387
 31
0.0
 12
-50.99999999999988
 22
-79.3944873126872
 32
0.0
 13
-50.99999999999988
 23
-79.3944873126872
 33
0.0
  0
TEXT
  5
AB
330
A5
100
AcDbEntity
  8
0
  6
ByBlock
 62
     0
100
AcDbText
 10
-40.8571428571428
 20
-77.8944873126872
 30
0.0
 40
3.0
  1
26
  7
ROMANS
 72
     1
 11
-37.99999999999994
 21
-76.3944873126872
 31
0.0
100
AcDbText
 73
     2
  0
POINT
  5
AC
330
A5
100
AcDbEntity
  8
DEFPOINTS
  6
ByBlock
 62
     0
100
AcDbPoint
 10
-25.0
 20
-41.00000000000018
 30
0.0
  0
POINT
  5
AD
330
A5
100
AcDbEntity
  8
DEFPOINTS
  6
ByBlock
 62
     0
100
AcDbPoint
 10
-50.99999999999988
 20
-12.1757210168899
 30
0.0
  0
POINT
  5
AE
330
A5
100
AcDbEntity
  8
DEFPOINTS
  6
ByBlock
 62
     0
100
AcDbPoint
 10
-50.99999999999988
 20
-79.3944873126872
 30
0.0
  0
ENDBLK
  5
B0
330
A5
100
AcDbEntity
  8
0
100
AcDbBlockEnd
  0
BLOCK
  5
BE
330
B4
100
AcDbEntity
  8
0
100
AcDbBlockBegin
  2
*D10
 70
     1
 10
0.0
 20
0.0
 30
0.0
  3
*D10
  1

  0
LINE
  5
B5
330
B4
100
AcDbEntity
  8
0
  6
ByBlock
 62
     0
100
AcDbLine
 10
-50.99999999999988
 20
-15.1757210168899
 30
0.0
 11
-50.99999999999988
 21
-82.28650044497754
 31
0.0
  0
LINE
  5
B6
330
B4
100
AcDbEntity
  8
0
  6
ByBlock
 62
     0
100
AcDbLine
 10
-80.99999999999988
 20
-15.1757210168899
 30
0.0
 11
-80.99999999999988
 21
-82.28650044497754
 31
0.0
  0
LINE
  5
B7
330
B4
100
AcDbEntity
  8
0
  6
ByBlock
 62
     0
100
AcDbLine
 10
-54.99999999999989
 20
-79.28650044497755
 30
0.0
 11
-76.99999999999988
 21
-79.28650044497755
 31
0.0
  0
SOLID
  5
B8
330
B4
100
AcDbEntity
  8
0
  6
ByBlock
 62
     0
100
AcDbTrace
 10
-54.99999999999989
 20
-78.61983377831087
 30
0.0
 11
-54.99999999999989
 21
-79.95316711164422
 31
0.0
 12
-50.99999999999988
 22
-79.28650044497755
 32
0.0
 13
-50.99999999999988
 23
-79.28650044497755
 33
0.0
  0
SOLID
  5
B9
330
B4
100
AcDbEntity
  8
0
  6
ByBlock
 62
     0
100
AcDbTrace
 10
-76.99999999999988
 20
-78.61983377831087
 30
0.0
 11
-76.99999999999988
 21
-79.95316711164422
 31
0.0
 12
-80.99999999999988
 22
-79.28650044497755
 32
0.0
 13
-80.99999999999988
 23
-79.28650044497755
 33
0.0
  0
TEXT
  5
BA
330
B4
100
AcDbEntity
  8
0
  6
ByBlock
 62
     0
100
AcDbText
 10
-68.85714285714275
 20
-77.78650044497755
 30
0.0
 40
3.0
  1
30
  7
ROMANS
 72
     1
 11
-65.99999999999988
 21
-76.28650044497755
 31
0.0
100
AcDbText
 73
     2
  0
POINT
  5
BB
330
B4
100
AcDbEntity
  8
DEFPOINTS
  6
ByBlock
 62
     0
100
AcDbPoint
 10
-50.99999999999988
 20
-12.1757210168899
 30
0.0
  0
POINT
  5
BC
330
B4
100
AcDbEntity
  8
DEFPOINTS
  6
ByBlock
 62
     0
100
AcDbPoint
 10
-80.99999999999988
 20
-12.1757210168899
 30
0.0
  0
POINT
  5
BD
330
B4
100
AcDbEntity
  8
DEFPOINTS
  6
ByBlock
 62
     0
100
AcDbPoint
 10
-80.99999999999988
 20
-79.28650044497755
 30
0.0
  0
ENDBLK
  5
BF
330
B4
100
AcDbEntity
  8
0
100
AcDbBlockEnd
  0
BLOCK
  5
CC
330
C1
100
AcDbEntity
  8
0
100
AcDbBlockBegin
  2
*D11
 70
     1
 10
0.0
 20
0.0
 30
0.0
  3
*D11
  1

  0
LINE
  5
C2
330
C1
100
AcDbEntity
  8
0
  6
ByBlock
 62
     0
100
AcDbLine
 10
-25.0
 20
-44.00000000000018
 30
0.0
 11
-25.0
 21
-82.39448731268721
 31
0.0
  0
LINE
  5
C3
330
C1
100
AcDbEntity
  8
0
  6
ByBlock
 62
     0
100
AcDbLine
 10
-20.0
 20
-44.00000000000018
 30
0.0
 11
-20.0
 21
-82.39448731268721
 31
0.0
  0
LINE
  5
C4
330
C1
100
AcDbEntity
  8
0
  6
ByBlock
 62
     0
100
AcDbLine
 10
-29.0
 20
-79.3944873126872
 30
0.0
 11
-33.0
 21
-79.3944873126872
 31
0.0
  0
LINE
  5
C5
330
C1
100
AcDbEntity
  8
0
  6
ByBlock
 62
     0
100
AcDbLine
 10
-16.0
 20
-79.3944873126872
 30
0.0
 11
-12.0
 21
-79.3944873126872
 31
0.0
  0
SOLID
  5
C6
330
C1
100
AcDbEntity
  8
0
  6
ByBlock
 62
     0
100
AcDbTrace
 10
-29.0
 20
-78.72782064602053
 30
0.0
 11
-29.0
 21
-80.06115397935387
 31
0.0
 12
-25.0
 22
-79.3944873126872
 32
0.0
 13
-25.0
 23
-79.3944873126872
 33
0.0
  0
SOLID
  5
C7
330
C1
100
AcDbEntity
  8
0
  6
ByBlock
 62
     0
100
AcDbTrace
 10
-16.0
 20
-78.72782064602053
 30
0.0
 11
-16.0
 21
-80.06115397935387
 31
0.0
 12
-20.0
 22
-79.3944873126872
 32
0.0
 13
-20.0
 23
-79.3944873126872
 33
0.0
  0
TEXT
  5
C8
330
C1
100
AcDbEntity
  8
0
  6
ByBlock
 62
     0
100
AcDbText
 10
-15.55689550801729
 20
-77.8944873126872
 30
0.0
 40
3.0
  1
5
  7
ROMANS
 72
     1
 11
-14.12832407944586
 21
-76.3944873126872
 31
0.0
100
AcDbText
 73
     2
  0
POINT
  5
C9
330
C1
100
AcDbEntity
  8
DEFPOINTS
  6
ByBlock
 62
     0
100
AcDbPoint
 10
-25.0
 20
-41.00000000000018
 30
0.0
  0
POINT
  5
CA
330
C1
100
AcDbEntity
  8
DEFPOINTS
  6
ByBlock
 62
     0
100
AcDbPoint
 10
-20.0
 20
-41.00000000000018
 30
0.0
  0
POINT
  5
CB
330
C1
100
AcDbEntity
  8
DEFPOINTS
  6
ByBlock
 62
     0
100
AcDbPoint
 10
-20.0
 20
-79.3944873126872
 30
0.0
  0
ENDBLK
  5
CD
330
C1
100
AcDbEntity
  8
0
100
AcDbBlockEnd
  0
BLOCK
  5
79
330
6F
100
AcDbEntity
  8
0
100
AcDbBlockBegin
  2
*D12
 70
     1
 10
0.0
 20
0.0
 30
0.0
  3
*D12
  1

  0
LINE
  5
70
330
6F
100
AcDbEntity
  8
0
  6
ByBlock
 62
     0
100
AcDbLine
 10
-170.0
 20
-35.00000000000023
 30
0.0
 11
-170.0
 21
-100.8385515301373
 31
0.0
  0
LINE
  5
71
330
6F
100
AcDbEntity
  8
0
  6
ByBlock
 62
     0
100
AcDbLine
 10
-20.0
 20
-44.00000000000018
 30
0.0
 11
-20.0
 21
-100.8385515301373
 31
0.0
  0
LINE
  5
72
330
6F
100
AcDbEntity
  8
0
  6
ByBlock
 62
     0
100
AcDbLine
 10
-166.0
 20
-97.83855153013735
 30
0.0
 11
-24.0
 21
-97.83855153013735
 31
0.0
  0
SOLID
  5
73
330
6F
100
AcDbEntity
  8
0
  6
ByBlock
 62
     0
100
AcDbTrace
 10
-166.0
 20
-97.17188486347069
 30
0.0
 11
-166.0
 21
-98.50521819680402
 31
0.0
 12
-170.0
 22
-97.83855153013735
 32
0.0
 13
-170.0
 23
-97.83855153013735
 33
0.0
  0
SOLID
  5
74
330
6F
100
AcDbEntity
  8
0
  6
ByBlock
 62
     0
100
AcDbTrace
 10
-24.0
 20
-97.17188486347069
 30
0.0
 11
-24.0
 21
-98.50521819680402
 31
0.0
 12
-20.0
 22
-97.83855153013735
 32
0.0
 13
-20.0
 23
-97.83855153013735
 33
0.0
  0
TEXT
  5
75
330
6F
100
AcDbEntity
  8
0
  6
ByBlock
 62
     0
100
AcDbText
 10
-99.50000000000001
 20
-96.33855153013735
 30
0.0
 40
3.0
  1
150
  7
ROMANS
 72
     1
 11
-95.0
 21
-94.83855153013735
 31
0.0
100
AcDbText
 73
     2
  0
POINT
  5
76
330
6F
100
AcDbEntity
  8
DEFPOINTS
  6
ByBlock
 62
     0
100
AcDbPoint
 10
-170.0
 20
-32.00000000000023
 30
0.0
  0
POINT
  5
77
330
6F
100
AcDbEntity
  8
DEFPOINTS
  6
ByBlock
 62
     0
100
AcDbPoint
 10
-20.0
 20
-41.00000000000018
 30
0.0
  0
POINT
  5
78
330
6F
100
AcDbEntity
  8
DEFPOINTS
  6
ByBlock
 62
     0
100
AcDbPoint
 10
-20.0
 20
-97.83855153013735
 30
0.0
  0
ENDBLK
  5
7A
330
6F
100
AcDbEntity
  8
0
100
AcDbBlockEnd
  0
BLOCK
  5
8F
330
85
100
AcDbEntity
  8
0
100
AcDbBlockBegin
  2
*D13
 70
     1
 10
0.0
 20
0.0
 30
0.0
  3
*D13
  1

  0
LINE
  5
86
330
85
100
AcDbEntity
  8
0
  6
ByBlock
 62
     0
100
AcDbLine
 10
-19.99999999999996
 20
-44.00000000000018
 30
0.0
 11
-19.99999999999996
 21
-100.8385515301373
 31
0.0
  0
LINE
  5
87
330
85
100
AcDbEntity
  8
0
  6
ByBlock
 62
     0
100
AcDbLine
 10
0.0000000000000382
 20
-53.00906028065294
 30
0.0
 11
0.0000000000000382
 21
-100.8385515301373
 31
0.0
  0
LINE
  5
88
330
85
100
AcDbEntity
  8
0
  6
ByBlock
 62
     0
100
AcDbLine
 10
-15.99999999999996
 20
-97.83855153013735
 30
0.0
 11
-3.999999999999961
 21
-97.83855153013735
 31
0.0
  0
SOLID
  5
89
330
85
100
AcDbEntity
  8
0
  6
ByBlock
 62
     0
100
AcDbTrace
 10
-15.99999999999996
 20
-97.17188486347069
 30
0.0
 11
-15.99999999999996
 21
-98.50521819680402
 31
0.0
 12
-19.99999999999996
 22
-97.83855153013735
 32
0.0
 13
-19.99999999999996
 23
-97.83855153013735
 33
0.0
  0
SOLID
  5
8A
330
85
100
AcDbEntity
  8
0
  6
ByBlock
 62
     0
100
AcDbTrace
 10
-3.999999999999961
 20
-97.17188486347069
 30
0.0
 11
-3.999999999999961
 21
-98.50521819680402
 31
0.0
 12
0.0000000000000382
 22
-97.83855153013735
 32
0.0
 13
0.0000000000000382
 23
-97.83855153013735
 33
0.0
  0
TEXT
  5
8B
330
85
100
AcDbEntity
  8
0
  6
ByBlock
 62
     0
100
AcDbText
 10
-12.85714285714282
 20
-96.33855153013735
 30
0.0
 40
3.0
  1
20
  7
ROMANS
 72
     1
 11
-9.999999999999962
 21
-94.83855153013735
 31
0.0
100
AcDbText
 73
     2
  0
POINT
  5
8C
330
85
100
AcDbEntity
  8
DEFPOINTS
  6
ByBlock
 62
     0
100
AcDbPoint
 10
-19.99999999999996
 20
-41.00000000000018
 30
0.0
  0
POINT
  5
8D
330
85
100
AcDbEntity
  8
DEFPOINTS
  6
ByBlock
 62
     0
100
AcDbPoint
 10
0.0000000000000382
 20
-50.00906028065294
 30
0.0
  0
POINT
  5
8E
330
85
100
AcDbEntity
  8
DEFPOINTS
  6
ByBlock
 62
     0
100
AcDbPoint
 10
0.0000000000000382
 20
-97.83855153013735
 30
0.0
  0
ENDBLK
  5
90
330
85
100
AcDbEntity
  8
0
100
AcDbBlockEnd
  0
BLOCK
  5
6B
330
61
100
AcDbEntity
  8
0
 62
     1
100
AcDbBlockBegin
  2
A$C6BE937E7
 70
     0
 10
0.0
 20
0.0
 30
0.0
  3
A$C6BE937E7
  1

  0
TEXT
  5
62
330
61
100
AcDbEntity
  8
SPECD
 62
     6
100
AcDbText
 10
4.668392196768905
 20
18.71588358345923
 30
0.0
 40
5.0
  1
AND 20mm-JOINT. AND UNFREEZE DESIRED NEW 
  7
ROMANS
 72
     4
 11
102.5255350539117
 21
21.21588358345923
 31
0.0
100
AcDbText
  0
LINE
  5
64
330
61
100
AcDbEntity
  8
SPECD
 62
     6
100
AcDbLine
 10
0.0000004097963711
 20
53.03369301694681
 30
0.0
 11
202.4869505164367
 21
53.03369301694681
 31
0.0
  0
LINE
  5
65
330
61
100
AcDbEntity
  8
SPECD
 62
     6
100
AcDbLine
 10
0.0000004097963711
 20
0.0000004313964723
 30
0.0
 11
202.4869505164367
 21
0.0000004313964723
 31
0.0
  0
TEXT
  5
66
330
61
100
AcDbEntity
  8
SPECD
 62
     6
100
AcDbText
 10
4.207581425801549
 20
28.3361790613278
 30
0.0
 40
5.0
  1
FOR OTHER WIDTHS, FREEZE LAYERS 20mm-DIMS
  7
ROMANS
 72
     4
 11
101.3504385686587
 21
30.35998858513733
 31
0.0
100
AcDbText
  0
TEXT
  5
67
330
61
100
AcDbEntity
  8
SPECD
 62
     6
100
AcDbText
 10
4.215424032625506
 20
43.79289347717675
 30
0.0
 40
5.0
  1
DRAWING SHOWS 20mm JOINT.
  7
ROMANS
 72
     4
 11
63.73923355643501
 21
46.29289347717675
 31
0.0
100
AcDbText
  0
TEXT
  5
68
330
61
100
AcDbEntity
  8
SPECD
 62
     6
100
AcDbText
 10
4.481432930145061
 20
8.212600757984517
 30
0.0
 40
5.0
  1
JOINT AND DIMS LAYERS.
  7
ROMANS
 72
     4
 11
52.33857578728794
 21
10.71260075798451
 31
0.0
100
AcDbText
  0
LINE
  5
69
330
61
100
AcDbEntity
  8
SPECD
 62
     6
100
AcDbLine
 10
0.0000004097963711
 20
53.03369301694681
 30
0.0
 11
0.0000004097963711
 21
0.0000004313964723
 31
0.0
  0
LINE
  5
6A
330
61
100
AcDbEntity
  8
SPECD
 62
     6
100
AcDbLine
 10
202.4869505164367
 20
53.03369301694681
 30
0.0
 11
202.4869505164367
 21
0.0000004313964723
 31
0.0
  0
ENDBLK
  5
6C
330
61
100
AcDbEntity
  8
0
 62
     1
100
AcDbBlockEnd
  0
ENDSEC
  0
SECTION
  2
ENTITIES
  0
LINE
  5
2D
330
2
100
AcDbEntity
  8
DIMS
  6
CENTER2
100
AcDbLine
 10
0.0000000000000233
 20
-25.00000000000005
 30
0.0
 11
153.0000000000001
 21
-25.0
 31
0.0
  0
LINE
  5
2F
330
2
100
AcDbEntity
  8
DIMS
  6
CENTER2
100
AcDbLine
 10
0.0000000000000233
 20
24.99999999999994
 30
0.0
 11
153.0000000000001
 21
25.0
 31
0.0
  0
TEXT
  5
30
330
2
100
AcDbEntity
  8
DIMS
 62
     1
100
AcDbText
 10
9.568193832461375
 20
125.8219377013082
 30
0.0
 40
5.0
  1
SPECIFICATION BY DESCRIPTION
  7
ROMANS
 72
     4
 11
69.21105097531851
 21
128.3219377013082
 31
0.0
100
AcDbText
  0
TEXT
  5
31
330
2
100
AcDbEntity
  8
DIMS
 62
     1
100
AcDbText
 10
9.42455722283509
 20
155.7563921658043
 30
0.0
 40
5.0
  1
SPECIFICATION BY PRODUCT
  7
ROMANS
 72
     4
 11
62.87693817521603
 21
158.2563921658043
 31
0.0
100
AcDbText
  0
DIMENSION
  5
32
330
2
100
AcDbEntity
  8
DIMS
100
AcDbDimension
  2
*D6
 10
219.6002622152784
 20
-50.00906028065293
 30
0.0
 11
216.6002622152784
 21
-0.0090602806529603
 31
0.0
 71
     5
 42
-1.0
  3
1-2
100
AcDbAlignedDimension
 13
2.000000000000113
 23
49.99093971934701
 33
0.0
 14
2.000000000000113
 24
-50.00906028065293
 34
0.0
 50
90.0
100
AcDbRotatedDimension
  0
LINE
  5
42
330
2
100
AcDbEntity
  8
20MM-JOINT
  6
HIDDEN
 62
     3
100
AcDbLine
 10
0.0000000000000351
 20
-34.00000000000018
 30
0.0
 11
110.0
 21
-34.00000000000024
 31
0.0
  0
LINE
  5
45
330
2
100
AcDbEntity
  8
20MM-JOINT
  6
HIDDEN
 62
     3
100
AcDbLine
 10
0.0000000000000316
 20
-16.00000000000018
 30
0.0
 11
110.0
 21
-16.00000000000017
 31
0.0
  0
LINE
  5
46
330
2
100
AcDbEntity
  8
20MM-JOINT
  6
HIDDEN
 62
     3
100
AcDbLine
 10
0.0000000000000253
 20
15.99999999999982
 30
0.0
 11
109.9999999999999
 21
15.99999999999982
 31
0.0
  0
LINE
  5
47
330
2
100
AcDbEntity
  8
20MM-JOINT
  6
HIDDEN
 62
     3
100
AcDbLine
 10
0.0000000000000217
 20
33.99999999999981
 30
0.0
 11
110.0
 21
33.99999999999982
 31
0.0
  0
DIMENSION
  5
48
330
2
100
AcDbEntity
  8
DIMS
100
AcDbDimension
  2
*D8
 10
145.0000000000001
 20
-97.83855153013735
 30
0.0
 11
72.50000000000011
 21
-94.83855153013735
 31
0.0
 71
     5
 42
-1.0
  3
1-2
100
AcDbAlignedDimension
 13
0.0000000000001137
 23
-50.00906028065293
 33
0.0
 14
145.0000000000001
 24
-36.0
 34
0.0
100
AcDbRotatedDimension
  0
LINE
  5
55
330
2
100
AcDbEntity
  8
ANCON-DSD
  6
Continuous
100
AcDbLine
 10
2.000000000000113
 20
-36.0
 30
0.0
 11
145.0000000000001
 21
-36.0
 31
0.0
  0
LINE
  5
57
330
2
100
AcDbEntity
  8
ANCON-DSD
  6
Continuous
100
AcDbLine
 10
4.000000000000227
 20
-14.00000000000005
 30
0.0
 11
145.0000000000001
 21
-14.0
 31
0.0
  0
LINE
  5
58
330
2
100
AcDbEntity
  8
ANCON-DSD
  6
Continuous
100
AcDbLine
 10
4.000000000000113
 20
14.0
 30
0.0
 11
145.0000000000001
 21
14.0
 31
0.0
  0
LINE
  5
59
330
2
100
AcDbEntity
  8
ANCON-DSD
  6
Continuous
100
AcDbLine
 10
2.000000000000113
 20
36.0
 30
0.0
 11
145.0000000000001
 21
36.0
 31
0.0
  0
ARC
  5
5A
330
2
100
AcDbEntity
  8
ANCON-DSD
100
AcDbCircle
 10
-0.0624999999997726
 20
42.99093971934712
 30
0.0
 40
4.062499999999995
100
AcDbArc
 50
300.5102374061146
 51
59.48976259388494
  0
LINE
  5
5B
330
2
100
AcDbEntity
  8
ANCON-DSD
100
AcDbLine
 10
2.000000000000113
 20
50.00906028065287
 30
0.0
 11
2.000000000000113
 21
-50.00906028065293
 31
0.0
  0
LINE
  5
5C
330
2
100
AcDbEntity
  8
ANCON-DSD
100
AcDbLine
 10
0.0000000000001137
 20
50.00906028065287
 30
0.0
 11
0.0000000000001137
 21
-50.00906028065293
 31
0.0
  0
LINE
  5
5D
330
2
100
AcDbEntity
  8
20MM-JOINT
 62
     2
100
AcDbLine
 10
-19.99999999999994
 20
-144.7460648130115
 30
0.0
 11
-20.0
 21
144.7279442517058
 31
0.0
  0
LINE
  5
5E
330
2
100
AcDbEntity
  8
CONCRETE
100
AcDbLine
 10
0.0000000000000568
 20
-144.7370045323585
 30
0.0
 11
0.0
 21
144.7370045323586
 31
0.0
  0
DIMENSION
  5
6D
330
2
100
AcDbEntity
  8
20MM-DIMS
 62
     1
100
AcDbDimension
  2
*D12
 10
-20.0
 20
-97.83855153013735
 30
0.0
 11
-95.0
 21
-94.83855153013735
 31
0.0
 71
     5
 42
-1.0
  3
1-2
100
AcDbAlignedDimension
 13
-170.0
 23
-32.00000000000023
 33
0.0
 14
-20.0
 24
-41.00000000000018
 34
0.0
100
AcDbRotatedDimension
  0
LINE
  5
7B
330
2
100
AcDbEntity
  8
20MM-JOINT
 62
     3
100
AcDbLine
 10
-170.0
 20
-34.00000000000023
 30
0.0
 11
-25.0
 21
-34.00000000000018
 31
0.0
  0
LINE
  5
7C
330
2
100
AcDbEntity
  8
20MM-JOINT
 62
     3
100
AcDbLine
 10
-170.0
 20
-16.00000000000017
 30
0.0
 11
-25.0
 21
-16.00000000000017
 31
0.0
  0
LINE
  5
7D
330
2
100
AcDbEntity
  8
20MM-JOINT
 62
     3
100
AcDbLine
 10
-170.0
 20
15.99999999999982
 30
0.0
 11
-25.0
 21
15.99999999999982
 31
0.0
  0
LINE
  5
7E
330
2
100
AcDbEntity
  8
20MM-JOINT
 62
     3
100
AcDbLine
 10
-170.0
 20
33.99999999999982
 30
0.0
 11
-25.0
 21
33.99999999999982
 31
0.0
  0
LINE
  5
7F
330
2
100
AcDbEntity
  8
20MM-JOINT
  6
CENTER2
 62
     1
100
AcDbLine
 10
-175.0
 20
-25.00000000000011
 30
0.0
 11
0.0000000000000333
 21
-25.00000000000005
 31
0.0
  0
LINE
  5
80
330
2
100
AcDbEntity
  8
20MM-JOINT
  6
CENTER2
 62
     1
100
AcDbLine
 10
-175.0
 20
24.99999999999988
 30
0.0
 11
0.0000000000000235
 21
24.99999999999994
 31
0.0
  0
LINE
  5
81
330
2
100
AcDbEntity
  8
20MM-JOINT
 62
     3
100
AcDbLine
 10
-170.0
 20
-16.00000000000018
 30
0.0
 11
-170.0
 21
-34.00000000000024
 31
0.0
  0
LINE
  5
82
330
2
100
AcDbEntity
  8
20MM-JOINT
 62
     3
100
AcDbLine
 10
-170.0
 20
33.99999999999975
 30
0.0
 11
-170.0
 21
15.99999999999976
 31
0.0
  0
LINE
  5
83
330
2
100
AcDbEntity
  8
20MM-JOINT
 62
     3
100
AcDbLine
 10
-107.0
 20
15.99999999999982
 30
0.0
 11
-107.0
 21
-16.00000000000023
 31
0.0
  0
DIMENSION
  5
84
330
2
100
AcDbEntity
  8
20MM-DIMS
 62
     1
100
AcDbDimension
  2
*D13
 10
0.0000000000000382
 20
-97.83855153013735
 30
0.0
 11
-9.999999999999962
 21
-94.83855153013735
 31
0.0
 71
     5
 42
-1.0
  3
1-2
100
AcDbAlignedDimension
 13
-19.99999999999996
 23
-41.00000000000018
 33
0.0
 14
0.0000000000000382
 24
-50.00906028065294
 34
0.0
100
AcDbRotatedDimension
  0
LINE
  5
91
330
2
100
AcDbEntity
  8
20MM-JOINT
 62
     3
100
AcDbLine
 10
-20.0
 20
33.99999999999982
 30
0.0
 11
0.0000000000000217
 21
33.99999999999981
 31
0.0
  0
LINE
  5
92
330
2
100
AcDbEntity
  8
20MM-JOINT
 62
     3
100
AcDbLine
 10
-20.0
 20
15.99999999999982
 30
0.0
 11
0.0000000000000253
 21
15.99999999999982
 31
0.0
  0
LINE
  5
93
330
2
100
AcDbEntity
  8
20MM-JOINT
 62
     3
100
AcDbLine
 10
-20.0
 20
-34.00000000000018
 30
0.0
 11
0.0000000000000351
 21
-34.00000000000018
 31
0.0
  0
LINE
  5
94
330
2
100
AcDbEntity
  8
20MM-JOINT
 62
     3
100
AcDbLine
 10
-20.0
 20
-16.00000000000017
 30
0.0
 11
0.0000000000000316
 21
-16.00000000000018
 31
0.0
  0
DIMENSION
  5
95
330
2
100
AcDbEntity
  8
DIMS
100
AcDbDimension
  2
*D7
 10
0.0000000000001137
 20
-79.3944873126872
 30
0.0
 11
-6.191583146364473
 21
-76.3944873126872
 31
0.0
 70
   128
 71
     5
 42
-1.0
  3
1-2
100
AcDbAlignedDimension
 13
2.000000000000113
 23
-50.00906028065293
 33
0.0
 14
0.0000000000001137
 24
-50.00906028065293
 34
0.0
100
AcDbRotatedDimension
  0
DIMENSION
  5
A4
330
2
100
AcDbEntity
  8
20MM-DIMS
 62
     1
100
AcDbDimension
  2
*D9
 10
-50.99999999999988
 20
-79.3944873126872
 30
0.0
 11
-37.99999999999994
 21
-76.3944873126872
 31
0.0
 71
     5
 42
-1.0
  3
1-2
100
AcDbAlignedDimension
 13
-25.0
 23
-41.00000000000018
 33
0.0
 14
-50.99999999999988
 24
-12.1757210168899
 34
0.0
100
AcDbRotatedDimension
  0
LINE
  5
B1
330
2
100
AcDbEntity
  8
20MM-JOINT
 62
     3
100
AcDbLine
 10
-20.0
 20
38.99999999999976
 30
0.0
 11
-20.0
 21
-41.00000000000018
 31
0.0
  0
LINE
  5
B2
330
2
100
AcDbEntity
  8
20MM-JOINT
 62
     3
100
AcDbLine
 10
-25.0
 20
38.99999999999976
 30
0.0
 11
-25.0
 21
-41.00000000000018
 31
0.0
  0
DIMENSION
  5
B3
330
2
100
AcDbEntity
  8
20MM-DIMS
 62
     1
100
AcDbDimension
  2
*D10
 10
-80.99999999999988
 20
-79.28650044497755
 30
0.0
 11
-65.99999999999988
 21
-76.28650044497755
 31
0.0
 71
     5
 42
-1.0
  3
1-2
100
AcDbAlignedDimension
 13
-50.99999999999988
 23
-12.1757210168899
 33
0.0
 14
-80.99999999999988
 24
-12.1757210168899
 34
0.0
100
AcDbRotatedDimension
  0
DIMENSION
  5
C0
330
2
100
AcDbEntity
  8
20MM-DIMS
 62
     1
100
AcDbDimension
  2
*D11
 10
-20.0
 20
-79.3944873126872
 30
0.0
 11
-14.12832407944586
 21
-76.3944873126872
 31
0.0
 70
   128
 71
     5
 42
-1.0
  3
1-2
100
AcDbAlignedDimension
 13
-25.0
 23
-41.00000000000018
 33
0.0
 14
-20.0
 24
-41.00000000000018
 34
0.0
100
AcDbRotatedDimension
  0
LINE
  5
CE
330
2
100
AcDbEntity
  8
20MM-JOINT
  6
CENTER2
 62
     3
100
AcDbLine
 10
-25.0
 20
-41.00000000000018
 30
0.0
 11
-20.0
 21
-41.00000000000018
 31
0.0
  0
LINE
  5
CF
330
2
100
AcDbEntity
  8
20MM-JOINT
  6
CENTER2
 62
     1
100
AcDbLine
 10
-60.0
 20
-0.0000000000001776
 30
0.0
 11
-42.0
 21
-0.0000000000001776
 31
0.0
  0
CIRCLE
  5
D0
330
2
100
AcDbEntity
  8
20MM-JOINT
 62
     3
100
AcDbCircle
 10
-51.0
 20
-0.0000000000001776
 30
0.0
 40
6.0
  0
CIRCLE
  5
D1
330
2
100
AcDbEntity
  8
20MM-JOINT
 62
     3
100
AcDbCircle
 10
-81.0
 20
-0.0000000000001776
 30
0.0
 40
6.0
  0
LINE
  5
D2
330
2
100
AcDbEntity
  8
20MM-JOINT
  6
CENTER2
 62
     1
100
AcDbLine
 10
-80.99999999999999
 20
8.999999999999822
 30
0.0
 11
-80.9999999999999
 21
-9.000000000000177
 31
0.0
  0
LINE
  5
D3
330
2
100
AcDbEntity
  8
20MM-JOINT
  6
CENTER2
 62
     1
100
AcDbLine
 10
-90.0
 20
-0.0000000000001776
 30
0.0
 11
-72.0
 21
-0.0000000000001776
 31
0.0
  0
LINE
  5
D4
330
2
100
AcDbEntity
  8
20MM-JOINT
  6
CENTER2
 62
     1
100
AcDbLine
 10
-50.99999999999999
 20
8.999999999999822
 30
0.0
 11
-50.9999999999999
 21
-9.000000000000177
 31
0.0
  0
LINE
  5
D5
330
2
100
AcDbEntity
  8
20MM-JOINT
  6
CENTER2
 62
     3
100
AcDbLine
 10
-25.0
 20
38.99999999999976
 30
0.0
 11
-20.0
 21
38.99999999999976
 31
0.0
  0
DIMENSION
  5
D6
330
2
100
AcDbEntity
  8
DIMS
100
AcDbDimension
  2
*D1
 10
58.00000000000022
 20
-79.36000497429393
 30
0.0
 11
43.00000000000022
 21
-76.36000497429392
 31
0.0
 12
-700.4941010892164
 22
-425.5675773207671
 32
0.0
 71
     5
 42
-1.0
  3
1-2
100
AcDbAlignedDimension
 13
28.00000000000011
 23
-10.26576826926037
 33
0.0
 14
58.00000000000022
 24
-10.26576826926037
 34
0.0
100
AcDbRotatedDimension
  0
DIMENSION
  5
E3
330
2
100
AcDbEntity
  8
DIMS
100
AcDbDimension
  2
*D0
 10
28.00000000000011
 20
-79.36000497429393
 30
0.0
 11
15.00000000000011
 21
-76.36000497429392
 31
0.0
 12
-700.4941010892164
 22
-425.5675773207671
 32
0.0
 71
     5
 42
-1.0
  3
1-2
100
AcDbAlignedDimension
 13
2.000000000000113
 23
-46.50906028065293
 33
0.0
 14
28.00000000000011
 24
-10.26576826926037
 34
0.0
100
AcDbRotatedDimension
  0
ARC
  5
F0
330
2
100
AcDbEntity
  8
ANCON-DSD
100
AcDbCircle
 10
2.000000000000113
 20
-33.50906028065293
 30
0.0
 40
2.0
100
AcDbArc
 50
270.0
 51
0.0
  0
ARC
  5
F1
330
2
100
AcDbEntity
  8
ANCON-DSD
100
AcDbCircle
 10
-0.0624999999998863
 20
-43.00906028065293
 30
0.0
 40
4.0625
100
AcDbArc
 50
300.5102374061155
 51
59.48976259388445
  0
LINE
  5
F2
330
2
100
AcDbEntity
  8
ANCON-DSD
100
AcDbLine
 10
0.0000000000001137
 20
-50.00906028065293
 30
0.0
 11
2.000000000000113
 21
-50.00906028065293
 31
0.0
  0
CIRCLE
  5
F3
330
2
100
AcDbEntity
  8
ANCON-DSD
100
AcDbCircle
 10
28.00000000000022
 20
-0.0000000000000568
 30
0.0
 40
6.0
  0
LINE
  5
F4
330
2
100
AcDbEntity
  8
DIMS
  6
CENTER2
100
AcDbLine
 10
28.00000000000022
 20
7.999999999999943
 30
0.0
 11
28.00000000000013
 21
-8.000000000000056
 31
0.0
  0
LINE
  5
F5
330
2
100
AcDbEntity
  8
ANCON-DSD
100
AcDbLine
 10
4.000000000000113
 20
33.49093971934706
 30
0.0
 11
4.000000000000227
 21
-33.50906028065293
 31
0.0
  0
LINE
  5
F6
330
2
100
AcDbEntity
  8
DIMS
  6
CENTER2
100
AcDbLine
 10
20.00000000000022
 20
-0.0000000000000568
 30
0.0
 11
36.00000000000022
 21
-0.0000000000000568
 31
0.0
  0
ARC
  5
F7
330
2
100
AcDbEntity
  8
ANCON-DSD
100
AcDbCircle
 10
2.000000000000113
 20
33.49093971934706
 30
0.0
 40
1.997220966142208
100
AcDbArc
 50
0.0
 51
90.0
  0
CIRCLE
  5
F8
330
2
100
AcDbEntity
  8
ANCON-DSD
100
AcDbCircle
 10
58.00000000000022
 20
-0.0000000000000568
 30
0.0
 40
6.0
  0
LINE
  5
F9
330
2
100
AcDbEntity
  8
DIMS
  6
CENTER2
100
AcDbLine
 10
58.00000000000022
 20
7.999999999999943
 30
0.0
 11
58.00000000000022
 21
-8.000000000000056
 31
0.0
  0
LINE
  5
FA
330
2
100
AcDbEntity
  8
ANCON-DSD
100
AcDbLine
 10
84.00000000000023
 20
12.0
 30
0.0
 11
84.00000000000011
 21
-12.0
 31
0.0
  0
LINE
  5
FB
330
2
100
AcDbEntity
  8
DIMS
  6
CENTER2
100
AcDbLine
 10
50.00000000000023
 20
-0.0000000000000568
 30
0.0
 11
66.00000000000022
 21
-0.0000000000000568
 31
0.0
  0
ARC
  5
FC
330
2
100
AcDbEntity
  8
ANCON-DSD
100
AcDbCircle
 10
82.00000000000011
 20
-12.0
 30
0.0
 40
2.0
100
AcDbArc
 50
270.0
 51
359.9999999999998
  0
ARC
  5
FD
330
2
100
AcDbEntity
  8
ANCON-DSD
100
AcDbCircle
 10
82.00000000000022
 20
12.0
 30
0.0
 40
2.0
100
AcDbArc
 50
359.9999999999998
 51
90.0
  0
TEXT
  5
FE
330
2
100
AcDbEntity
  8
20MM-JOINT
 62
     6
100
AcDbText
 10
-107.1621859407346
 20
143.4459548564972
 30
0.0
 40
5.0
  1
LOAD ( kN )
  7
ROMANS
 72
     4
 11
-82.40028117882994
 21
145.5888119993544
 31
0.0
100
AcDbText
  0
LINE
  5
FF
330
2
100
AcDbEntity
  8
20MM-JOINT
 62
     6
100
AcDbLine
 10
-226.2857452908586
 20
111.5518733233929
 30
0.0
 11
-50.90706759899616
 21
111.5518733233928
 31
0.0
  0
LINE
  5
100
330
2
100
AcDbEntity
  8
20MM-JOINT
 62
     6
100
AcDbLine
 10
-226.2857452908586
 20
138.57935839844
 30
0.0
 11
-50.90706759899613
 21
138.57935839844
 31
0.0
  0
LINE
  5
101
330
2
100
AcDbEntity
  8
20MM-JOINT
 62
     6
100
AcDbLine
 10
-226.2857452908586
 20
164.6501194574857
 30
0.0
 11
-50.90706759899616
 21
164.6501194574856
 31
0.0
  0
TEXT
  5
102
330
2
100
AcDbEntity
  8
20MM-JOINT
 62
     6
100
AcDbText
 10
-110.2574240359727
 20
154.3892337950756
 30
0.0
 40
5.0
  1
SERVICEABILITY
  7
ROMANS
 72
     4
 11
-82.40028117882994
 21
156.8892337950756
 31
0.0
100
AcDbText
  0
TEXT
  5
103
330
2
100
AcDbEntity
  8
20MM-JOINT
 62
     6
100
AcDbText
 10
-219.0933611417873
 20
154.384403297944
 30
0.0
 40
5.0
  1
DSD REF:
  7
ROMANS
 72
     4
 11
-201.1171706655968
 21
156.884403297944
 31
0.0
100
AcDbText
  0
TEXT
  5
104
330
2
100
AcDbEntity
  8
20MM-JOINT
 62
     6
100
AcDbText
 10
-214.6621859407347
 20
122.3674304164914
 30
0.0
 40
5.0
  1
DSD50
  7
ROMANS
 72
     4
 11
-202.4002811788299
 21
124.8674304164914
 31
0.0
100
AcDbText
  0
LINE
  5
105
330
2
100
AcDbEntity
  8
20MM-JOINT
 62
     6
100
AcDbLine
 10
-226.2857452908586
 20
164.6501194574856
 30
0.0
 11
-226.2857452908586
 21
111.5518733233928
 31
0.0
  0
TEXT
  5
106
330
2
100
AcDbEntity
  8
20MM-JOINT
 62
     6
100
AcDbText
 10
-155.2574240359728
 20
122.3674304164914
 30
0.0
 40
5.0
  1
20 MM
  7
ROMANS
 72
     4
 11
-142.4002811788299
 21
124.8674304164914
 31
0.0
100
AcDbText
  0
LINE
  5
107
330
2
100
AcDbEntity
  8
20MM-JOINT
 62
     6
100
AcDbLine
 10
-115.7776517337957
 20
164.6501194574856
 30
0.0
 11
-115.7776517337957
 21
111.5518733233928
 31
0.0
  0
LINE
  5
108
330
2
100
AcDbEntity
  8
20MM-JOINT
 62
     6
100
AcDbLine
 10
-176.2857452908586
 20
164.6501194574856
 30
0.0
 11
-176.2857452908586
 21
111.5518733233928
 31
0.0
  0
TEXT
  5
109
330
2
100
AcDbEntity
  8
20MM-JOINT
 62
     6
100
AcDbText
 10
-171.1820769259696
 20
154.384403297944
 30
0.0
 40
5.0
  1
DESIGN JOINT
  7
ROMANS
 72
     4
 11
-145.1106483545411
 21
156.884403297944
 31
0.0
100
AcDbText
  0
TEXT
  5
10A
330
2
100
AcDbEntity
  8
20MM-JOINT
 62
     6
100
AcDbText
 10
-155.7058864497792
 20
143.4867799103251
 30
0.0
 40
5.0
  1
WIDTH
  7
ROMANS
 72
     4
 11
-145.1106483545411
 21
145.9867799103251
 31
0.0
100
AcDbText
  0
TEXT
  5
10B
330
2
100
AcDbEntity
  8
20MM-JOINT
 62
     6
100
AcDbText
 10
-90.73361451216326
 20
122.3674304164914
 30
0.0
 40
5.0
  1
40.5
  7
ROMANS
 72
     4
 11
-82.40028117882994
 21
124.8674304164914
 31
0.0
100
AcDbText
  0
LINE
  5
10C
330
2
100
AcDbEntity
  8
20MM-JOINT
 62
     6
100
AcDbLine
 10
-50.90706759899616
 20
164.6501194574856
 30
0.0
 11
-50.90706759899616
 21
111.5518733233928
 31
0.0
  0
LINE
  5
10D
330
2
100
AcDbEntity
  8
ANCON-DSD
100
AcDbLine
 10
0.0000000000001137
 20
49.99093971934701
 30
0.0
 11
0.0000000000001137
 21
50.00906028065287
 31
0.0
  0
LINE
  5
10E
330
2
100
AcDbEntity
  8
ANCON-DSD
100
AcDbLine
 10
0.0000000000001137
 20
49.99093971934701
 30
0.0
 11
2.000000000000113
 21
49.99093971934701
 31
0.0
  0
DIMENSION
  5
10F
330
2
100
AcDbEntity
  8
DIMS
100
AcDbDimension
  2
*D5
 10
199.4497878118139
 20
-25.0
 30
0.0
 11
196.4497878118139
 21
0.0
 31
0.0
 12
-700.4941010892164
 22
-425.5675773207671
 32
0.0
 71
     5
 42
-1.0
  3
1-2
100
AcDbAlignedDimension
 13
153.0000000000001
 23
25.0
 33
0.0
 14
153.0000000000001
 24
-25.0
 34
0.0
 50
90.0
100
AcDbRotatedDimension
  0
DIMENSION
  5
11C
330
2
100
AcDbEntity
  8
DIMS
100
AcDbDimension
  2
*D4
 10
178.8449356832488
 20
-25.0
 30
0.0
 11
175.8449356832488
 21
-36.28571428571428
 31
0.0
 12
-700.4941010892164
 22
-425.5675773207671
 32
0.0
 71
     5
 42
-1.0
  3
1-2
100
AcDbAlignedDimension
 13
145.0000000000001
 23
-14.0
 33
0.0
 14
153.0000000000001
 24
-25.0
 34
0.0
 50
90.0
100
AcDbRotatedDimension
  0
ARC
  5
12B
330
2
100
AcDbEntity
  8
ANCON-DSD
100
AcDbCircle
 10
132.8814747796504
 20
-25.10123742799652
 30
0.0
 40
16.33504009798355
100
AcDbArc
 50
317.4973099183851
 51
42.15767904049352
  0
LINE
  5
12C
330
2
100
AcDbEntity
  8
ANCON-DSD
100
AcDbLine
 10
145.0000000000001
 20
-14.0
 30
0.0
 11
145.0000000000001
 21
-36.0
 31
0.0
  0
DIMENSION
  5
12D
330
2
100
AcDbEntity
  8
DIMS
100
AcDbDimension
  2
*D3
 10
178.8449356832488
 20
25.0
 30
0.0
 11
175.8449356832488
 21
36.28571428571428
 31
0.0
 12
-700.4941010892164
 22
-425.5675773207671
 32
0.0
 71
     5
 42
-1.0
  3
1-2
100
AcDbAlignedDimension
 13
145.0000000000001
 23
14.0
 33
0.0
 14
153.0000000000001
 24
25.0
 34
0.0
 50
90.0
100
AcDbRotatedDimension
  0
DIMENSION
  5
13C
330
2
100
AcDbEntity
  8
DIMS
100
AcDbDimension
  2
*D2
 10
178.8449356832488
 20
-14.0
 30
0.0
 11
175.8449356832488
 21
0.0
 31
0.0
 12
-700.4941010892164
 22
-425.5675773207671
 32
0.0
 71
     5
 42
-1.0
  3
1-2
100
AcDbAlignedDimension
 13
145.0000000000001
 23
14.0
 33
0.0
 14
145.0000000000001
 24
-14.0
 34
0.0
 50
90.0
100
AcDbRotatedDimension
  0
ARC
  5
149
330
2
100
AcDbEntity
  8
ANCON-DSD
100
AcDbCircle
 10
132.8814747796504
 20
25.03635856865867
 30
0.0
 40
16.33504009798355
100
AcDbArc
 50
317.4973099183851
 51
42.15767904049352
  0
LINE
  5
14A
330
2
100
AcDbEntity
  8
20MM-JOINT
  6
HIDDEN
 62
     3
100
AcDbLine
 10
110.0
 20
-16.00000000000017
 30
0.0
 11
110.0
 21
-34.00000000000024
 31
0.0
  0
LINE
  5
14B
330
2
100
AcDbEntity
  8
20MM-JOINT
  6
HIDDEN
 62
     3
100
AcDbLine
 10
110.0
 20
-18.00000000000023
 30
0.0
 11
110.0
 21
-32.00000000000023
 31
0.0
  0
LINE
  5
14C
330
2
100
AcDbEntity
  8
20MM-JOINT
  6
HIDDEN
 62
     3
100
AcDbLine
 10
110.0
 20
33.99999999999982
 30
0.0
 11
109.9999999999999
 21
15.99999999999982
 31
0.0
  0
LINE
  5
14D
330
2
100
AcDbEntity
  8
20MM-JOINT
  6
HIDDEN
 62
     3
100
AcDbLine
 10
110.0
 20
31.99999999999982
 30
0.0
 11
110.0
 21
17.99999999999982
 31
0.0
  0
LINE
  5
14E
330
2
100
AcDbEntity
  8
ANCON-DSD
100
AcDbLine
 10
145.0000000000001
 20
36.0
 30
0.0
 11
145.0000000000001
 21
14.0
 31
0.0
  0
TEXT
  5
14F
330
2
100
AcDbEntity
  8
SPECD
 62
     6
100
AcDbText
 10
141.2886627185875
 20
125.786189074784
 30
0.0
 40
5.0
  1
TWO PART STAINLESS STEEL SHEAR CONNECTOR
  7
ROMANS
 72
     4
 11
233.9077103376353
 21
128.286189074784
 31
0.0
100
AcDbText
  0
TEXT
  5
150
330
2
100
AcDbEntity
  8
SPECD
 62
     6
100
AcDbText
 10
140.5674783125317
 20
115.6814767489934
 30
0.0
 40
5.0
  1
COMPRISING SLEEVE AND DOWEL COMPONENT
  7
ROMANS
 72
     4
 11
228.5436687887222
 21
118.1814767489933
 31
0.0
100
AcDbText
  0
TEXT
  5
151
330
2
100
AcDbEntity
  8
SPECD
 62
     6
100
AcDbText
 10
141.0806102425394
 20
95.73127162539455
 30
0.0
 40
5.0
  1
AND CAPABLE OF TRANSFERRING A SERVICEABILITY
  7
ROMANS
 72
     4
 11
238.4615626234918
 21
98.23127162539456
 31
0.0
100
AcDbText
  0
LINE
  5
152
330
2
100
AcDbEntity
  8
SPECD
 62
     6
100
AcDbLine
 10
136.9969295137479
 20
81.9932960290037
 30
0.0
 11
339.4838796203882
 21
81.9932960290037
 31
0.0
  0
LINE
  5
153
330
2
100
AcDbEntity
  8
SPECD
 62
     6
100
AcDbLine
 10
136.9969295137479
 20
135.026988614554
 30
0.0
 11
339.4838796203882
 21
135.026988614554
 31
0.0
  0
TEXT
  5
154
330
2
100
AcDbEntity
  8
SPECD
 62
     6
100
AcDbText
 10
140.6261750725893
 20
105.7803290393236
 30
0.0
 40
5.0
  1
SUITABLE FOR A DESIGN JOINT WIDTH OF ?? MM
  7
ROMANS
 72
     4
 11
235.5071274535418
 21
108.2803290393236
 31
0.0
100
AcDbText
  0
TEXT
  5
155
330
2
100
AcDbEntity
  8
SPECD
 62
     6
100
AcDbText
 10
142.2663909988825
 20
85.69634646043228
 30
0.0
 40
5.0
  1
LOAD OF ??? kN
  7
ROMANS
 72
     4
 11
174.8854386179302
 21
88.19634646043228
 31
0.0
100
AcDbText
  0
LINE
  5
156
330
2
100
AcDbEntity
  8
SPECP
 62
     6
100
AcDbLine
 10
136.9969295137479
 20
164.3935022816478
 30
0.0
 11
204.5867804365098
 21
164.3935022816478
 31
0.0
  0
LINE
  5
158
330
2
100
AcDbEntity
  8
SPECP
 62
     6
100
AcDbLine
 10
136.9969295137479
 20
152.4755269896465
 30
0.0
 11
204.5867804365098
 21
152.4755269896466
 31
0.0
  0
TEXT
  5
159
330
2
100
AcDbEntity
  8
SPECP
 62
     6
100
AcDbText
 10
141.4910391871399
 20
155.7563921658043
 30
0.0
 40
5.0
  1
STAIFIX DSD ??
  7
ROMANS
 72
     4
 11
171.0148487109495
 21
158.2563921658043
 31
0.0
100
AcDbText
  0
LINE
  5
15A
330
2
100
AcDbEntity
  8
SPECD
 62
     6
100
AcDbLine
 10
136.9969295137479
 20
135.026988614554
 30
0.0
 11
136.9969295137479
 21
81.9932960290037
 31
0.0
  0
LINE
  5
15B
330
2
100
AcDbEntity
  8
SPECP
 62
     6
100
AcDbLine
 10
136.9969295137479
 20
164.3935022816478
 30
0.0
 11
136.9969295137479
 21
152.4755269896465
 31
0.0
  0
LINE
  5
15C
330
2
100
AcDbEntity
  8
SPECP
 62
     6
100
AcDbLine
 10
204.5867804365098
 20
164.3935022816478
 30
0.0
 11
204.5867804365098
 21
152.4755269896465
 31
0.0
  0
LINE
  5
15D
330
2
100
AcDbEntity
  8
SPECD
 62
     6
100
AcDbLine
 10
339.4838796203882
 20
135.026988614554
 30
0.0
 11
339.4838796203882
 21
81.9932960290037
 31
0.0
  0
ENDSEC
  0
SECTION
  2
OBJECTS
  0
DICTIONARY
  5
26
330
0
100
AcDbDictionary
281
     1
  3
ACAD_GROUP
350
22
  3
ACAD_LAYOUT
350
161
  3
ACAD_MLINESTYLE
350
23
  3
ACAD_PLOTSETTINGS
350
162
  3
ACAD_PLOTSTYLENAME
350
15F
  0
DICTIONARY
  5
3
330
2
100
AcDbDictionary
280
     1
281
     1
  3
ACAD_LAYOUTSELFREF
360
192
  0
DICTIONARY
  5
B
330
A
100
AcDbDictionary
280
     1
281
     1
  3
ACAD_LAYOUTSELFREF
360
193
  0
DICTIONARY
  5
22
102
{ACAD_REACTORS
330
26
102
}
330
26
100
AcDbDictionary
281
     1
  0
DICTIONARY
  5
161
102
{ACAD_REACTORS
330
26
102
}
330
26
100
AcDbDictionary
281
     1
  3
Layout1
350
164
  3
Model
350
163
  0
DICTIONARY
  5
23
102
{ACAD_REACTORS
330
26
102
}
330
26
100
AcDbDictionary
281
     1
  3
Standard
350
29
  0
DICTIONARY
  5
162
102
{ACAD_REACTORS
330
26
102
}
330
26
100
AcDbDictionary
281
     1
  0
ACDBDICTIONARYWDFLT
  5
15F
102
{ACAD_REACTORS
330
26
102
}
330
26
100
AcDbDictionary
281
     1
  3
Normal
350
160
100
AcDbDictionaryWithDefault
340
160
  0
XRECORD
  5
192
102
{ACAD_REACTORS
330
3
102
}
330
3
100
AcDbXrecord
280
     1
340
2
  0
XRECORD
  5
193
102
{ACAD_REACTORS
330
B
102
}
330
B
100
AcDbXrecord
280
     1
340
A
  0
LAYOUT
  5
164
102
{ACAD_REACTORS
330
161
102
}
330
161
100
AcDbPlotSettings
  1

  2
None
  4

  6

 40
0.0
 41
0.0
 42
0.0
 43
0.0
 44
0.0
 45
0.0
 46
0.0
 47
0.0
 48
0.0
 49
0.0
140
0.0
141
0.0
142
1.0
143
1.0
 70
   688
 72
     0
 73
     0
 74
     5
  7
Std pen settings.ctb
 75
    16
147
1.0
148
0.0
149
0.0
100
AcDbLayout
  1
Layout1
 70
     1
 71
     1
 10
-0.1979161059762549
 20
-0.1979166691697489
 11
16.34375024029589
 21
11.49541603298637
 12
0.0
 22
0.0
 32
0.0
 14
1.614583349603368
 24
1.129749872553066
 34
0.0
 15
14.5312501464303
 25
10.1677488529776
 35
0.0
146
0.0
 13
0.0
 23
0.0
 33
0.0
 16
1.0
 26
0.0
 36
0.0
 17
0.0
 27
1.0
 37
0.0
 76
     0
330
A
  0
LAYOUT
  5
163
102
{ACAD_REACTORS
330
161
102
}
330
161
100
AcDbPlotSettings
  1

  2
None
  4

  6

 40
0.0
 41
0.0
 42
0.0
 43
0.0
 44
0.0
 45
0.0
 46
0.0
 47
0.0
 48
0.0
 49
0.0
140
0.0
141
0.0
142
1.0
143
1.0
 70
  1712
 72
     0
 73
     0
 74
     0
  7
Std pen settings.ctb
 75
     0
147
1.0
148
0.0
149
0.0
100
AcDbLayout
  1
Model
 70
     1
 71
     0
 10
0.0
 20
0.0
 11
12.0
 21
9.0
 12
0.0
 22
0.0
 32
0.0
 14
0.0
 24
0.0
 34
0.0
 15
0.0
 25
0.0
 35
0.0
146
0.0
 13
0.0
 23
0.0
 33
0.0
 16
1.0
 26
0.0
 36
0.0
 17
0.0
 27
1.0
 37
0.0
 76
     0
330
2
  0
MLINESTYLE
  5
29
102
{ACAD_REACTORS
330
23
102
}
330
23
100
AcDbMlineStyle
  2
STANDARD
 70
     0
  3

 62
   256
 51
90.0
 52
90.0
 71
     2
 49
0.5
 62
   256
  6
BYLAYER
 49
-0.5
 62
   256
  6
BYLAYER
  0
ACDBPLACEHOLDER
  5
160
102
{ACAD_REACTORS
330
15F
102
}
330
15F
  0
ENDSEC
  0
EOF
