  0
SECTION
  2
HEADER
  9
$ACADVER
  1
AC1015
  9
$ACADMAINTVER
 70
    10
  9
$DWGCODEPAGE
  3
ANSI_1252
  9
$INSBASE
 10
0.0
 20
0.0
 30
0.0
  9
$EXTMIN
 10
-269.9999999999998
 20
-175.6031504942892
 30
0.0
  9
$EXTMAX
 10
334.8426136024051
 20
199.4101577985854
 30
0.0
  9
$LIMMIN
 10
0.0
 20
0.0
  9
$LIMMAX
 10
420.0
 20
297.0
  9
$ORTHOMODE
 70
     1
  9
$REGENMODE
 70
     1
  9
$FILLMODE
 70
     1
  9
$QTEXTMODE
 70
     0
  9
$MIRRTEXT
 70
     1
  9
$LTSCALE
 40
0.25
  9
$ATTMODE
 70
     1
  9
$TEXTSIZE
 40
5.0
  9
$TRACEWID
 40
10.0
  9
$TEXTSTYLE
  7
ROMANS
  9
$CLAYER
  8
ANCON-DSD
  9
$CELTYPE
  6
ByLayer
  9
$CECOLOR
 62
   256
  9
$CELTSCALE
 40
1.0
  9
$DISPSILH
 70
     0
  9
$DIMSCALE
 40
0.0
  9
$DIMASZ
 40
2.0
  9
$DIMEXO
 40
4.5
  9
$DIMDLI
 40
10.0
  9
$DIMRND
 40
0.0
  9
$DIMDLE
 40
1.25
  9
$DIMEXE
 40
1.5
  9
$DIMTP
 40
0.0
  9
$DIMTM
 40
0.0
  9
$DIMTXT
 40
3.0
  9
$DIMCEN
 40
-3.0
  9
$DIMTSZ
 40
0.0
  9
$DIMTOL
 70
     0
  9
$DIMLIM
 70
     0
  9
$DIMTIH
 70
     0
  9
$DIMTOH
 70
     0
  9
$DIMSE1
 70
     0
  9
$DIMSE2
 70
     0
  9
$DIMTAD
 70
     1
  9
$DIMZIN
 70
    12
  9
$DIMBLK
  1

  9
$DIMASO
 70
     1
  9
$DIMSHO
 70
     0
  9
$DIMPOST
  1

  9
$DIMAPOST
  1

  9
$DIMALT
 70
     0
  9
$DIMALTD
 70
     2
  9
$DIMALTF
 40
0.039
  9
$DIMLFAC
 40
1.0
  9
$DIMTOFL
 70
     0
  9
$DIMTVP
 40
0.0
  9
$DIMTIX
 70
     0
  9
$DIMSOXD
 70
     0
  9
$DIMSAH
 70
     0
  9
$DIMBLK1
  1

  9
$DIMBLK2
  1

  9
$DIMSTYLE
  2
1-1
  9
$DIMCLRD
 70
     0
  9
$DIMCLRE
 70
     0
  9
$DIMCLRT
 70
     0
  9
$DIMTFAC
 40
0.75
  9
$DIMGAP
 40
1.5
  9
$DIMJUST
 70
     0
  9
$DIMSD1
 70
     0
  9
$DIMSD2
 70
     0
  9
$DIMTOLJ
 70
     1
  9
$DIMTZIN
 70
    12
  9
$DIMALTZ
 70
    12
  9
$DIMALTTZ
 70
    12
  9
$DIMUPT
 70
     0
  9
$DIMDEC
 70
     2
  9
$DIMTDEC
 70
     2
  9
$DIMALTU
 70
     2
  9
$DIMALTTD
 70
     2
  9
$DIMTXSTY
  7
STANDARD
  9
$DIMAUNIT
 70
     0
  9
$DIMADEC
 70
     0
  9
$DIMALTRND
 40
0.0
  9
$DIMAZIN
 70
     0
  9
$DIMDSEP
 70
    46
  9
$DIMATFIT
 70
     3
  9
$DIMFRAC
 70
     0
  9
$DIMLDRBLK
  1

  9
$DIMLUNIT
 70
     2
  9
$DIMLWD
 70
    -2
  9
$DIMLWE
 70
    -2
  9
$DIMTMOVE
 70
     2
  9
$LUNITS
 70
     2
  9
$LUPREC
 70
     2
  9
$SKETCHINC
 40
1.0
  9
$FILLETRAD
 40
0.0
  9
$AUNITS
 70
     0
  9
$AUPREC
 70
     4
  9
$MENU
  1
acad
  9
$ELEVATION
 40
0.0
  9
$PELEVATION
 40
0.0
  9
$THICKNESS
 40
0.0
  9
$LIMCHECK
 70
     0
  9
$CHAMFERA
 40
0.0
  9
$CHAMFERB
 40
0.0
  9
$CHAMFERC
 40
0.0
  9
$CHAMFERD
 40
0.0
  9
$SKPOLY
 70
     0
  9
$TDCREATE
 40
2449527.571155092
  9
$TDUCREATE
 40
2449527.529488425
  9
$TDUPDATE
 40
2452498.529740394
  9
$TDUUPDATE
 40
2452498.488073726
  9
$TDINDWG
 40
0.3486956134
  9
$TDUSRTIMER
 40
0.3486956134
  9
$USRTIMER
 70
     1
  9
$ANGBASE
 50
0.0
  9
$ANGDIR
 70
     0
  9
$PDMODE
 70
     0
  9
$PDSIZE
 40
0.0
  9
$PLINEWID
 40
0.0
  9
$SPLFRAME
 70
     0
  9
$SPLINETYPE
 70
     6
  9
$SPLINESEGS
 70
     8
  9
$HANDSEED
  5
180
  9
$SURFTAB1
 70
    18
  9
$SURFTAB2
 70
    18
  9
$SURFTYPE
 70
     6
  9
$SURFU
 70
    18
  9
$SURFV
 70
    18
  9
$UCSBASE
  2

  9
$UCSNAME
  2

  9
$UCSORG
 10
0.0
 20
0.0
 30
0.0
  9
$UCSXDIR
 10
1.0
 20
0.0
 30
0.0
  9
$UCSYDIR
 10
0.0
 20
1.0
 30
0.0
  9
$UCSORTHOREF
  2

  9
$UCSORTHOVIEW
 70
     0
  9
$UCSORGTOP
 10
0.0
 20
0.0
 30
0.0
  9
$UCSORGBOTTOM
 10
0.0
 20
0.0
 30
0.0
  9
$UCSORGLEFT
 10
0.0
 20
0.0
 30
0.0
  9
$UCSORGRIGHT
 10
0.0
 20
0.0
 30
0.0
  9
$UCSORGFRONT
 10
0.0
 20
0.0
 30
0.0
  9
$UCSORGBACK
 10
0.0
 20
0.0
 30
0.0
  9
$PUCSBASE
  2

  9
$PUCSNAME
  2

  9
$PUCSORG
 10
0.0
 20
0.0
 30
0.0
  9
$PUCSXDIR
 10
1.0
 20
0.0
 30
0.0
  9
$PUCSYDIR
 10
0.0
 20
1.0
 30
0.0
  9
$PUCSORTHOREF
  2

  9
$PUCSORTHOVIEW
 70
     0
  9
$PUCSORGTOP
 10
0.0
 20
0.0
 30
0.0
  9
$PUCSORGBOTTOM
 10
0.0
 20
0.0
 30
0.0
  9
$PUCSORGLEFT
 10
0.0
 20
0.0
 30
0.0
  9
$PUCSORGRIGHT
 10
0.0
 20
0.0
 30
0.0
  9
$PUCSORGFRONT
 10
0.0
 20
0.0
 30
0.0
  9
$PUCSORGBACK
 10
0.0
 20
0.0
 30
0.0
  9
$USERI1
 70
     0
  9
$USERI2
 70
     0
  9
$USERI3
 70
     0
  9
$USERI4
 70
     0
  9
$USERI5
 70
     0
  9
$USERR1
 40
0.0
  9
$USERR2
 40
0.0
  9
$USERR3
 40
0.0
  9
$USERR4
 40
0.0
  9
$USERR5
 40
0.0
  9
$WORLDVIEW
 70
     1
  9
$SHADEDGE
 70
     3
  9
$SHADEDIF
 70
    70
  9
$TILEMODE
 70
     1
  9
$MAXACTVP
 70
    16
  9
$PINSBASE
 10
0.0
 20
0.0
 30
0.0
  9
$PLIMCHECK
 70
     0
  9
$PEXTMIN
 10
1.614583349603368
 20
1.129749872553066
 30
0.0
  9
$PEXTMAX
 10
14.5312501464303
 20
10.1677488529776
 30
0.0
  9
$PLIMMIN
 10
-0.1979161059762549
 20
-0.1979166691697489
  9
$PLIMMAX
 10
16.34375024029589
 20
11.49541603298637
  9
$UNITMODE
 70
     0
  9
$VISRETAIN
 70
     0
  9
$PLINEGEN
 70
     0
  9
$PSLTSCALE
 70
     1
  9
$TREEDEPTH
 70
  3020
  9
$CMLSTYLE
  2
Standard
  9
$CMLJUST
 70
     0
  9
$CMLSCALE
 40
1.0
  9
$PROXYGRAPHICS
 70
     1
  9
$MEASUREMENT
 70
     0
  9
$CELWEIGHT
370
    -1
  9
$ENDCAPS
280
     0
  9
$JOINSTYLE
280
     0
  9
$LWDISPLAY
290
     0
  9
$INSUNITS
 70
     0
  9
$HYPERLINKBASE
  1

  9
$STYLESHEET
  1

  9
$XEDIT
290
     1
  9
$CEPSNTYPE
380
     0
  9
$PSTYLEMODE
290
     1
  9
$FINGERPRINTGUID
  2
{58848644-57C5-4DB0-8EC7-F728F3D438CE}
  9
$VERSIONGUID
  2
{627E27DF-AD1D-11D6-AAC6-0010A4A25215}
  9
$EXTNAMES
290
     1
  9
$PSVPSCALE
 40
0.0
  9
$OLESTARTUP
290
     0
  0
ENDSEC
  0
SECTION
  2
CLASSES
  0
CLASS
  1
ACDBDICTIONARYWDFLT
  2
AcDbDictionaryWithDefault
  3
AutoCAD 2000
 90
        0
280
     1
281
     0
  0
CLASS
  1
ACDBPLACEHOLDER
  2
AcDbPlaceHolder
  3
AutoCAD 2000
 90
        0
280
     1
281
     0
  0
CLASS
  1
LAYOUT
  2
AcDbLayout
  3
AutoCAD 2000
 90
        0
280
     1
281
     0
  0
CLASS
  1
LONG_TRANSACTION
  2
AcDbLongTransaction
  3
AutoCAD 2000
 90
    32768
280
     1
281
     0
  0
CLASS
  1
LWPOLYLINE
  2
AcDbPolyline
  3
AutoCAD 2000
 90
    32768
280
     0
281
     1
  0
CLASS
  1
HATCH
  2
AcDbHatch
  3
AutoCAD 2000
 90
    32768
280
     0
281
     1
  0
CLASS
  1
XRECORD
  2
AcDbXrecord
  3
AutoCAD 2000
 90
    32768
280
     0
281
     0
  0
CLASS
  1
LONG_TRANSACTION
  2
AcDbLongTransaction
  3
AutoCAD 2000
 90
    32768
280
     0
281
     0
  0
CLASS
  1
LWPOLYLINE
  2
AcDbPolyline
  3
AutoCAD 2000
 90
    32768
280
     0
281
     1
  0
CLASS
  1
HATCH
  2
AcDbHatch
  3
AutoCAD 2000
 90
    32768
280
     0
281
     1
  0
CLASS
  1
XRECORD
  2
AcDbXrecord
  3
AutoCAD 2000
 90
    32768
280
     0
281
     0
  0
ENDSEC
  0
SECTION
  2
TABLES
  0
TABLE
  2
VPORT
  5
1C
330
0
100
AcDbSymbolTable
 70
     3
  0
VPORT
  5
17F
330
1C
100
AcDbSymbolTableRecord
100
AcDbViewportTableRecord
  2
*Active
 70
     0
 10
0.0
 20
0.0
 11
1.0
 21
1.0
 12
89.05623122585627
 22
4.012111065448948
 13
0.0
 23
0.0
 14
5.0
 24
5.0
 15
10.0
 25
10.0
 16
0.0
 26
0.0
 36
1.0
 17
0.0
 27
0.0
 37
0.0
 40
486.4919790639889
 41
1.760948905109489
 42
50.0
 43
0.0
 44
0.0
 50
0.0
 51
0.0
 71
     0
 72
   100
 73
     1
 74
     1
 75
     0
 76
     0
 77
     0
 78
     0
281
     0
 65
     1
110
0.0
120
0.0
130
0.0
111
1.0
121
0.0
131
0.0
112
0.0
122
1.0
132
0.0
 79
     0
146
0.0
  0
ENDTAB
  0
TABLE
  2
LTYPE
  5
13
330
0
100
AcDbSymbolTable
 70
     2
  0
LTYPE
  5
14
330
13
100
AcDbSymbolTableRecord
100
AcDbLinetypeTableRecord
  2
ByBlock
 70
     0
  3

 72
    65
 73
     0
 40
0.0
  0
LTYPE
  5
17
330
13
100
AcDbSymbolTableRecord
100
AcDbLinetypeTableRecord
  2
ByLayer
 70
     0
  3

 72
    65
 73
     0
 40
0.0
  0
LTYPE
  5
8
330
13
100
AcDbSymbolTableRecord
100
AcDbLinetypeTableRecord
  2
CONTINUOUS
 70
     0
  3
Solid line
 72
    65
 73
     0
 40
0.0
  0
LTYPE
  5
2F
330
13
100
AcDbSymbolTableRecord
100
AcDbLinetypeTableRecord
  2
CENTER2
 70
     0
  3
___ _ ___ _ ___ _ ___ _ ___ _ ___ _ ___ _ ___ _
 72
    65
 73
     4
 40
28.57499999999999
 49
19.05
 74
     0
 49
-3.174999999999999
 74
     0
 49
3.174999999999999
 74
     0
 49
-3.174999999999999
 74
     0
  0
ENDTAB
  0
TABLE
  2
LAYER
  5
10
330
0
100
AcDbSymbolTable
 70
     7
  0
LAYER
  5
7
330
10
100
AcDbSymbolTableRecord
100
AcDbLayerTableRecord
  2
0
 70
     0
 62
     7
  6
CONTINUOUS
370
    -3
390
13E
  0
LAYER
  5
27
330
10
100
AcDbSymbolTableRecord
100
AcDbLayerTableRecord
  2
ANCON-DSD
 70
     0
 62
     3
  6
CONTINUOUS
370
    -3
390
13E
  0
LAYER
  5
3D
330
10
100
AcDbSymbolTableRecord
100
AcDbLayerTableRecord
  2
DEFPOINTS
 70
     0
 62
     7
  6
CONTINUOUS
290
     0
370
    -3
390
13E
  0
LAYER
  5
34
330
10
100
AcDbSymbolTableRecord
100
AcDbLayerTableRecord
  2
ANCON-DIMS
 70
     0
 62
     1
  6
CONTINUOUS
370
    -3
390
13E
  0
LAYER
  5
67
330
10
100
AcDbSymbolTableRecord
100
AcDbLayerTableRecord
  2
ANCON-CONCRETE
 70
     0
 62
     2
  6
CONTINUOUS
370
    -3
390
13E
  0
LAYER
  5
2E
330
10
100
AcDbSymbolTableRecord
100
AcDbLayerTableRecord
  2
ANCON-GRID
 70
     0
 62
     1
  6
CONTINUOUS
370
    -3
390
13E
  0
LAYER
  5
6F
330
10
100
AcDbSymbolTableRecord
100
AcDbLayerTableRecord
  2
ANCON-TEXT
 70
     0
 62
     6
  6
CONTINUOUS
370
    -3
390
13E
  0
ENDTAB
  0
TABLE
  2
STYLE
  5
11
330
0
100
AcDbSymbolTable
 70
     2
  0
STYLE
  5
12
330
11
100
AcDbSymbolTableRecord
100
AcDbTextStyleTableRecord
  2
STANDARD
 70
     0
 40
0.0
 41
1.0
 50
0.0
 71
     0
 42
6.0
  3
txt.shx
  4

  0
STYLE
  5
28
330
11
100
AcDbSymbolTableRecord
100
AcDbTextStyleTableRecord
  2
ROMANS
 70
     0
 40
0.0
 41
1.0
 50
0.0
 71
     0
 42
5.0
  3
romans
  4

  0
ENDTAB
  0
TABLE
  2
VIEW
  5
1A
330
0
100
AcDbSymbolTable
 70
     0
  0
ENDTAB
  0
TABLE
  2
UCS
  5
1B
330
0
100
AcDbSymbolTable
 70
     0
  0
ENDTAB
  0
TABLE
  2
APPID
  5
1E
330
0
100
AcDbSymbolTable
 70
     1
  0
APPID
  5
1F
330
1E
100
AcDbSymbolTableRecord
100
AcDbRegAppTableRecord
  2
ACAD
 70
     0
  0
ENDTAB
  0
TABLE
  2
DIMSTYLE
  5
20
330
0
100
AcDbSymbolTable
 70
     1
100
AcDbDimStyleTable
 71
     0
  0
DIMSTYLE
105
2A
102
{ACAD_REACTORS
330
CF
330
33
330
B5
330
46
330
FE
330
10B
330
11E
330
53
330
A2
330
95
330
C2
330
78
330
87
102
}
330
20
100
AcDbSymbolTableRecord
100
AcDbDimStyleTableRecord
  2
1-1
 70
     0
 40
0.0
 41
2.0
 42
4.5
 43
10.0
 44
1.5
 46
1.25
 73
     0
 74
     0
 77
     1
 78
    12
140
3.0
141
-3.0
143
0.039
146
0.75
147
1.5
271
     2
272
     2
279
     2
284
    12
285
    12
286
    12
340
12
  0
ENDTAB
  0
TABLE
  2
BLOCK_RECORD
  5
1
330
0
100
AcDbSymbolTable
 70
    13
  0
BLOCK_RECORD
  5
2
102
{ACAD_XDICTIONARY
360
3
102
}
330
1
100
AcDbSymbolTableRecord
100
AcDbBlockTableRecord
  2
*Model_Space
340
141
  0
BLOCK_RECORD
  5
A
102
{ACAD_XDICTIONARY
360
B
102
}
330
1
100
AcDbSymbolTableRecord
100
AcDbBlockTableRecord
  2
*Paper_Space
340
142
  0
BLOCK_RECORD
  5
35
330
1
100
AcDbSymbolTableRecord
100
AcDbBlockTableRecord
  2
*D0
340
0
  0
BLOCK_RECORD
  5
47
330
1
100
AcDbSymbolTableRecord
100
AcDbBlockTableRecord
  2
*D1
340
0
  0
BLOCK_RECORD
  5
54
330
1
100
AcDbSymbolTableRecord
100
AcDbBlockTableRecord
  2
*D2
340
0
  0
BLOCK_RECORD
  5
79
330
1
100
AcDbSymbolTableRecord
100
AcDbBlockTableRecord
  2
*D3
340
0
  0
BLOCK_RECORD
  5
88
330
1
100
AcDbSymbolTableRecord
100
AcDbBlockTableRecord
  2
*D4
340
0
  0
BLOCK_RECORD
  5
96
330
1
100
AcDbSymbolTableRecord
100
AcDbBlockTableRecord
  2
*D5
340
0
  0
BLOCK_RECORD
  5
A3
330
1
100
AcDbSymbolTableRecord
100
AcDbBlockTableRecord
  2
*D6
340
0
  0
BLOCK_RECORD
  5
B6
330
1
100
AcDbSymbolTableRecord
100
AcDbBlockTableRecord
  2
*D7
340
0
  0
BLOCK_RECORD
  5
C3
330
1
100
AcDbSymbolTableRecord
100
AcDbBlockTableRecord
  2
*D8
340
0
  0
BLOCK_RECORD
  5
D0
330
1
100
AcDbSymbolTableRecord
100
AcDbBlockTableRecord
  2
*D9
340
0
  0
BLOCK_RECORD
  5
FF
330
1
100
AcDbSymbolTableRecord
100
AcDbBlockTableRecord
  2
*D10
340
0
  0
BLOCK_RECORD
  5
10C
330
1
100
AcDbSymbolTableRecord
100
AcDbBlockTableRecord
  2
*D11
340
0
  0
BLOCK_RECORD
  5
11F
330
1
100
AcDbSymbolTableRecord
100
AcDbBlockTableRecord
  2
*D12
340
0
  0
ENDTAB
  0
ENDSEC
  0
SECTION
  2
BLOCKS
  0
BLOCK
  5
6
330
2
100
AcDbEntity
  8
0
100
AcDbBlockBegin
  2
*Model_Space
 70
     0
 10
0.0
 20
0.0
 30
0.0
  3
*Model_Space
  1

  0
ENDBLK
  5
9
330
2
100
AcDbEntity
  8
0
100
AcDbBlockEnd
  0
BLOCK
  5
E
330
A
100
AcDbEntity
 67
     1
  8
0
100
AcDbBlockBegin
  2
*Paper_Space
 70
     0
 10
0.0
 20
0.0
 30
0.0
  3
*Paper_Space
  1

  0
ENDBLK
  5
F
330
A
100
AcDbEntity
 67
     1
  8
0
100
AcDbBlockEnd
  0
BLOCK
  5
42
330
35
100
AcDbEntity
  8
0
100
AcDbBlockBegin
  2
*D0
 70
     1
 10
0.0
 20
0.0
 30
0.0
  3
*D0
  1

  0
LINE
  5
36
330
35
100
AcDbEntity
  8
0
  6
ByBlock
 62
     0
100
AcDbLine
 10
8.499999999999998
 20
100.0
 30
0.0
 11
334.681868795887
 21
99.99999999999998
 31
0.0
  0
LINE
  5
37
330
35
100
AcDbEntity
  8
0
  6
ByBlock
 62
     0
100
AcDbLine
 10
8.500000000000001
 20
-100.0
 30
0.0
 11
334.681868795887
 21
-100.0
 31
0.0
  0
LINE
  5
38
330
35
100
AcDbEntity
  8
0
  6
ByBlock
 62
     0
100
AcDbLine
 10
333.181868795887
 20
97.99999999999997
 30
0.0
 11
333.181868795887
 21
-98.00000000000004
 31
0.0
  0
SOLID
  5
39
330
35
100
AcDbEntity
  8
0
  6
ByBlock
 62
     0
100
AcDbTrace
 10
332.8485354625537
 20
97.99999999999997
 30
0.0
 11
333.5152021292203
 21
97.99999999999997
 31
0.0
 12
333.181868795887
 22
99.99999999999998
 32
0.0
 13
333.181868795887
 23
99.99999999999998
 33
0.0
  0
SOLID
  5
3A
330
35
100
AcDbEntity
  8
0
  6
ByBlock
 62
     0
100
AcDbTrace
 10
332.8485354625537
 20
-98.00000000000004
 30
0.0
 11
333.5152021292203
 21
-98.00000000000004
 31
0.0
 12
333.181868795887
 22
-100.0
 32
0.0
 13
333.181868795887
 23
-100.0
 33
0.0
  0
MTEXT
  5
3B
330
35
100
AcDbEntity
  8
0
  6
ByBlock
 62
     0
100
AcDbMText
 10
330.181868795887
 20
-0.0000000000000342
 30
0.0
 40
3.0
 41
0.0
 71
     5
 72
     1
  1
\A1;200
 11
0.0000000000000001
 21
1.0
 31
0.0
 73
     1
 44
1.0
1001
ACAD
1000
MTEXTBEGIN
1070
    73
1070
     1
1070
    44
1040
1.0
1070
    74
1070
     0
1000
MTEXTEND
  0
POINT
  5
3C
330
35
100
AcDbEntity
  8
DEFPOINTS
  6
ByBlock
 62
     0
100
AcDbPoint
 10
4.0
 20
100.0
 30
0.0
  0
POINT
  5
40
330
35
100
AcDbEntity
  8
DEFPOINTS
  6
ByBlock
 62
     0
100
AcDbPoint
 10
4.0
 20
-100.0
 30
0.0
  0
POINT
  5
41
330
35
100
AcDbEntity
  8
DEFPOINTS
  6
ByBlock
 62
     0
100
AcDbPoint
 10
333.181868795887
 20
-100.0
 30
0.0
  0
ENDBLK
  5
43
330
35
100
AcDbEntity
  8
0
100
AcDbBlockEnd
  0
BLOCK
  5
51
330
47
100
AcDbEntity
  8
0
100
AcDbBlockBegin
  2
*D1
 70
     1
 10
0.0
 20
0.0
 30
0.0
  3
*D1
  1

  0
LINE
  5
48
330
47
100
AcDbEntity
  8
0
  6
ByBlock
 62
     0
100
AcDbLine
 10
36.0
 20
-15.5
 30
0.0
 11
35.99999999999999
 21
-130.0584405018526
 31
0.0
  0
LINE
  5
49
330
47
100
AcDbEntity
  8
0
  6
ByBlock
 62
     0
100
AcDbLine
 10
94.99999999999998
 20
-15.5
 30
0.0
 11
94.99999999999998
 21
-130.0584405018526
 31
0.0
  0
LINE
  5
4A
330
47
100
AcDbEntity
  8
0
  6
ByBlock
 62
     0
100
AcDbLine
 10
37.99999999999999
 20
-128.5584405018526
 30
0.0
 11
92.99999999999997
 21
-128.5584405018526
 31
0.0
  0
SOLID
  5
4B
330
47
100
AcDbEntity
  8
0
  6
ByBlock
 62
     0
100
AcDbTrace
 10
37.99999999999999
 20
-128.2251071685193
 30
0.0
 11
37.99999999999999
 21
-128.8917738351859
 31
0.0
 12
35.99999999999999
 22
-128.5584405018526
 32
0.0
 13
35.99999999999999
 23
-128.5584405018526
 33
0.0
  0
SOLID
  5
4C
330
47
100
AcDbEntity
  8
0
  6
ByBlock
 62
     0
100
AcDbTrace
 10
92.99999999999997
 20
-128.2251071685193
 30
0.0
 11
92.99999999999997
 21
-128.8917738351859
 31
0.0
 12
94.99999999999998
 22
-128.5584405018526
 32
0.0
 13
94.99999999999998
 23
-128.5584405018526
 33
0.0
  0
MTEXT
  5
4D
330
47
100
AcDbEntity
  8
0
  6
ByBlock
 62
     0
100
AcDbMText
 10
65.49999999999998
 20
-125.5584405018526
 30
0.0
 40
3.0
 41
0.0
 71
     5
 72
     1
  1
\A1;59
 73
     1
 44
1.0
1001
ACAD
1000
MTEXTBEGIN
1070
    73
1070
     1
1070
    44
1040
1.0
1070
    74
1070
     0
1000
MTEXTEND
  0
POINT
  5
4E
330
47
100
AcDbEntity
  8
DEFPOINTS
  6
ByBlock
 62
     0
100
AcDbPoint
 10
36.0
 20
-11.0
 30
0.0
  0
POINT
  5
4F
330
47
100
AcDbEntity
  8
DEFPOINTS
  6
ByBlock
 62
     0
100
AcDbPoint
 10
94.99999999999998
 20
-11.0
 30
0.0
  0
POINT
  5
50
330
47
100
AcDbEntity
  8
DEFPOINTS
  6
ByBlock
 62
     0
100
AcDbPoint
 10
94.99999999999998
 20
-128.5584405018526
 30
0.0
  0
ENDBLK
  5
52
330
47
100
AcDbEntity
  8
0
100
AcDbBlockEnd
  0
BLOCK
  5
5E
330
54
100
AcDbEntity
  8
0
100
AcDbBlockBegin
  2
*D2
 70
     1
 10
0.0
 20
0.0
 30
0.0
  3
*D2
  1

  0
LINE
  5
55
330
54
100
AcDbEntity
  8
0
  6
ByBlock
 62
     0
100
AcDbLine
 10
-0.0000000000000003
 20
-104.4999999999999
 30
0.0
 11
-0.0000000000000028
 21
-145.7722249441947
 31
0.0
  0
LINE
  5
56
330
54
100
AcDbEntity
  8
0
  6
ByBlock
 62
     0
100
AcDbLine
 10
275.0
 20
-77.0
 30
0.0
 11
275.0
 21
-145.7722249441947
 31
0.0
  0
LINE
  5
57
330
54
100
AcDbEntity
  8
0
  6
ByBlock
 62
     0
100
AcDbLine
 10
1.999999999999997
 20
-144.2722249441947
 30
0.0
 11
273.0
 21
-144.2722249441947
 31
0.0
  0
SOLID
  5
58
330
54
100
AcDbEntity
  8
0
  6
ByBlock
 62
     0
100
AcDbTrace
 10
1.999999999999997
 20
-143.9388916108614
 30
0.0
 11
1.999999999999997
 21
-144.605558277528
 31
0.0
 12
-0.0000000000000027
 22
-144.2722249441947
 32
0.0
 13
-0.0000000000000027
 23
-144.2722249441947
 33
0.0
  0
SOLID
  5
59
330
54
100
AcDbEntity
  8
0
  6
ByBlock
 62
     0
100
AcDbTrace
 10
273.0
 20
-143.9388916108614
 30
0.0
 11
273.0
 21
-144.605558277528
 31
0.0
 12
275.0
 22
-144.2722249441947
 32
0.0
 13
275.0
 23
-144.2722249441947
 33
0.0
  0
MTEXT
  5
5A
330
54
100
AcDbEntity
  8
0
  6
ByBlock
 62
     0
100
AcDbMText
 10
137.5
 20
-141.2722249441947
 30
0.0
 40
3.0
 41
0.0
 71
     5
 72
     1
  1
\A1;275
 73
     1
 44
1.0
1001
ACAD
1000
MTEXTBEGIN
1070
    73
1070
     1
1070
    44
1040
1.0
1070
    74
1070
     0
1000
MTEXTEND
  0
POINT
  5
5B
330
54
100
AcDbEntity
  8
DEFPOINTS
  6
ByBlock
 62
     0
100
AcDbPoint
 10
0.0
 20
-100.0
 30
0.0
  0
POINT
  5
5C
330
54
100
AcDbEntity
  8
DEFPOINTS
  6
ByBlock
 62
     0
100
AcDbPoint
 10
275.0
 20
-72.5
 30
0.0
  0
POINT
  5
5D
330
54
100
AcDbEntity
  8
DEFPOINTS
  6
ByBlock
 62
     0
100
AcDbPoint
 10
275.0
 20
-144.2722249441947
 30
0.0
  0
ENDBLK
  5
5F
330
54
100
AcDbEntity
  8
0
100
AcDbBlockEnd
  0
BLOCK
  5
83
330
79
100
AcDbEntity
  8
0
100
AcDbBlockBegin
  2
*D3
 70
     1
 10
0.0
 20
0.0
 30
0.0
  3
*D3
  1

  0
LINE
  5
7A
330
79
100
AcDbEntity
  8
0
  6
ByBlock
 62
     0
100
AcDbLine
 10
-259.9999999999999
 20
-72.49999999999989
 30
0.0
 11
-259.9999999999999
 21
-145.7722249441947
 31
0.0
  0
LINE
  5
7B
330
79
100
AcDbEntity
  8
0
  6
ByBlock
 62
     0
100
AcDbLine
 10
-19.99999999999997
 20
-94.50000000000001
 30
0.0
 11
-19.99999999999998
 21
-145.7722249441947
 31
0.0
  0
LINE
  5
7C
330
79
100
AcDbEntity
  8
0
  6
ByBlock
 62
     0
100
AcDbLine
 10
-257.9999999999999
 20
-144.2722249441947
 30
0.0
 11
-21.99999999999997
 21
-144.2722249441947
 31
0.0
  0
SOLID
  5
7D
330
79
100
AcDbEntity
  8
0
  6
ByBlock
 62
     0
100
AcDbTrace
 10
-257.9999999999999
 20
-143.9388916108614
 30
0.0
 11
-257.9999999999999
 21
-144.605558277528
 31
0.0
 12
-259.9999999999999
 22
-144.2722249441947
 32
0.0
 13
-259.9999999999999
 23
-144.2722249441947
 33
0.0
  0
SOLID
  5
7E
330
79
100
AcDbEntity
  8
0
  6
ByBlock
 62
     0
100
AcDbTrace
 10
-21.99999999999997
 20
-143.9388916108614
 30
0.0
 11
-21.99999999999997
 21
-144.605558277528
 31
0.0
 12
-19.99999999999998
 22
-144.2722249441947
 32
0.0
 13
-19.99999999999998
 23
-144.2722249441947
 33
0.0
  0
MTEXT
  5
7F
330
79
100
AcDbEntity
  8
0
  6
ByBlock
 62
     0
100
AcDbMText
 10
-139.9999999999999
 20
-141.2722249441947
 30
0.0
 40
3.0
 41
0.0
 71
     5
 72
     1
  1
\A1;240
 73
     1
 44
1.0
1001
ACAD
1000
MTEXTBEGIN
1070
    73
1070
     1
1070
    44
1040
1.0
1070
    74
1070
     0
1000
MTEXTEND
  0
POINT
  5
80
330
79
100
AcDbEntity
  8
DEFPOINTS
  6
ByBlock
 62
     0
100
AcDbPoint
 10
-259.9999999999999
 20
-67.99999999999989
 30
0.0
  0
POINT
  5
81
330
79
100
AcDbEntity
  8
DEFPOINTS
  6
ByBlock
 62
     0
100
AcDbPoint
 10
-19.99999999999997
 20
-90.0
 30
0.0
  0
POINT
  5
82
330
79
100
AcDbEntity
  8
DEFPOINTS
  6
ByBlock
 62
     0
100
AcDbPoint
 10
-19.99999999999998
 20
-144.2722249441947
 30
0.0
  0
ENDBLK
  5
84
330
79
100
AcDbEntity
  8
0
100
AcDbBlockEnd
  0
BLOCK
  5
92
330
88
100
AcDbEntity
  8
0
100
AcDbBlockBegin
  2
*D4
 70
     1
 10
0.0
 20
0.0
 30
0.0
  3
*D4
  1

  0
LINE
  5
89
330
88
100
AcDbEntity
  8
0
  6
ByBlock
 62
     0
100
AcDbLine
 10
-19.99999999999997
 20
-94.50000000000001
 30
0.0
 11
-19.99999999999998
 21
-145.7722249441947
 31
0.0
  0
LINE
  5
8A
330
88
100
AcDbEntity
  8
0
  6
ByBlock
 62
     0
100
AcDbLine
 10
-0.0000000000000003
 20
-104.4999999999999
 30
0.0
 11
-0.0000000000000028
 21
-145.7722249441947
 31
0.0
  0
LINE
  5
8B
330
88
100
AcDbEntity
  8
0
  6
ByBlock
 62
     0
100
AcDbLine
 10
-17.99999999999998
 20
-144.2722249441947
 30
0.0
 11
-2.000000000000002
 21
-144.2722249441947
 31
0.0
  0
SOLID
  5
8C
330
88
100
AcDbEntity
  8
0
  6
ByBlock
 62
     0
100
AcDbTrace
 10
-17.99999999999998
 20
-143.9388916108614
 30
0.0
 11
-17.99999999999998
 21
-144.605558277528
 31
0.0
 12
-19.99999999999998
 22
-144.2722249441947
 32
0.0
 13
-19.99999999999998
 23
-144.2722249441947
 33
0.0
  0
SOLID
  5
8D
330
88
100
AcDbEntity
  8
0
  6
ByBlock
 62
     0
100
AcDbTrace
 10
-2.000000000000002
 20
-143.9388916108614
 30
0.0
 11
-2.000000000000002
 21
-144.605558277528
 31
0.0
 12
-0.0000000000000027
 22
-144.2722249441947
 32
0.0
 13
-0.0000000000000027
 23
-144.2722249441947
 33
0.0
  0
MTEXT
  5
8E
330
88
100
AcDbEntity
  8
0
  6
ByBlock
 62
     0
100
AcDbMText
 10
-9.999999999999991
 20
-141.2722249441947
 30
0.0
 40
3.0
 41
0.0
 71
     5
 72
     1
  1
\A1;20
 73
     1
 44
1.0
1001
ACAD
1000
MTEXTBEGIN
1070
    73
1070
     1
1070
    44
1040
1.0
1070
    74
1070
     0
1000
MTEXTEND
  0
POINT
  5
8F
330
88
100
AcDbEntity
  8
DEFPOINTS
  6
ByBlock
 62
     0
100
AcDbPoint
 10
-19.99999999999997
 20
-90.0
 30
0.0
  0
POINT
  5
90
330
88
100
AcDbEntity
  8
DEFPOINTS
  6
ByBlock
 62
     0
100
AcDbPoint
 10
0.0
 20
-100.0
 30
0.0
  0
POINT
  5
91
330
88
100
AcDbEntity
  8
DEFPOINTS
  6
ByBlock
 62
     0
100
AcDbPoint
 10
-0.0000000000000027
 20
-144.2722249441947
 30
0.0
  0
ENDBLK
  5
93
330
88
100
AcDbEntity
  8
0
100
AcDbBlockEnd
  0
BLOCK
  5
A0
330
96
100
AcDbEntity
  8
0
100
AcDbBlockBegin
  2
*D5
 70
     1
 10
0.0
 20
0.0
 30
0.0
  3
*D5
  1

  0
LINE
  5
97
330
96
100
AcDbEntity
  8
0
  6
ByBlock
 62
     0
100
AcDbLine
 10
-53.99999999999997
 20
-15.5
 30
0.0
 11
-53.99999999999998
 21
-130.0584405018526
 31
0.0
  0
LINE
  5
98
330
96
100
AcDbEntity
  8
0
  6
ByBlock
 62
     0
100
AcDbLine
 10
-27.99999999999997
 20
-94.50000000000001
 30
0.0
 11
-27.99999999999998
 21
-130.0584405018526
 31
0.0
  0
LINE
  5
99
330
96
100
AcDbEntity
  8
0
  6
ByBlock
 62
     0
100
AcDbLine
 10
-51.99999999999998
 20
-128.5584405018526
 30
0.0
 11
-29.99999999999998
 21
-128.5584405018526
 31
0.0
  0
SOLID
  5
9A
330
96
100
AcDbEntity
  8
0
  6
ByBlock
 62
     0
100
AcDbTrace
 10
-51.99999999999998
 20
-128.2251071685193
 30
0.0
 11
-51.99999999999998
 21
-128.8917738351859
 31
0.0
 12
-53.99999999999998
 22
-128.5584405018526
 32
0.0
 13
-53.99999999999998
 23
-128.5584405018526
 33
0.0
  0
SOLID
  5
9B
330
96
100
AcDbEntity
  8
0
  6
ByBlock
 62
     0
100
AcDbTrace
 10
-29.99999999999998
 20
-128.2251071685193
 30
0.0
 11
-29.99999999999998
 21
-128.8917738351859
 31
0.0
 12
-27.99999999999998
 22
-128.5584405018526
 32
0.0
 13
-27.99999999999998
 23
-128.5584405018526
 33
0.0
  0
MTEXT
  5
9C
330
96
100
AcDbEntity
  8
0
  6
ByBlock
 62
     0
100
AcDbMText
 10
-40.99999999999997
 20
-125.5584405018526
 30
0.0
 40
3.0
 41
0.0
 71
     5
 72
     1
  1
\A1;26
 73
     1
 44
1.0
1001
ACAD
1000
MTEXTBEGIN
1070
    73
1070
     1
1070
    44
1040
1.0
1070
    74
1070
     0
1000
MTEXTEND
  0
POINT
  5
9D
330
96
100
AcDbEntity
  8
DEFPOINTS
  6
ByBlock
 62
     0
100
AcDbPoint
 10
-53.99999999999997
 20
-11.0
 30
0.0
  0
POINT
  5
9E
330
96
100
AcDbEntity
  8
DEFPOINTS
  6
ByBlock
 62
     0
100
AcDbPoint
 10
-27.99999999999997
 20
-90.0
 30
0.0
  0
POINT
  5
9F
330
96
100
AcDbEntity
  8
DEFPOINTS
  6
ByBlock
 62
     0
100
AcDbPoint
 10
-27.99999999999998
 20
-128.5584405018526
 30
0.0
  0
ENDBLK
  5
A1
330
96
100
AcDbEntity
  8
0
100
AcDbBlockEnd
  0
BLOCK
  5
AD
330
A3
100
AcDbEntity
  8
0
100
AcDbBlockBegin
  2
*D6
 70
     1
 10
0.0
 20
0.0
 30
0.0
  3
*D6
  1

  0
LINE
  5
A4
330
A3
100
AcDbEntity
  8
0
  6
ByBlock
 62
     0
100
AcDbLine
 10
-113.9999999999999
 20
-15.5
 30
0.0
 11
-113.9999999999999
 21
-130.0584405018526
 31
0.0
  0
LINE
  5
A5
330
A3
100
AcDbEntity
  8
0
  6
ByBlock
 62
     0
100
AcDbLine
 10
-53.99999999999997
 20
-15.5
 30
0.0
 11
-53.99999999999998
 21
-130.0584405018526
 31
0.0
  0
LINE
  5
A6
330
A3
100
AcDbEntity
  8
0
  6
ByBlock
 62
     0
100
AcDbLine
 10
-111.9999999999999
 20
-128.5584405018526
 30
0.0
 11
-55.99999999999997
 21
-128.5584405018526
 31
0.0
  0
SOLID
  5
A7
330
A3
100
AcDbEntity
  8
0
  6
ByBlock
 62
     0
100
AcDbTrace
 10
-111.9999999999999
 20
-128.2251071685193
 30
0.0
 11
-111.9999999999999
 21
-128.8917738351859
 31
0.0
 12
-113.9999999999999
 22
-128.5584405018526
 32
0.0
 13
-113.9999999999999
 23
-128.5584405018526
 33
0.0
  0
SOLID
  5
A8
330
A3
100
AcDbEntity
  8
0
  6
ByBlock
 62
     0
100
AcDbTrace
 10
-55.99999999999997
 20
-128.2251071685193
 30
0.0
 11
-55.99999999999997
 21
-128.8917738351859
 31
0.0
 12
-53.99999999999998
 22
-128.5584405018526
 32
0.0
 13
-53.99999999999998
 23
-128.5584405018526
 33
0.0
  0
MTEXT
  5
A9
330
A3
100
AcDbEntity
  8
0
  6
ByBlock
 62
     0
100
AcDbMText
 10
-83.99999999999998
 20
-125.5584405018526
 30
0.0
 40
3.0
 41
0.0
 71
     5
 72
     1
  1
\A1;60
 73
     1
 44
1.0
1001
ACAD
1000
MTEXTBEGIN
1070
    73
1070
     1
1070
    44
1040
1.0
1070
    74
1070
     0
1000
MTEXTEND
  0
POINT
  5
AA
330
A3
100
AcDbEntity
  8
DEFPOINTS
  6
ByBlock
 62
     0
100
AcDbPoint
 10
-113.9999999999999
 20
-11.0
 30
0.0
  0
POINT
  5
AB
330
A3
100
AcDbEntity
  8
DEFPOINTS
  6
ByBlock
 62
     0
100
AcDbPoint
 10
-53.99999999999997
 20
-11.0
 30
0.0
  0
POINT
  5
AC
330
A3
100
AcDbEntity
  8
DEFPOINTS
  6
ByBlock
 62
     0
100
AcDbPoint
 10
-53.99999999999998
 20
-128.5584405018526
 30
0.0
  0
ENDBLK
  5
AE
330
A3
100
AcDbEntity
  8
0
100
AcDbBlockEnd
  0
BLOCK
  5
C0
330
B6
100
AcDbEntity
  8
0
100
AcDbBlockBegin
  2
*D7
 70
     1
 10
0.0
 20
0.0
 30
0.0
  3
*D7
  1

  0
LINE
  5
B7
330
B6
100
AcDbEntity
  8
0
  6
ByBlock
 62
     0
100
AcDbLine
 10
3.999999999999999
 20
-104.4999999999999
 30
0.0
 11
3.999999999999998
 21
-130.0584405018526
 31
0.0
  0
LINE
  5
B8
330
B6
100
AcDbEntity
  8
0
  6
ByBlock
 62
     0
100
AcDbLine
 10
36.0
 20
-15.5
 30
0.0
 11
35.99999999999999
 21
-130.0584405018526
 31
0.0
  0
LINE
  5
B9
330
B6
100
AcDbEntity
  8
0
  6
ByBlock
 62
     0
100
AcDbLine
 10
5.999999999999998
 20
-128.5584405018526
 30
0.0
 11
33.99999999999999
 21
-128.5584405018526
 31
0.0
  0
SOLID
  5
BA
330
B6
100
AcDbEntity
  8
0
  6
ByBlock
 62
     0
100
AcDbTrace
 10
5.999999999999998
 20
-128.2251071685193
 30
0.0
 11
5.999999999999998
 21
-128.8917738351859
 31
0.0
 12
3.999999999999998
 22
-128.5584405018526
 32
0.0
 13
3.999999999999998
 23
-128.5584405018526
 33
0.0
  0
SOLID
  5
BB
330
B6
100
AcDbEntity
  8
0
  6
ByBlock
 62
     0
100
AcDbTrace
 10
33.99999999999999
 20
-128.2251071685193
 30
0.0
 11
33.99999999999999
 21
-128.8917738351859
 31
0.0
 12
35.99999999999999
 22
-128.5584405018526
 32
0.0
 13
35.99999999999999
 23
-128.5584405018526
 33
0.0
  0
MTEXT
  5
BC
330
B6
100
AcDbEntity
  8
0
  6
ByBlock
 62
     0
100
AcDbMText
 10
19.99999999999999
 20
-125.5584405018526
 30
0.0
 40
3.0
 41
0.0
 71
     5
 72
     1
  1
\A1;32
 73
     1
 44
1.0
1001
ACAD
1000
MTEXTBEGIN
1070
    73
1070
     1
1070
    44
1040
1.0
1070
    74
1070
     0
1000
MTEXTEND
  0
POINT
  5
BD
330
B6
100
AcDbEntity
  8
DEFPOINTS
  6
ByBlock
 62
     0
100
AcDbPoint
 10
4.0
 20
-100.0
 30
0.0
  0
POINT
  5
BE
330
B6
100
AcDbEntity
  8
DEFPOINTS
  6
ByBlock
 62
     0
100
AcDbPoint
 10
36.0
 20
-11.0
 30
0.0
  0
POINT
  5
BF
330
B6
100
AcDbEntity
  8
DEFPOINTS
  6
ByBlock
 62
     0
100
AcDbPoint
 10
35.99999999999999
 20
-128.5584405018526
 30
0.0
  0
ENDBLK
  5
C1
330
B6
100
AcDbEntity
  8
0
100
AcDbBlockEnd
  0
BLOCK
  5
CD
330
C3
100
AcDbEntity
  8
0
100
AcDbBlockBegin
  2
*D8
 70
     1
 10
0.0
 20
0.0
 30
0.0
  3
*D8
  1

  0
LINE
  5
C4
330
C3
100
AcDbEntity
  8
0
  6
ByBlock
 62
     0
100
AcDbLine
 10
-27.99999999999997
 20
-94.50000000000001
 30
0.0
 11
-27.99999999999998
 21
-130.0584405018526
 31
0.0
  0
LINE
  5
C5
330
C3
100
AcDbEntity
  8
0
  6
ByBlock
 62
     0
100
AcDbLine
 10
-19.99999999999997
 20
-94.50000000000001
 30
0.0
 11
-19.99999999999998
 21
-130.0584405018526
 31
0.0
  0
LINE
  5
C6
330
C3
100
AcDbEntity
  8
0
  6
ByBlock
 62
     0
100
AcDbLine
 10
-25.99999999999997
 20
-128.5584405018526
 30
0.0
 11
-21.99999999999997
 21
-128.5584405018526
 31
0.0
  0
MTEXT
  5
C7
330
C3
100
AcDbEntity
  8
0
  6
ByBlock
 62
     0
100
AcDbMText
 10
-23.78474813832765
 20
-125.5584405018526
 30
0.0
 40
3.0
 41
0.0
 71
     5
 72
     1
  1
\A1;8
 73
     1
 44
1.0
1001
ACAD
1000
MTEXTBEGIN
1070
    73
1070
     1
1070
    44
1040
1.0
1070
    74
1070
     0
1000
MTEXTEND
  0
SOLID
  5
C8
330
C3
100
AcDbEntity
  8
0
  6
ByBlock
 62
     0
100
AcDbTrace
 10
-25.99999999999997
 20
-128.2251071685193
 30
0.0
 11
-25.99999999999997
 21
-128.8917738351859
 31
0.0
 12
-27.99999999999998
 22
-128.5584405018526
 32
0.0
 13
-27.99999999999998
 23
-128.5584405018526
 33
0.0
  0
SOLID
  5
C9
330
C3
100
AcDbEntity
  8
0
  6
ByBlock
 62
     0
100
AcDbTrace
 10
-21.99999999999997
 20
-128.2251071685193
 30
0.0
 11
-21.99999999999997
 21
-128.8917738351859
 31
0.0
 12
-19.99999999999998
 22
-128.5584405018526
 32
0.0
 13
-19.99999999999998
 23
-128.5584405018526
 33
0.0
  0
POINT
  5
CA
330
C3
100
AcDbEntity
  8
DEFPOINTS
  6
ByBlock
 62
     0
100
AcDbPoint
 10
-27.99999999999997
 20
-90.0
 30
0.0
  0
POINT
  5
CB
330
C3
100
AcDbEntity
  8
DEFPOINTS
  6
ByBlock
 62
     0
100
AcDbPoint
 10
-19.99999999999997
 20
-90.0
 30
0.0
  0
POINT
  5
CC
330
C3
100
AcDbEntity
  8
DEFPOINTS
  6
ByBlock
 62
     0
100
AcDbPoint
 10
-19.99999999999998
 20
-128.5584405018526
 30
0.0
  0
ENDBLK
  5
CE
330
C3
100
AcDbEntity
  8
0
100
AcDbBlockEnd
  0
BLOCK
  5
DC
330
D0
100
AcDbEntity
  8
0
100
AcDbBlockBegin
  2
*D9
 70
     1
 10
0.0
 20
0.0
 30
0.0
  3
*D9
  1

  0
LINE
  5
D1
330
D0
100
AcDbEntity
  8
0
  6
ByBlock
 62
     0
100
AcDbLine
 10
3.999999999999999
 20
-104.4999999999999
 30
0.0
 11
3.999999999999998
 21
-130.0584405018526
 31
0.0
  0
LINE
  5
D2
330
D0
100
AcDbEntity
  8
0
  6
ByBlock
 62
     0
100
AcDbLine
 10
-0.0000000000000003
 20
-104.4999999999999
 30
0.0
 11
-0.0000000000000018
 21
-130.0584405018526
 31
0.0
  0
LINE
  5
D3
330
D0
100
AcDbEntity
  8
0
  6
ByBlock
 62
     0
100
AcDbLine
 10
5.999999999999998
 20
-128.5584405018526
 30
0.0
 11
7.999999999999998
 21
-128.5584405018526
 31
0.0
  0
LINE
  5
D4
330
D0
100
AcDbEntity
  8
0
  6
ByBlock
 62
     0
100
AcDbLine
 10
-2.000000000000001
 20
-128.5584405018526
 30
0.0
 11
-4.000000000000001
 21
-128.5584405018526
 31
0.0
  0
MTEXT
  5
D5
330
D0
100
AcDbEntity
  8
0
  6
ByBlock
 62
     0
100
AcDbMText
 10
-3.22051352055076
 20
-125.5584405018526
 30
0.0
 40
3.0
 41
0.0
 71
     5
 72
     1
  1
\A1;4
 73
     1
 44
1.0
1001
ACAD
1000
MTEXTBEGIN
1070
    73
1070
     1
1070
    44
1040
1.0
1070
    74
1070
     0
1000
MTEXTEND
  0
LINE
  5
D6
330
D0
100
AcDbEntity
  8
0
  6
ByBlock
 62
     0
100
AcDbLine
 10
3.999999999999998
 20
-128.5584405018526
 30
0.0
 11
-0.0000000000000017
 21
-128.5584405018526
 31
0.0
  0
SOLID
  5
D7
330
D0
100
AcDbEntity
  8
0
  6
ByBlock
 62
     0
100
AcDbTrace
 10
5.999999999999998
 20
-128.2251071685193
 30
0.0
 11
5.999999999999998
 21
-128.8917738351859
 31
0.0
 12
3.999999999999998
 22
-128.5584405018526
 32
0.0
 13
3.999999999999998
 23
-128.5584405018526
 33
0.0
  0
SOLID
  5
D8
330
D0
100
AcDbEntity
  8
0
  6
ByBlock
 62
     0
100
AcDbTrace
 10
-2.000000000000001
 20
-128.2251071685193
 30
0.0
 11
-2.000000000000001
 21
-128.8917738351859
 31
0.0
 12
-0.0000000000000017
 22
-128.5584405018526
 32
0.0
 13
-0.0000000000000017
 23
-128.5584405018526
 33
0.0
  0
POINT
  5
D9
330
D0
100
AcDbEntity
  8
DEFPOINTS
  6
ByBlock
 62
     0
100
AcDbPoint
 10
4.0
 20
-100.0
 30
0.0
  0
POINT
  5
DA
330
D0
100
AcDbEntity
  8
DEFPOINTS
  6
ByBlock
 62
     0
100
AcDbPoint
 10
0.0
 20
-100.0
 30
0.0
  0
POINT
  5
DB
330
D0
100
AcDbEntity
  8
DEFPOINTS
  6
ByBlock
 62
     0
100
AcDbPoint
 10
-0.0000000000000017
 20
-128.5584405018526
 30
0.0
  0
ENDBLK
  5
DD
330
D0
100
AcDbEntity
  8
0
100
AcDbBlockEnd
  0
BLOCK
  5
109
330
FF
100
AcDbEntity
  8
0
100
AcDbBlockBegin
  2
*D10
 70
     1
 10
0.0
 20
0.0
 30
0.0
  3
*D10
  1

  0
LINE
  5
100
330
FF
100
AcDbEntity
  8
0
  6
ByBlock
 62
     0
100
AcDbLine
 10
289.4999999999999
 20
-52.5
 30
0.0
 11
318.2183048485528
 21
-52.5
 31
0.0
  0
LINE
  5
101
330
FF
100
AcDbEntity
  8
0
  6
ByBlock
 62
     0
100
AcDbLine
 10
289.4999999999999
 20
52.5
 30
0.0
 11
318.2183048485528
 21
52.5
 31
0.0
  0
LINE
  5
102
330
FF
100
AcDbEntity
  8
0
  6
ByBlock
 62
     0
100
AcDbLine
 10
316.7183048485528
 20
-50.5
 30
0.0
 11
316.7183048485528
 21
50.5
 31
0.0
  0
SOLID
  5
103
330
FF
100
AcDbEntity
  8
0
  6
ByBlock
 62
     0
100
AcDbTrace
 10
316.3849715152195
 20
-50.5
 30
0.0
 11
317.0516381818861
 21
-50.5
 31
0.0
 12
316.7183048485528
 22
-52.5
 32
0.0
 13
316.7183048485528
 23
-52.5
 33
0.0
  0
SOLID
  5
104
330
FF
100
AcDbEntity
  8
0
  6
ByBlock
 62
     0
100
AcDbTrace
 10
316.3849715152195
 20
50.5
 30
0.0
 11
317.0516381818861
 21
50.5
 31
0.0
 12
316.7183048485528
 22
52.5
 32
0.0
 13
316.7183048485528
 23
52.5
 33
0.0
  0
MTEXT
  5
105
330
FF
100
AcDbEntity
  8
0
  6
ByBlock
 62
     0
100
AcDbMText
 10
313.7183048485528
 20
0.0000000000000023
 30
0.0
 40
3.0
 41
0.0
 71
     5
 72
     1
  1
\A1;105
 11
0.0000000000000001
 21
1.0
 31
0.0
 73
     1
 44
1.0
1001
ACAD
1000
MTEXTBEGIN
1070
    73
1070
     1
1070
    44
1040
1.0
1070
    74
1070
     0
1000
MTEXTEND
  0
POINT
  5
106
330
FF
100
AcDbEntity
  8
DEFPOINTS
  6
ByBlock
 62
     0
100
AcDbPoint
 10
285.0
 20
-52.5
 30
0.0
  0
POINT
  5
107
330
FF
100
AcDbEntity
  8
DEFPOINTS
  6
ByBlock
 62
     0
100
AcDbPoint
 10
285.0
 20
52.5
 30
0.0
  0
POINT
  5
108
330
FF
100
AcDbEntity
  8
DEFPOINTS
  6
ByBlock
 62
     0
100
AcDbPoint
 10
316.7183048485528
 20
52.5
 30
0.0
  0
ENDBLK
  5
10A
330
FF
100
AcDbEntity
  8
0
100
AcDbBlockEnd
  0
BLOCK
  5
116
330
10C
100
AcDbEntity
  8
0
100
AcDbBlockBegin
  2
*D11
 70
     1
 10
0.0
 20
0.0
 30
0.0
  3
*D11
  1

  0
LINE
  5
10D
330
10C
100
AcDbEntity
  8
0
  6
ByBlock
 62
     0
100
AcDbLine
 10
289.4999999999999
 20
-52.5
 30
0.0
 11
301.0598307359794
 21
-52.5
 31
0.0
  0
LINE
  5
10E
330
10C
100
AcDbEntity
  8
0
  6
ByBlock
 62
     0
100
AcDbLine
 10
284.5
 20
-32.49999999999999
 30
0.0
 11
301.0598307359794
 21
-32.5
 31
0.0
  0
LINE
  5
10F
330
10C
100
AcDbEntity
  8
0
  6
ByBlock
 62
     0
100
AcDbLine
 10
299.5598307359794
 20
-50.5
 30
0.0
 11
299.5598307359794
 21
-34.5
 31
0.0
  0
SOLID
  5
110
330
10C
100
AcDbEntity
  8
0
  6
ByBlock
 62
     0
100
AcDbTrace
 10
299.2264974026461
 20
-50.5
 30
0.0
 11
299.8931640693127
 21
-50.5
 31
0.0
 12
299.5598307359794
 22
-52.5
 32
0.0
 13
299.5598307359794
 23
-52.5
 33
0.0
  0
SOLID
  5
111
330
10C
100
AcDbEntity
  8
0
  6
ByBlock
 62
     0
100
AcDbTrace
 10
299.2264974026461
 20
-34.5
 30
0.0
 11
299.8931640693127
 21
-34.5
 31
0.0
 12
299.5598307359794
 22
-32.5
 32
0.0
 13
299.5598307359794
 23
-32.5
 33
0.0
  0
MTEXT
  5
112
330
10C
100
AcDbEntity
  8
0
  6
ByBlock
 62
     0
100
AcDbMText
 10
296.5598307359794
 20
-42.5
 30
0.0
 40
3.0
 41
0.0
 71
     5
 72
     1
  1
\A1;20
 11
0.0000000000000001
 21
1.0
 31
0.0
 73
     1
 44
1.0
1001
ACAD
1000
MTEXTBEGIN
1070
    73
1070
     1
1070
    44
1040
1.0
1070
    74
1070
     0
1000
MTEXTEND
  0
POINT
  5
113
330
10C
100
AcDbEntity
  8
DEFPOINTS
  6
ByBlock
 62
     0
100
AcDbPoint
 10
285.0
 20
-52.5
 30
0.0
  0
POINT
  5
114
330
10C
100
AcDbEntity
  8
DEFPOINTS
  6
ByBlock
 62
     0
100
AcDbPoint
 10
280.0
 20
-32.49999999999999
 30
0.0
  0
POINT
  5
115
330
10C
100
AcDbEntity
  8
DEFPOINTS
  6
ByBlock
 62
     0
100
AcDbPoint
 10
299.5598307359794
 20
-32.5
 30
0.0
  0
ENDBLK
  5
117
330
10C
100
AcDbEntity
  8
0
100
AcDbBlockEnd
  0
BLOCK
  5
129
330
11F
100
AcDbEntity
  8
0
100
AcDbBlockBegin
  2
*D12
 70
     1
 10
0.0
 20
0.0
 30
0.0
  3
*D12
  1

  0
LINE
  5
120
330
11F
100
AcDbEntity
  8
0
  6
ByBlock
 62
     0
100
AcDbLine
 10
289.4999999999999
 20
52.5
 30
0.0
 11
301.0598322010209
 21
52.5
 31
0.0
  0
LINE
  5
121
330
11F
100
AcDbEntity
  8
0
  6
ByBlock
 62
     0
100
AcDbLine
 10
284.5
 20
32.5
 30
0.0
 11
301.0598322010209
 21
32.49999999999999
 31
0.0
  0
LINE
  5
122
330
11F
100
AcDbEntity
  8
0
  6
ByBlock
 62
     0
100
AcDbLine
 10
299.5598322010209
 20
50.5
 30
0.0
 11
299.5598322010209
 21
34.49999999999999
 31
0.0
  0
SOLID
  5
123
330
11F
100
AcDbEntity
  8
0
  6
ByBlock
 62
     0
100
AcDbTrace
 10
299.2264988676875
 20
50.5
 30
0.0
 11
299.8931655343542
 21
50.5
 31
0.0
 12
299.5598322010209
 22
52.5
 32
0.0
 13
299.5598322010209
 23
52.5
 33
0.0
  0
SOLID
  5
124
330
11F
100
AcDbEntity
  8
0
  6
ByBlock
 62
     0
100
AcDbTrace
 10
299.2264988676875
 20
34.49999999999999
 30
0.0
 11
299.8931655343542
 21
34.49999999999999
 31
0.0
 12
299.5598322010209
 22
32.49999999999999
 32
0.0
 13
299.5598322010209
 23
32.49999999999999
 33
0.0
  0
MTEXT
  5
125
330
11F
100
AcDbEntity
  8
0
  6
ByBlock
 62
     0
100
AcDbMText
 10
296.5598322010209
 20
42.49999999999999
 30
0.0
 40
3.0
 41
0.0
 71
     5
 72
     1
  1
\A1;20
 11
0.0000000000000001
 21
1.0
 31
0.0
 73
     1
 44
1.0
1001
ACAD
1000
MTEXTBEGIN
1070
    73
1070
     1
1070
    44
1040
1.0
1070
    74
1070
     0
1000
MTEXTEND
  0
POINT
  5
126
330
11F
100
AcDbEntity
  8
DEFPOINTS
  6
ByBlock
 62
     0
100
AcDbPoint
 10
285.0
 20
52.5
 30
0.0
  0
POINT
  5
127
330
11F
100
AcDbEntity
  8
DEFPOINTS
  6
ByBlock
 62
     0
100
AcDbPoint
 10
280.0
 20
32.5
 30
0.0
  0
POINT
  5
128
330
11F
100
AcDbEntity
  8
DEFPOINTS
  6
ByBlock
 62
     0
100
AcDbPoint
 10
299.5598322010209
 20
32.49999999999999
 30
0.0
  0
ENDBLK
  5
12A
330
11F
100
AcDbEntity
  8
0
100
AcDbBlockEnd
  0
ENDSEC
  0
SECTION
  2
ENTITIES
  0
LINE
  5
2D
330
2
100
AcDbEntity
  8
ANCON-GRID
  6
CENTER2
100
AcDbLine
 10
285.0
 20
-52.5
 30
0.0
 11
0.0000000000000068
 21
-52.5
 31
0.0
  0
LINE
  5
30
330
2
100
AcDbEntity
  8
ANCON-GRID
  6
CENTER2
100
AcDbLine
 10
285.0
 20
52.5
 30
0.0
 11
0.0000000000000068
 21
52.5
 31
0.0
  0
LINE
  5
31
330
2
100
AcDbEntity
  8
ANCON-DSD
100
AcDbLine
 10
280.0
 20
-32.49999999999999
 30
0.0
 11
3.999999999999996
 21
-32.49999999999999
 31
0.0
  0
LINE
  5
32
330
2
100
AcDbEntity
  8
ANCON-DSD
100
AcDbLine
 10
280.0
 20
-72.5
 30
0.0
 11
3.999999999999996
 21
-72.5
 31
0.0
  0
DIMENSION
  5
33
330
2
100
AcDbEntity
  8
ANCON-DIMS
100
AcDbDimension
  2
*D0
 10
333.181868795887
 20
-100.0
 30
0.0
 11
330.181868795887
 21
-0.0000000000000342
 31
0.0
 71
     5
 42
-1.0
  3
1-1
100
AcDbAlignedDimension
 13
4.0
 23
100.0
 33
0.0
 14
4.0
 24
-100.0
 34
0.0
 50
90.0
100
AcDbRotatedDimension
  0
LINE
  5
44
330
2
100
AcDbEntity
  8
ANCON-DSD
100
AcDbLine
 10
280.0
 20
72.5
 30
0.0
 11
3.999999999999996
 21
72.5
 31
0.0
  0
LINE
  5
45
330
2
100
AcDbEntity
  8
ANCON-DSD
100
AcDbLine
 10
280.0
 20
32.5
 30
0.0
 11
3.999999999999996
 21
32.5
 31
0.0
  0
DIMENSION
  5
46
330
2
100
AcDbEntity
  8
ANCON-DIMS
100
AcDbDimension
  2
*D1
 10
94.99999999999998
 20
-128.5584405018526
 30
0.0
 11
65.49999999999998
 21
-125.5584405018526
 31
0.0
 71
     5
 42
-1.0
  3
1-1
100
AcDbAlignedDimension
 13
36.0
 23
-11.0
 33
0.0
 14
94.99999999999998
 24
-11.0
 34
0.0
100
AcDbRotatedDimension
  0
DIMENSION
  5
53
330
2
100
AcDbEntity
  8
ANCON-DIMS
100
AcDbDimension
  2
*D2
 10
275.0
 20
-144.2722249441947
 30
0.0
 11
137.5
 21
-141.2722249441947
 31
0.0
 71
     5
 42
-1.0
  3
1-1
100
AcDbAlignedDimension
 13
0.0
 23
-100.0
 33
0.0
 14
275.0
 24
-72.5
 34
0.0
100
AcDbRotatedDimension
  0
TEXT
  5
60
330
2
100
AcDbEntity
  8
ANCON-DIMS
  6
Continuous
100
AcDbText
 10
4.783291204851934
 20
190.7730476827419
 30
0.0
 40
5.0
  1
SPECIFICATION BY PRODUCT
  7
ROMANS
 72
     4
 11
58.23567215723286
 21
193.2730476827419
 31
0.0
100
AcDbText
  0
TEXT
  5
61
330
2
100
AcDbEntity
  8
ANCON-DIMS
  6
Continuous
100
AcDbText
 10
4.926927814478219
 20
160.8385932182458
 30
0.0
 40
5.0
  1
SPECIFICATION BY DESCRIPTION
  7
ROMANS
 72
     4
 11
64.56978495733536
 21
163.3385932182458
 31
0.0
100
AcDbText
  0
LINE
  5
62
330
2
100
AcDbEntity
  8
ANCON-DSD
  6
Continuous
100
AcDbLine
 10
-0.0000000000000003
 20
34.99999999999988
 30
0.0
 11
210.0
 21
34.99999999999988
 31
0.0
  0
LINE
  5
63
330
2
100
AcDbEntity
  8
ANCON-DSD
  6
Continuous
100
AcDbLine
 10
0.0
 20
69.99078562693227
 30
0.0
 11
210.0
 21
69.99078562693227
 31
0.0
  0
LINE
  5
64
330
2
100
AcDbEntity
  8
ANCON-DSD
  6
Continuous
100
AcDbLine
 10
0.7522764312798445
 20
-69.99999999999989
 30
0.0
 11
210.0
 21
-69.99999999999989
 31
0.0
  0
LINE
  5
65
330
2
100
AcDbEntity
  8
ANCON-DSD
  6
Continuous
100
AcDbLine
 10
-0.0000000000000001
 20
-35.00000000000011
 30
0.0
 11
210.0
 21
-35.00000000000011
 31
0.0
  0
LINE
  5
66
330
2
100
AcDbEntity
  8
ANCON-CONCRETE
100
AcDbLine
 10
0.0000000000000568
 20
-175.5940902136362
 30
0.0
 11
0.0
 21
144.8780445225097
 31
0.0
  0
LINE
  5
68
330
2
100
AcDbEntity
  8
ANCON-CONCRETE
100
AcDbLine
 10
-19.99999999999994
 20
-175.6031504942892
 30
0.0
 11
-20.0
 21
144.8689842418568
 31
0.0
  0
LINE
  5
69
330
2
100
AcDbEntity
  8
ANCON-DSD
100
AcDbLine
 10
0.0
 20
100.0
 30
0.0
 11
0.0
 21
-100.0
 31
0.0
  0
LINE
  5
6A
330
2
100
AcDbEntity
  8
ANCON-DSD
100
AcDbLine
 10
4.0
 20
100.0
 30
0.0
 11
4.0
 21
-100.0
 31
0.0
  0
LINE
  5
6B
330
2
100
AcDbEntity
  8
ANCON-DSD
  6
Continuous
100
AcDbLine
 10
-27.99999999999997
 20
90.0
 30
0.0
 11
-27.99999999999997
 21
-90.0
 31
0.0
  0
LINE
  5
6C
330
2
100
AcDbEntity
  8
ANCON-DSD
  6
Continuous
100
AcDbLine
 10
-19.99999999999997
 20
90.0
 30
0.0
 11
-19.99999999999997
 21
-90.0
 31
0.0
  0
LINE
  5
6D
330
2
100
AcDbEntity
  8
ANCON-DSD
  6
Continuous
100
AcDbLine
 10
-137.9999999999999
 20
34.99999999999983
 30
0.0
 11
-137.9999999999999
 21
-35.00000000000011
 31
0.0
  0
LINE
  5
75
330
2
100
AcDbEntity
  8
ANCON-GRID
  6
CENTER2
100
AcDbLine
 10
0.0
 20
-52.49999999999988
 30
0.0
 11
-269.9999999999998
 21
-52.49999999999989
 31
0.0
  0
LINE
  5
76
330
2
100
AcDbEntity
  8
ANCON-DSD
  6
Continuous
100
AcDbLine
 10
-259.9999999999999
 20
-69.99999999999989
 30
0.0
 11
-27.99999999999997
 21
-69.99999999999989
 31
0.0
  0
LINE
  5
77
330
2
100
AcDbEntity
  8
ANCON-DSD
  6
Continuous
100
AcDbLine
 10
-259.9999999999999
 20
-35.00000000000011
 30
0.0
 11
-27.99999999999997
 21
-35.00000000000011
 31
0.0
  0
DIMENSION
  5
78
330
2
100
AcDbEntity
  8
ANCON-DIMS
100
AcDbDimension
  2
*D3
 10
-19.99999999999998
 20
-144.2722249441947
 30
0.0
 11
-139.9999999999999
 21
-141.2722249441947
 31
0.0
 71
     5
 42
-1.0
  3
1-1
100
AcDbAlignedDimension
 13
-259.9999999999999
 23
-67.99999999999989
 33
0.0
 14
-19.99999999999997
 24
-90.0
 34
0.0
100
AcDbRotatedDimension
  0
LINE
  5
86
330
2
100
AcDbEntity
  8
ANCON-DSD
  6
Continuous
100
AcDbLine
 10
-259.9999999999999
 20
-35.00000000000011
 30
0.0
 11
-259.9999999999999
 21
-69.99999999999989
 31
0.0
  0
DIMENSION
  5
87
330
2
100
AcDbEntity
  8
ANCON-DIMS
100
AcDbDimension
  2
*D4
 10
-0.0000000000000027
 20
-144.2722249441947
 30
0.0
 11
-9.999999999999991
 21
-141.2722249441947
 31
0.0
 71
     5
 42
-1.0
  3
1-1
100
AcDbAlignedDimension
 13
-19.99999999999997
 23
-90.0
 33
0.0
 14
0.0
 24
-100.0
 34
0.0
100
AcDbRotatedDimension
  0
DIMENSION
  5
95
330
2
100
AcDbEntity
  8
ANCON-DIMS
100
AcDbDimension
  2
*D5
 10
-27.99999999999998
 20
-128.5584405018526
 30
0.0
 11
-40.99999999999997
 21
-125.5584405018526
 31
0.0
 71
     5
 42
-1.0
  3
1-1
100
AcDbAlignedDimension
 13
-53.99999999999997
 23
-11.0
 33
0.0
 14
-27.99999999999997
 24
-90.0
 34
0.0
100
AcDbRotatedDimension
  0
DIMENSION
  5
A2
330
2
100
AcDbEntity
  8
ANCON-DIMS
100
AcDbDimension
  2
*D6
 10
-53.99999999999998
 20
-128.5584405018526
 30
0.0
 11
-83.99999999999998
 21
-125.5584405018526
 31
0.0
 71
     5
 42
-1.0
  3
1-1
100
AcDbAlignedDimension
 13
-113.9999999999999
 23
-11.0
 33
0.0
 14
-53.99999999999997
 24
-11.0
 34
0.0
100
AcDbRotatedDimension
  0
LINE
  5
AF
330
2
100
AcDbEntity
  8
ANCON-GRID
  6
CENTER2
100
AcDbLine
 10
-113.9999999999999
 20
11.0
 30
0.0
 11
-113.9999999999999
 21
-11.0
 31
0.0
  0
CIRCLE
  5
B0
330
2
100
AcDbEntity
  8
ANCON-DSD
  6
Continuous
100
AcDbCircle
 10
-113.9999999999999
 20
0.0
 30
0.0
 40
8.0
  0
LINE
  5
B1
330
2
100
AcDbEntity
  8
ANCON-GRID
  6
CENTER2
100
AcDbLine
 10
-124.9999999999999
 20
0.0
 30
0.0
 11
-102.9999999999999
 21
0.0
 31
0.0
  0
LINE
  5
B2
330
2
100
AcDbEntity
  8
ANCON-GRID
  6
CENTER2
100
AcDbLine
 10
-53.99999999999997
 20
11.0
 30
0.0
 11
-53.99999999999997
 21
-11.0
 31
0.0
  0
CIRCLE
  5
B3
330
2
100
AcDbEntity
  8
ANCON-DSD
  6
Continuous
100
AcDbCircle
 10
-53.99999999999997
 20
0.0
 30
0.0
 40
8.0
  0
LINE
  5
B4
330
2
100
AcDbEntity
  8
ANCON-GRID
  6
CENTER2
100
AcDbLine
 10
-64.99999999999997
 20
0.0
 30
0.0
 11
-42.99999999999997
 21
0.0
 31
0.0
  0
DIMENSION
  5
B5
330
2
100
AcDbEntity
  8
ANCON-DIMS
100
AcDbDimension
  2
*D7
 10
35.99999999999999
 20
-128.5584405018526
 30
0.0
 11
19.99999999999999
 21
-125.5584405018526
 31
0.0
 71
     5
 42
-1.0
  3
1-1
100
AcDbAlignedDimension
 13
4.0
 23
-100.0
 33
0.0
 14
36.0
 24
-11.0
 34
0.0
100
AcDbRotatedDimension
  0
DIMENSION
  5
C2
330
2
100
AcDbEntity
  8
ANCON-DIMS
100
AcDbDimension
  2
*D8
 10
-19.99999999999998
 20
-128.5584405018526
 30
0.0
 11
-23.78474813832765
 21
-125.5584405018526
 31
0.0
 70
   128
 71
     5
 42
-1.0
  3
1-1
100
AcDbAlignedDimension
 13
-27.99999999999997
 23
-90.0
 33
0.0
 14
-19.99999999999997
 24
-90.0
 34
0.0
100
AcDbRotatedDimension
  0
DIMENSION
  5
CF
330
2
100
AcDbEntity
  8
ANCON-DIMS
100
AcDbDimension
  2
*D9
 10
-0.0000000000000017
 20
-128.5584405018526
 30
0.0
 11
-3.22051352055076
 21
-125.5584405018526
 31
0.0
 70
   128
 71
     5
 42
-1.0
  3
1-1
100
AcDbAlignedDimension
 13
4.0
 23
-100.0
 33
0.0
 14
0.0
 24
-100.0
 34
0.0
100
AcDbRotatedDimension
  0
LINE
  5
DE
330
2
100
AcDbEntity
  8
ANCON-DSD
100
AcDbLine
 10
4.0
 20
-100.0
 30
0.0
 11
0.0
 21
-100.0
 31
0.0
  0
LINE
  5
DF
330
2
100
AcDbEntity
  8
ANCON-DSD
  6
Continuous
100
AcDbLine
 10
-19.99999999999997
 20
-69.99999999999989
 30
0.0
 11
0.0
 21
-69.99999999999989
 31
0.0
  0
LINE
  5
E0
330
2
100
AcDbEntity
  8
ANCON-DSD
  6
Continuous
100
AcDbLine
 10
-27.99999999999997
 20
-90.0
 30
0.0
 11
-19.99999999999997
 21
-90.0
 31
0.0
  0
LINE
  5
E1
330
2
100
AcDbEntity
  8
ANCON-DSD
  6
Continuous
100
AcDbLine
 10
-19.99999999999997
 20
-35.00000000000011
 30
0.0
 11
0.0
 21
-35.00000000000011
 31
0.0
  0
LINE
  5
E3
330
2
100
AcDbEntity
  8
ANCON-GRID
  6
CENTER2
100
AcDbLine
 10
36.0
 20
11.0
 30
0.0
 11
36.0
 21
-11.0
 31
0.0
  0
LINE
  5
E4
330
2
100
AcDbEntity
  8
ANCON-GRID
  6
CENTER2
100
AcDbLine
 10
47.0
 20
0.0
 30
0.0
 11
25.0
 21
0.0
 31
0.0
  0
CIRCLE
  5
E5
330
2
100
AcDbEntity
  8
ANCON-DSD
100
AcDbCircle
 10
36.0
 20
0.0
 30
0.0
 40
8.0
  0
LINE
  5
E6
330
2
100
AcDbEntity
  8
ANCON-GRID
  6
CENTER2
100
AcDbLine
 10
0.0000000000000164
 20
52.49078562693227
 30
0.0
 11
-269.9999999999998
 21
52.49078562693227
 31
0.0
  0
LINE
  5
E7
330
2
100
AcDbEntity
  8
ANCON-DSD
  6
Continuous
100
AcDbLine
 10
-259.9999999999999
 20
34.99999999999983
 30
0.0
 11
-27.99999999999997
 21
34.99999999999988
 31
0.0
  0
LINE
  5
E8
330
2
100
AcDbEntity
  8
ANCON-DSD
  6
Continuous
100
AcDbLine
 10
-259.9999999999999
 20
69.99078562693227
 30
0.0
 11
-27.99999999999997
 21
69.99078562693227
 31
0.0
  0
TEXT
  5
E9
330
2
100
AcDbEntity
  8
ANCON-TEXT
  6
Continuous
100
AcDbText
 10
-158.9973593774465
 20
177.8610121589361
 30
0.0
 40
5.0
  1
WIDTH
  7
ROMANS
 72
     4
 11
-148.4021212822084
 21
180.3610121589361
 31
0.0
100
AcDbText
  0
TEXT
  5
EA
330
2
100
AcDbEntity
  8
ANCON-TEXT
  6
Continuous
100
AcDbText
 10
-174.4735498536369
 20
188.7586355465551
 30
0.0
 40
5.0
  1
DESIGN JOINT
  7
ROMANS
 72
     4
 11
-148.4021212822084
 21
191.2586355465551
 31
0.0
100
AcDbText
  0
TEXT
  5
EB
330
2
100
AcDbEntity
  8
ANCON-TEXT
  6
Continuous
100
AcDbText
 10
-158.5488969636401
 20
156.7416626651025
 30
0.0
 40
5.0
  1
20 MM
  7
ROMANS
 72
     4
 11
-145.6917541064972
 21
159.2416626651025
 31
0.0
100
AcDbText
  0
LINE
  5
EC
330
2
100
AcDbEntity
  8
ANCON-TEXT
  6
Continuous
100
AcDbLine
 10
-229.5772182185259
 20
145.9261055720039
 30
0.0
 11
-54.19854052666345
 21
145.9261055720039
 31
0.0
  0
LINE
  5
ED
330
2
100
AcDbEntity
  8
ANCON-TEXT
  6
Continuous
100
AcDbLine
 10
-229.5772182185259
 20
172.953590647051
 30
0.0
 11
-54.19854052666343
 21
172.953590647051
 31
0.0
  0
LINE
  5
EE
330
2
100
AcDbEntity
  8
ANCON-TEXT
  6
Continuous
100
AcDbLine
 10
-229.5772182185259
 20
199.0243517060967
 30
0.0
 11
-54.19854052666345
 21
199.0243517060967
 31
0.0
  0
LINE
  5
EF
330
2
100
AcDbEntity
  8
ANCON-TEXT
  6
Continuous
100
AcDbLine
 10
-229.5772182185259
 20
199.0243517060967
 30
0.0
 11
-229.5772182185259
 21
145.9261055720039
 31
0.0
  0
LINE
  5
F0
330
2
100
AcDbEntity
  8
ANCON-TEXT
  6
Continuous
100
AcDbLine
 10
-179.5772182185259
 20
199.0243517060967
 30
0.0
 11
-179.5772182185259
 21
145.9261055720039
 31
0.0
  0
LINE
  5
F1
330
2
100
AcDbEntity
  8
ANCON-DSD
  6
Continuous
100
AcDbLine
 10
-259.9999999999999
 20
69.99078562693227
 30
0.0
 11
-259.9999999999999
 21
34.99999999999983
 31
0.0
  0
TEXT
  5
F2
330
2
100
AcDbEntity
  8
ANCON-TEXT
  6
Continuous
100
AcDbText
 10
-222.3848340694545
 20
188.7586355465551
 30
0.0
 40
5.0
  1
DSD REF:
  7
ROMANS
 72
     4
 11
-204.408643593264
 21
191.2586355465551
 31
0.0
100
AcDbText
  0
TEXT
  5
F3
330
2
100
AcDbEntity
  8
ANCON-TEXT
  6
Continuous
100
AcDbText
 10
-220.3346112493544
 20
156.7416626651025
 30
0.0
 40
5.0
  1
DSD130
  7
ROMANS
 72
     4
 11
-205.6917541064972
 21
159.2416626651025
 31
0.0
100
AcDbText
  0
LINE
  5
F4
330
2
100
AcDbEntity
  8
ANCON-TEXT
  6
Continuous
100
AcDbLine
 10
-119.069124661463
 20
199.0243517060967
 30
0.0
 11
-119.069124661463
 21
145.9261055720039
 31
0.0
  0
LINE
  5
F5
330
2
100
AcDbEntity
  8
ANCON-TEXT
  6
Continuous
100
AcDbLine
 10
-54.19854052666345
 20
199.0243517060967
 30
0.0
 11
-54.19854052666345
 21
145.9261055720039
 31
0.0
  0
TEXT
  5
F6
330
2
100
AcDbEntity
  8
ANCON-TEXT
  6
Continuous
100
AcDbText
 10
-110.453658868402
 20
177.8201871051083
 30
0.0
 40
5.0
  1
LOAD ( kN )
  7
ROMANS
 72
     4
 11
-85.69175410649725
 21
179.9630442479654
 31
0.0
100
AcDbText
  0
TEXT
  5
F7
330
2
100
AcDbEntity
  8
ANCON-TEXT
  6
Continuous
100
AcDbText
 10
-113.5488969636401
 20
188.7634660436867
 30
0.0
 40
5.0
  1
SERVICEABILITY
  7
ROMANS
 72
     4
 11
-85.69175410649725
 21
191.2634660436867
 31
0.0
100
AcDbText
  0
TEXT
  5
F8
330
2
100
AcDbEntity
  8
ANCON-TEXT
  6
Continuous
100
AcDbText
 10
-96.76318267792582
 20
156.7416626651025
 30
0.0
 40
5.0
  1
145.5
  7
ROMANS
 72
     4
 11
-85.69175410649725
 21
159.2416626651025
 31
0.0
100
AcDbText
  0
LINE
  5
F9
330
2
100
AcDbEntity
  8
ANCON-DSD
  6
Continuous
100
AcDbLine
 10
-19.99999999999997
 20
34.99999999999988
 30
0.0
 11
0.0000000000000195
 21
34.99999999999988
 31
0.0
  0
LINE
  5
FA
330
2
100
AcDbEntity
  8
ANCON-DSD
  6
Continuous
100
AcDbLine
 10
-19.99999999999998
 20
69.99078562693227
 30
0.0
 11
0.0000000000000133
 21
69.99078562693227
 31
0.0
  0
LINE
  5
FB
330
2
100
AcDbEntity
  8
ANCON-DSD
  6
Continuous
100
AcDbLine
 10
-19.99999999999997
 20
90.0
 30
0.0
 11
-27.99999999999997
 21
90.0
 31
0.0
  0
LINE
  5
FC
330
2
100
AcDbEntity
  8
ANCON-DSD
100
AcDbLine
 10
4.0
 20
100.0
 30
0.0
 11
0.0
 21
100.0
 31
0.0
  0
LINE
  5
FD
330
2
100
AcDbEntity
  8
ANCON-DSD
100
AcDbLine
 10
114.0
 20
32.50000000000011
 30
0.0
 11
114.0
 21
-32.5
 31
0.0
  0
DIMENSION
  5
FE
330
2
100
AcDbEntity
  8
ANCON-DIMS
100
AcDbDimension
  2
*D10
 10
316.7183048485528
 20
52.5
 30
0.0
 11
313.7183048485528
 21
0.0000000000000023
 31
0.0
 71
     5
 42
-1.0
  3
1-1
100
AcDbAlignedDimension
 13
285.0
 23
-52.5
 33
0.0
 14
285.0
 24
52.5
 34
0.0
 50
90.0
100
AcDbRotatedDimension
  0
DIMENSION
  5
10B
330
2
100
AcDbEntity
  8
ANCON-DIMS
100
AcDbDimension
  2
*D11
 10
299.5598307359794
 20
-32.5
 30
0.0
 11
296.5598307359794
 21
-42.5
 31
0.0
 71
     5
 42
-1.0
  3
1-1
100
AcDbAlignedDimension
 13
285.0
 23
-52.5
 33
0.0
 14
280.0
 24
-32.49999999999999
 34
0.0
 50
90.0
100
AcDbRotatedDimension
  0
LINE
  5
118
330
2
100
AcDbEntity
  8
ANCON-GRID
  6
CENTER2
100
AcDbLine
 10
95.0
 20
10.99999999999999
 30
0.0
 11
94.99999999999998
 21
-11.0
 31
0.0
  0
LINE
  5
119
330
2
100
AcDbEntity
  8
ANCON-GRID
  6
CENTER2
100
AcDbLine
 10
106.0
 20
0.0
 30
0.0
 11
84.0
 21
0.0
 31
0.0
  0
CIRCLE
  5
11A
330
2
100
AcDbEntity
  8
ANCON-DSD
100
AcDbCircle
 10
95.0
 20
0.0
 30
0.0
 40
8.0
  0
LINE
  5
11B
330
2
100
AcDbEntity
  8
ANCON-DSD
100
AcDbLine
 10
275.0
 20
-32.49999999999999
 30
0.0
 11
275.0
 21
-72.5
 31
0.0
  0
LINE
  5
11C
330
2
100
AcDbEntity
  8
ANCON-DSD
100
AcDbLine
 10
280.0
 20
-32.49999999999999
 30
0.0
 11
280.0
 21
-72.5
 31
0.0
  0
LINE
  5
11D
330
2
100
AcDbEntity
  8
ANCON-DSD
  6
Continuous
100
AcDbLine
 10
210.0
 20
-35.00000000000011
 30
0.0
 11
210.0
 21
-69.99999999999989
 31
0.0
  0
DIMENSION
  5
11E
330
2
100
AcDbEntity
  8
ANCON-DIMS
100
AcDbDimension
  2
*D12
 10
299.5598322010209
 20
32.49999999999999
 30
0.0
 11
296.5598322010209
 21
42.49999999999999
 31
0.0
 71
     5
 42
-1.0
  3
1-1
100
AcDbAlignedDimension
 13
285.0
 23
52.5
 33
0.0
 14
280.0
 24
32.5
 34
0.0
 50
90.0
100
AcDbRotatedDimension
  0
TEXT
  5
12B
330
2
100
AcDbEntity
  8
ANCON-TEXT
  6
Continuous
100
AcDbText
 10
135.9849090546061
 20
140.7969845562612
 30
0.0
 40
5.0
  1
SUITABLE FOR A DESIGN JOINT WIDTH OF ?? MM
  7
ROMANS
 72
     4
 11
230.8658614355586
 21
143.2969845562612
 31
0.0
100
AcDbText
  0
LINE
  5
12C
330
2
100
AcDbEntity
  8
ANCON-TEXT
  6
Continuous
100
AcDbLine
 10
132.3556634957647
 20
170.0436441314916
 30
0.0
 11
334.8426136024051
 21
170.0436441314916
 31
0.0
  0
LINE
  5
12D
330
2
100
AcDbEntity
  8
ANCON-TEXT
  6
Continuous
100
AcDbLine
 10
132.3556634957647
 20
117.0099515459412
 30
0.0
 11
334.8426136024051
 21
117.0099515459412
 31
0.0
  0
TEXT
  5
12E
330
2
100
AcDbEntity
  8
ANCON-TEXT
  6
Continuous
100
AcDbText
 10
136.4393442245563
 20
130.7479271423321
 30
0.0
 40
5.0
  1
AND CAPABLE OF TRANSFERRING A SERVICEABILITY
  7
ROMANS
 72
     4
 11
233.8202966055086
 21
133.2479271423321
 31
0.0
100
AcDbText
  0
TEXT
  5
12F
330
2
100
AcDbEntity
  8
ANCON-TEXT
  6
Continuous
100
AcDbText
 10
135.9262122945485
 20
150.698132265931
 30
0.0
 40
5.0
  1
COMPRISING SLEEVE AND DOWEL COMPONENT
  7
ROMANS
 72
     4
 11
223.9024027707391
 21
153.198132265931
 31
0.0
100
AcDbText
  0
TEXT
  5
130
330
2
100
AcDbEntity
  8
ANCON-TEXT
  6
Continuous
100
AcDbText
 10
136.6473967006043
 20
160.8028445917216
 30
0.0
 40
5.0
  1
TWO PART STAINLESS STEEL SHEAR CONNECTOR
  7
ROMANS
 72
     4
 11
229.2664443196521
 21
163.3028445917215
 31
0.0
100
AcDbText
  0
LINE
  5
131
330
2
100
AcDbEntity
  8
ANCON-TEXT
  6
Continuous
100
AcDbLine
 10
132.3556634957647
 20
199.4101577985854
 30
0.0
 11
132.3556634957647
 21
187.4921825065841
 31
0.0
  0
LINE
  5
132
330
2
100
AcDbEntity
  8
ANCON-TEXT
  6
Continuous
100
AcDbLine
 10
199.9455144185267
 20
199.4101577985854
 30
0.0
 11
199.9455144185267
 21
187.4921825065841
 31
0.0
  0
TEXT
  5
133
330
2
100
AcDbEntity
  8
ANCON-TEXT
  6
Continuous
100
AcDbText
 10
136.8497731691568
 20
190.7730476827419
 30
0.0
 40
5.0
  1
STAIFIX DSD ??
  7
ROMANS
 72
     4
 11
166.3735826929663
 21
193.2730476827419
 31
0.0
100
AcDbText
  0
LINE
  5
134
330
2
100
AcDbEntity
  8
ANCON-TEXT
  6
Continuous
100
AcDbLine
 10
132.3556634957647
 20
187.4921825065841
 30
0.0
 11
199.9455144185267
 21
187.4921825065842
 31
0.0
  0
TEXT
  5
135
330
2
100
AcDbEntity
  8
ANCON-TEXT
  6
Continuous
100
AcDbText
 10
137.6251249808994
 20
120.7130019773698
 30
0.0
 40
5.0
  1
LOAD OF ??? kN
  7
ROMANS
 72
     4
 11
170.244172599947
 21
123.2130019773698
 31
0.0
100
AcDbText
  0
LINE
  5
136
330
2
100
AcDbEntity
  8
ANCON-TEXT
  6
Continuous
100
AcDbLine
 10
132.3556634957647
 20
170.0436441314916
 30
0.0
 11
132.3556634957647
 21
117.0099515459412
 31
0.0
  0
LINE
  5
137
330
2
100
AcDbEntity
  8
ANCON-DSD
  6
Continuous
100
AcDbLine
 10
210.0
 20
69.99078562693229
 30
0.0
 11
210.0
 21
34.99999999999988
 31
0.0
  0
LINE
  5
138
330
2
100
AcDbEntity
  8
ANCON-DSD
100
AcDbLine
 10
280.0
 20
72.5
 30
0.0
 11
280.0
 21
32.5
 31
0.0
  0
LINE
  5
139
330
2
100
AcDbEntity
  8
ANCON-DSD
100
AcDbLine
 10
275.0
 20
72.5
 30
0.0
 11
275.0
 21
32.5
 31
0.0
  0
LINE
  5
13A
330
2
100
AcDbEntity
  8
ANCON-TEXT
  6
Continuous
100
AcDbLine
 10
132.3556634957647
 20
199.4101577985854
 30
0.0
 11
199.9455144185267
 21
199.4101577985854
 31
0.0
  0
LINE
  5
13B
330
2
100
AcDbEntity
  8
ANCON-TEXT
  6
Continuous
100
AcDbLine
 10
334.8426136024051
 20
170.0436441314916
 30
0.0
 11
334.8426136024051
 21
117.0099515459412
 31
0.0
  0
ENDSEC
  0
SECTION
  2
OBJECTS
  0
DICTIONARY
  5
26
330
0
100
AcDbDictionary
281
     1
  3
ACAD_GROUP
350
22
  3
ACAD_LAYOUT
350
13F
  3
ACAD_MLINESTYLE
350
23
  3
ACAD_PLOTSETTINGS
350
140
  3
ACAD_PLOTSTYLENAME
350
13D
  0
DICTIONARY
  5
3
330
2
100
AcDbDictionary
280
     1
281
     1
  3
ACAD_LAYOUTSELFREF
360
170
  0
DICTIONARY
  5
B
330
A
100
AcDbDictionary
280
     1
281
     1
  3
ACAD_LAYOUTSELFREF
360
171
  0
DICTIONARY
  5
22
102
{ACAD_REACTORS
330
26
102
}
330
26
100
AcDbDictionary
281
     1
  0
DICTIONARY
  5
13F
102
{ACAD_REACTORS
330
26
102
}
330
26
100
AcDbDictionary
281
     1
  3
Layout1
350
142
  3
Model
350
141
  0
DICTIONARY
  5
23
102
{ACAD_REACTORS
330
26
102
}
330
26
100
AcDbDictionary
281
     1
  3
Standard
350
29
  0
DICTIONARY
  5
140
102
{ACAD_REACTORS
330
26
102
}
330
26
100
AcDbDictionary
281
     1
  0
ACDBDICTIONARYWDFLT
  5
13D
102
{ACAD_REACTORS
330
26
102
}
330
26
100
AcDbDictionary
281
     1
  3
Normal
350
13E
100
AcDbDictionaryWithDefault
340
13E
  0
XRECORD
  5
170
102
{ACAD_REACTORS
330
3
102
}
330
3
100
AcDbXrecord
280
     1
340
2
  0
XRECORD
  5
171
102
{ACAD_REACTORS
330
B
102
}
330
B
100
AcDbXrecord
280
     1
340
A
  0
LAYOUT
  5
142
102
{ACAD_REACTORS
330
13F
102
}
330
13F
100
AcDbPlotSettings
  1

  2
None
  4

  6

 40
0.0
 41
0.0
 42
0.0
 43
0.0
 44
0.0
 45
0.0
 46
0.0
 47
0.0
 48
0.0
 49
0.0
140
0.0
141
0.0
142
1.0
143
1.0
 70
   688
 72
     0
 73
     0
 74
     5
  7
Std pen settings.ctb
 75
    16
147
1.0
148
0.0
149
0.0
100
AcDbLayout
  1
Layout1
 70
     1
 71
     1
 10
-0.1979161059762549
 20
-0.1979166691697489
 11
16.34375024029589
 21
11.49541603298637
 12
0.0
 22
0.0
 32
0.0
 14
1.614583349603368
 24
1.129749872553066
 34
0.0
 15
14.5312501464303
 25
10.1677488529776
 35
0.0
146
0.0
 13
0.0
 23
0.0
 33
0.0
 16
1.0
 26
0.0
 36
0.0
 17
0.0
 27
1.0
 37
0.0
 76
     0
330
A
  0
LAYOUT
  5
141
102
{ACAD_REACTORS
330
13F
102
}
330
13F
100
AcDbPlotSettings
  1

  2
None
  4

  6

 40
0.0
 41
0.0
 42
0.0
 43
0.0
 44
0.0
 45
0.0
 46
0.0
 47
0.0
 48
0.0
 49
0.0
140
0.0
141
0.0
142
1.0
143
1.0
 70
  1712
 72
     0
 73
     0
 74
     0
  7
Std pen settings.ctb
 75
     0
147
1.0
148
0.0
149
0.0
100
AcDbLayout
  1
Model
 70
     1
 71
     0
 10
0.0
 20
0.0
 11
12.0
 21
9.0
 12
0.0
 22
0.0
 32
0.0
 14
0.0
 24
0.0
 34
0.0
 15
0.0
 25
0.0
 35
0.0
146
0.0
 13
0.0
 23
0.0
 33
0.0
 16
1.0
 26
0.0
 36
0.0
 17
0.0
 27
1.0
 37
0.0
 76
     0
330
2
  0
MLINESTYLE
  5
29
102
{ACAD_REACTORS
330
23
102
}
330
23
100
AcDbMlineStyle
  2
STANDARD
 70
     0
  3

 62
   256
 51
90.0
 52
90.0
 71
     2
 49
0.5
 62
   256
  6
BYLAYER
 49
-0.5
 62
   256
  6
BYLAYER
  0
ACDBPLACEHOLDER
  5
13E
102
{ACAD_REACTORS
330
13D
102
}
330
13D
  0
ENDSEC
  0
EOF
