  0
SECTION
  2
HEADER
  9
$ACADVER
  1
AC1015
  9
$ACADMAINTVER
 70
    10
  9
$DWGCODEPAGE
  3
ANSI_1252
  9
$INSBASE
 10
-0.0057062640109677
 20
0.0000000000000533
 30
0.0
  9
$EXTMIN
 10
-141.8564623762053
 20
-279.4746964022688
 30
0.0
  9
$EXTMAX
 10
254.2310534208973
 20
120.0227939991175
 30
0.0
  9
$LIMMIN
 10
0.0
 20
0.0
  9
$LIMMAX
 10
420.0
 20
297.0
  9
$ORTHOMODE
 70
     0
  9
$REGENMODE
 70
     1
  9
$FILLMODE
 70
     1
  9
$QTEXTMODE
 70
     0
  9
$MIRRTEXT
 70
     1
  9
$LTSCALE
 40
0.25
  9
$ATTMODE
 70
     1
  9
$TEXTSIZE
 40
5.0
  9
$TRACEWID
 40
10.0
  9
$TEXTSTYLE
  7
ROMANS
  9
$CLAYER
  8
0
  9
$CELTYPE
  6
BYLAYER
  9
$CECOLOR
 62
   256
  9
$CELTSCALE
 40
1.0
  9
$DISPSILH
 70
     0
  9
$DIMSCALE
 40
2.0
  9
$DIMASZ
 40
2.0
  9
$DIMEXO
 40
4.5
  9
$DIMDLI
 40
0.0
  9
$DIMRND
 40
0.5
  9
$DIMDLE
 40
1.25
  9
$DIMEXE
 40
1.5
  9
$DIMTP
 40
0.0
  9
$DIMTM
 40
0.0
  9
$DIMTXT
 40
1.8
  9
$DIMCEN
 40
0.0
  9
$DIMTSZ
 40
0.0
  9
$DIMTOL
 70
     0
  9
$DIMLIM
 70
     0
  9
$DIMTIH
 70
     0
  9
$DIMTOH
 70
     0
  9
$DIMSE1
 70
     0
  9
$DIMSE2
 70
     0
  9
$DIMTAD
 70
     1
  9
$DIMZIN
 70
    12
  9
$DIMBLK
  1

  9
$DIMASO
 70
     1
  9
$DIMSHO
 70
     0
  9
$DIMPOST
  1

  9
$DIMAPOST
  1

  9
$DIMALT
 70
     0
  9
$DIMALTD
 70
     2
  9
$DIMALTF
 40
0.04
  9
$DIMLFAC
 40
1.0
  9
$DIMTOFL
 70
     0
  9
$DIMTVP
 40
0.0
  9
$DIMTIX
 70
     0
  9
$DIMSOXD
 70
     0
  9
$DIMSAH
 70
     0
  9
$DIMBLK1
  1

  9
$DIMBLK2
  1

  9
$DIMSTYLE
  2
1-2
  9
$DIMCLRD
 70
     0
  9
$DIMCLRE
 70
     0
  9
$DIMCLRT
 70
     0
  9
$DIMTFAC
 40
1.25
  9
$DIMGAP
 40
0.1
  9
$DIMJUST
 70
     0
  9
$DIMSD1
 70
     0
  9
$DIMSD2
 70
     0
  9
$DIMTOLJ
 70
     1
  9
$DIMTZIN
 70
    12
  9
$DIMALTZ
 70
    12
  9
$DIMALTTZ
 70
    12
  9
$DIMUPT
 70
     0
  9
$DIMDEC
 70
     2
  9
$DIMTDEC
 70
     2
  9
$DIMALTU
 70
     2
  9
$DIMALTTD
 70
     2
  9
$DIMTXSTY
  7
ROMANS
  9
$DIMAUNIT
 70
     0
  9
$DIMADEC
 70
     0
  9
$DIMALTRND
 40
0.0
  9
$DIMAZIN
 70
     0
  9
$DIMDSEP
 70
    46
  9
$DIMATFIT
 70
     3
  9
$DIMFRAC
 70
     0
  9
$DIMLDRBLK
  1

  9
$DIMLUNIT
 70
     2
  9
$DIMLWD
 70
    -2
  9
$DIMLWE
 70
    -2
  9
$DIMTMOVE
 70
     2
  9
$LUNITS
 70
     2
  9
$LUPREC
 70
     2
  9
$SKETCHINC
 40
1.0
  9
$FILLETRAD
 40
0.0
  9
$AUNITS
 70
     0
  9
$AUPREC
 70
     4
  9
$MENU
  1
acad
  9
$ELEVATION
 40
0.0
  9
$PELEVATION
 40
0.0
  9
$THICKNESS
 40
0.0
  9
$LIMCHECK
 70
     0
  9
$CHAMFERA
 40
0.0
  9
$CHAMFERB
 40
0.0
  9
$CHAMFERC
 40
0.0
  9
$CHAMFERD
 40
0.0
  9
$SKPOLY
 70
     0
  9
$TDCREATE
 40
2449527.571155092
  9
$TDUCREATE
 40
2449527.529488425
  9
$TDUPDATE
 40
2452498.531041782
  9
$TDUUPDATE
 40
2452498.489375115
  9
$TDINDWG
 40
0.2169091435
  9
$TDUSRTIMER
 40
0.2169091435
  9
$USRTIMER
 70
     1
  9
$ANGBASE
 50
0.0
  9
$ANGDIR
 70
     0
  9
$PDMODE
 70
     0
  9
$PDSIZE
 40
0.0
  9
$PLINEWID
 40
0.0
  9
$SPLFRAME
 70
     0
  9
$SPLINETYPE
 70
     6
  9
$SPLINESEGS
 70
     8
  9
$HANDSEED
  5
8C
  9
$SURFTAB1
 70
    18
  9
$SURFTAB2
 70
    18
  9
$SURFTYPE
 70
     6
  9
$SURFU
 70
    18
  9
$SURFV
 70
    18
  9
$UCSBASE
  2

  9
$UCSNAME
  2

  9
$UCSORG
 10
0.0
 20
0.0
 30
0.0
  9
$UCSXDIR
 10
1.0
 20
0.0
 30
0.0
  9
$UCSYDIR
 10
0.0
 20
1.0
 30
0.0
  9
$UCSORTHOREF
  2

  9
$UCSORTHOVIEW
 70
     0
  9
$UCSORGTOP
 10
0.0
 20
0.0
 30
0.0
  9
$UCSORGBOTTOM
 10
0.0
 20
0.0
 30
0.0
  9
$UCSORGLEFT
 10
0.0
 20
0.0
 30
0.0
  9
$UCSORGRIGHT
 10
0.0
 20
0.0
 30
0.0
  9
$UCSORGFRONT
 10
0.0
 20
0.0
 30
0.0
  9
$UCSORGBACK
 10
0.0
 20
0.0
 30
0.0
  9
$PUCSBASE
  2

  9
$PUCSNAME
  2

  9
$PUCSORG
 10
0.0
 20
0.0
 30
0.0
  9
$PUCSXDIR
 10
1.0
 20
0.0
 30
0.0
  9
$PUCSYDIR
 10
0.0
 20
1.0
 30
0.0
  9
$PUCSORTHOREF
  2

  9
$PUCSORTHOVIEW
 70
     0
  9
$PUCSORGTOP
 10
0.0
 20
0.0
 30
0.0
  9
$PUCSORGBOTTOM
 10
0.0
 20
0.0
 30
0.0
  9
$PUCSORGLEFT
 10
0.0
 20
0.0
 30
0.0
  9
$PUCSORGRIGHT
 10
0.0
 20
0.0
 30
0.0
  9
$PUCSORGFRONT
 10
0.0
 20
0.0
 30
0.0
  9
$PUCSORGBACK
 10
0.0
 20
0.0
 30
0.0
  9
$USERI1
 70
     0
  9
$USERI2
 70
     0
  9
$USERI3
 70
     0
  9
$USERI4
 70
     0
  9
$USERI5
 70
     0
  9
$USERR1
 40
0.0
  9
$USERR2
 40
0.0
  9
$USERR3
 40
0.0
  9
$USERR4
 40
0.0
  9
$USERR5
 40
0.0
  9
$WORLDVIEW
 70
     1
  9
$SHADEDGE
 70
     3
  9
$SHADEDIF
 70
    70
  9
$TILEMODE
 70
     1
  9
$MAXACTVP
 70
    16
  9
$PINSBASE
 10
0.0
 20
0.0
 30
0.0
  9
$PLIMCHECK
 70
     0
  9
$PEXTMIN
 10
1.000000000000000E+20
 20
1.000000000000000E+20
 30
1.000000000000000E+20
  9
$PEXTMAX
 10
-1.000000000000000E+20
 20
-1.000000000000000E+20
 30
-1.000000000000000E+20
  9
$PLIMMIN
 10
0.0
 20
0.0
  9
$PLIMMAX
 10
420.0
 20
297.0
  9
$UNITMODE
 70
     0
  9
$VISRETAIN
 70
     0
  9
$PLINEGEN
 70
     0
  9
$PSLTSCALE
 70
     1
  9
$TREEDEPTH
 70
  3020
  9
$CMLSTYLE
  2
STANDARD
  9
$CMLJUST
 70
     0
  9
$CMLSCALE
 40
1.0
  9
$PROXYGRAPHICS
 70
     1
  9
$MEASUREMENT
 70
     0
  9
$CELWEIGHT
370
    -1
  9
$ENDCAPS
280
     0
  9
$JOINSTYLE
280
     0
  9
$LWDISPLAY
290
     0
  9
$INSUNITS
 70
     0
  9
$HYPERLINKBASE
  1

  9
$STYLESHEET
  1

  9
$XEDIT
290
     1
  9
$CEPSNTYPE
380
     0
  9
$PSTYLEMODE
290
     1
  9
$FINGERPRINTGUID
  2
{627E27E2-AD1D-11D6-AAC6-0010A4A25215}
  9
$VERSIONGUID
  2
{627E27E9-AD1D-11D6-AAC6-0010A4A25215}
  9
$EXTNAMES
290
     1
  9
$PSVPSCALE
 40
0.0
  9
$OLESTARTUP
290
     0
  0
ENDSEC
  0
SECTION
  2
CLASSES
  0
CLASS
  1
DICTIONARYVAR
  2
AcDbDictionaryVar
  3
AutoCAD 2000
 90
    32768
280
     0
281
     0
  0
CLASS
  1
LWPOLYLINE
  2
AcDbPolyline
  3
AutoCAD 2000
 90
    32768
280
     0
281
     1
  0
CLASS
  1
ACDBDICTIONARYWDFLT
  2
AcDbDictionaryWithDefault
  3
AutoCAD 2000
 90
        0
280
     0
281
     0
  0
CLASS
  1
ACDBPLACEHOLDER
  2
AcDbPlaceHolder
  3
AutoCAD 2000
 90
        0
280
     0
281
     0
  0
CLASS
  1
LAYOUT
  2
AcDbLayout
  3
AutoCAD 2000
 90
        0
280
     0
281
     0
  0
ENDSEC
  0
SECTION
  2
TABLES
  0
TABLE
  2
VPORT
  5
12
330
0
100
AcDbSymbolTable
 70
     3
  0
VPORT
  5
8B
330
12
100
AcDbSymbolTableRecord
100
AcDbViewportTableRecord
  2
*Active
 70
     0
 10
0.0
 20
0.0
 11
1.0
 21
1.0
 12
116.4377047389254
 22
-62.00614043748363
 13
0.0
 23
0.0
 14
5.0
 24
5.0
 15
10.0
 25
10.0
 16
0.0
 26
0.0
 36
1.0
 17
0.0
 27
0.0
 37
0.0
 40
550.686799746825
 41
1.760948905109489
 42
50.0
 43
0.0
 44
0.0
 50
0.0
 51
0.0
 71
     0
 72
   100
 73
     1
 74
     1
 75
     0
 76
     0
 77
     0
 78
     0
281
     0
 65
     1
110
0.0
120
0.0
130
0.0
111
1.0
121
0.0
131
0.0
112
0.0
122
1.0
132
0.0
 79
     0
146
0.0
  0
ENDTAB
  0
TABLE
  2
LTYPE
  5
D
330
0
100
AcDbSymbolTable
 70
     2
  0
LTYPE
  5
E
330
D
100
AcDbSymbolTableRecord
100
AcDbLinetypeTableRecord
  2
BYBLOCK
 70
     0
  3

 72
    65
 73
     0
 40
0.0
  0
LTYPE
  5
F
330
D
100
AcDbSymbolTableRecord
100
AcDbLinetypeTableRecord
  2
BYLAYER
 70
     0
  3

 72
    65
 73
     0
 40
0.0
  0
LTYPE
  5
5
330
D
100
AcDbSymbolTableRecord
100
AcDbLinetypeTableRecord
  2
CONTINUOUS
 70
     0
  3
Solid line
 72
    65
 73
     0
 40
0.0
  0
LTYPE
  5
20
330
D
100
AcDbSymbolTableRecord
100
AcDbLinetypeTableRecord
  2
CENTER2
 70
     0
  3
___ _ ___ _ ___ _ ___ _ ___ _ ___ _ ___ _ ___ _
 72
    65
 73
     4
 40
28.57499999999999
 49
19.05
 74
     0
 49
-3.174999999999999
 74
     0
 49
3.174999999999999
 74
     0
 49
-3.174999999999999
 74
     0
  0
ENDTAB
  0
TABLE
  2
LAYER
  5
A
330
0
100
AcDbSymbolTable
 70
     5
  0
LAYER
  5
4
330
A
100
AcDbSymbolTableRecord
100
AcDbLayerTableRecord
  2
0
 70
     0
 62
     7
  6
CONTINUOUS
370
    -3
390
81
  0
LAYER
  5
2D
330
A
100
AcDbSymbolTableRecord
100
AcDbLayerTableRecord
  2
ANCON-DSD
 70
     0
 62
     3
  6
CONTINUOUS
370
    -3
390
81
  0
LAYER
  5
38
330
A
100
AcDbSymbolTableRecord
100
AcDbLayerTableRecord
  2
DEFPOINTS
 70
     0
 62
     7
  6
CONTINUOUS
290
     0
370
    -3
390
81
  0
LAYER
  5
22
330
A
100
AcDbSymbolTableRecord
100
AcDbLayerTableRecord
  2
ANCON-TEXT
 70
     0
 62
     6
  6
CONTINUOUS
370
    -3
390
81
  0
LAYER
  5
1F
330
A
100
AcDbSymbolTableRecord
100
AcDbLayerTableRecord
  2
ANCON-DIMS
 70
     0
 62
     1
  6
CONTINUOUS
370
    -3
390
81
  0
ENDTAB
  0
TABLE
  2
STYLE
  5
B
330
0
100
AcDbSymbolTable
 70
     2
  0
STYLE
  5
C
330
B
100
AcDbSymbolTableRecord
100
AcDbTextStyleTableRecord
  2
STANDARD
 70
     0
 40
0.0
 41
1.0
 50
0.0
 71
     0
 42
6.0
  3
txt.shx
  4

  0
STYLE
  5
1B
330
B
100
AcDbSymbolTableRecord
100
AcDbTextStyleTableRecord
  2
ROMANS
 70
     0
 40
0.0
 41
1.0
 50
0.0
 71
     0
 42
5.0
  3
romans
  4

  0
ENDTAB
  0
TABLE
  2
VIEW
  5
10
330
0
100
AcDbSymbolTable
 70
     0
  0
ENDTAB
  0
TABLE
  2
UCS
  5
11
330
0
100
AcDbSymbolTable
 70
     0
  0
ENDTAB
  0
TABLE
  2
APPID
  5
14
330
0
100
AcDbSymbolTable
 70
     1
  0
APPID
  5
15
330
14
100
AcDbSymbolTableRecord
100
AcDbRegAppTableRecord
  2
ACAD
 70
     0
  0
ENDTAB
  0
TABLE
  2
DIMSTYLE
  5
16
330
0
100
AcDbSymbolTable
 70
     1
100
AcDbDimStyleTable
 71
     0
  0
DIMSTYLE
105
1D
102
{ACAD_REACTORS
330
3D
330
2F
102
}
330
16
100
AcDbSymbolTableRecord
100
AcDbDimStyleTableRecord
  2
1-2
 70
     0
 40
2.0
 41
2.0
 42
4.5
 43
0.0
 44
1.5
 45
0.5
 46
1.25
 73
     0
 74
     0
 77
     1
 78
    12
140
1.8
141
0.0
143
0.04
146
1.25
147
0.1
271
     2
272
     2
279
     2
284
    12
285
    12
286
    12
340
1B
  0
ENDTAB
  0
TABLE
  2
BLOCK_RECORD
  5
1
330
0
100
AcDbSymbolTable
 70
     2
  0
BLOCK_RECORD
  5
2
330
1
100
AcDbSymbolTableRecord
100
AcDbBlockTableRecord
  2
*MODEL_SPACE
340
84
  0
BLOCK_RECORD
  5
7
330
1
100
AcDbSymbolTableRecord
100
AcDbBlockTableRecord
  2
*PAPER_SPACE
340
85
  0
BLOCK_RECORD
  5
30
330
1
100
AcDbSymbolTableRecord
100
AcDbBlockTableRecord
  2
*D0
340
0
  0
BLOCK_RECORD
  5
3E
330
1
100
AcDbSymbolTableRecord
100
AcDbBlockTableRecord
  2
*D1
340
0
  0
ENDTAB
  0
ENDSEC
  0
SECTION
  2
BLOCKS
  0
BLOCK
  5
3
330
2
100
AcDbEntity
  8
0
100
AcDbBlockBegin
  2
*MODEL_SPACE
 70
     0
 10
0.0
 20
0.0
 30
0.0
  3
*MODEL_SPACE
  1

  0
ENDBLK
  5
6
330
2
100
AcDbEntity
  8
0
100
AcDbBlockEnd
  0
BLOCK
  5
8
330
7
100
AcDbEntity
 67
     1
  8
0
100
AcDbBlockBegin
  2
*PAPER_SPACE
 70
     0
 10
0.0
 20
0.0
 30
0.0
  3
*PAPER_SPACE
  1

  0
ENDBLK
  5
9
330
7
100
AcDbEntity
 67
     1
  8
0
100
AcDbBlockEnd
  0
BLOCK
  5
3B
330
30
100
AcDbEntity
  8
0
100
AcDbBlockBegin
  2
*D0
 70
     1
 10
0.0
 20
0.0
 30
0.0
  3
*D0
  1

  0
LINE
  5
31
330
30
100
AcDbEntity
  8
0
  6
ByBlock
 62
     0
100
AcDbLine
 10
-60.07604400729383
 20
-128.9772060008824
 30
0.0
 11
-60.07604400729383
 21
-148.3054915059403
 31
0.0
  0
LINE
  5
32
330
30
100
AcDbEntity
  8
0
  6
ByBlock
 62
     0
100
AcDbLine
 10
60.07604400729405
 20
-129.0
 30
0.0
 11
60.07604400729405
 21
-148.3054915059403
 31
0.0
  0
LINE
  5
33
330
30
100
AcDbEntity
  8
0
  6
ByBlock
 62
     0
100
AcDbLine
 10
-56.07604400729383
 20
-145.3054915059403
 30
0.0
 11
56.07604400729406
 21
-145.3054915059403
 31
0.0
  0
SOLID
  5
34
330
30
100
AcDbEntity
  8
0
  6
ByBlock
 62
     0
100
AcDbTrace
 10
-56.07604400729383
 20
-144.6388248392736
 30
0.0
 11
-56.07604400729383
 21
-145.9721581726069
 31
0.0
 12
-60.07604400729383
 22
-145.3054915059403
 32
0.0
 13
-60.07604400729383
 23
-145.3054915059403
 33
0.0
  0
SOLID
  5
35
330
30
100
AcDbEntity
  8
0
  6
ByBlock
 62
     0
100
AcDbTrace
 10
56.07604400729406
 20
-144.6388248392736
 30
0.0
 11
56.07604400729406
 21
-145.9721581726069
 31
0.0
 12
60.07604400729405
 22
-145.3054915059403
 32
0.0
 13
60.07604400729405
 23
-145.3054915059403
 33
0.0
  0
MTEXT
  5
36
330
30
100
AcDbEntity
  8
0
  6
ByBlock
 62
     0
100
AcDbMText
 10
0.0000000000001138
 20
-143.3054915059402
 30
0.0
 40
3.6
 41
0.0
 71
     5
 72
     1
  1
\A1;120
  7
ROMANS
 73
     1
 44
1.0
  0
POINT
  5
37
330
30
100
AcDbEntity
  8
DEFPOINTS
  6
ByBlock
 62
     0
100
AcDbPoint
 10
-60.07604400729383
 20
-119.9772060008824
 30
0.0
  0
POINT
  5
39
330
30
100
AcDbEntity
  8
DEFPOINTS
  6
ByBlock
 62
     0
100
AcDbPoint
 10
60.07604400729405
 20
-119.9999999999999
 30
0.0
  0
POINT
  5
3A
330
30
100
AcDbEntity
  8
DEFPOINTS
  6
ByBlock
 62
     0
100
AcDbPoint
 10
60.07604400729405
 20
-145.3054915059403
 30
0.0
  0
ENDBLK
  5
3C
330
30
100
AcDbEntity
  8
0
100
AcDbBlockEnd
  0
BLOCK
  5
48
330
3E
100
AcDbEntity
  8
0
100
AcDbBlockBegin
  2
*D1
 70
     1
 10
0.0
 20
0.0
 30
0.0
  3
*D1
  1

  0
LINE
  5
3F
330
3E
100
AcDbEntity
  8
0
  6
ByBlock
 62
     0
100
AcDbLine
 10
-122.4239559927059
 20
-15.99999999999994
 30
0.0
 11
-122.4239559927059
 21
-179.4204712814345
 31
0.0
  0
LINE
  5
40
330
3E
100
AcDbEntity
  8
0
  6
ByBlock
 62
     0
100
AcDbLine
 10
117.5760440072942
 20
-15.99999999999994
 30
0.0
 11
117.5760440072942
 21
-179.4204712814345
 31
0.0
  0
LINE
  5
41
330
3E
100
AcDbEntity
  8
0
  6
ByBlock
 62
     0
100
AcDbLine
 10
-118.4239559927059
 20
-176.4204712814345
 30
0.0
 11
113.5760440072942
 21
-176.4204712814345
 31
0.0
  0
MTEXT
  5
42
330
3E
100
AcDbEntity
  8
0
  6
ByBlock
 62
     0
100
AcDbMText
 10
-2.423955992705941
 20
-168.9204712814345
 30
0.0
 40
3.6
 41
0.0
 71
     5
 72
     1
  1
\A1;240
  7
ROMANS
 73
     1
 44
1.0
  0
SOLID
  5
43
330
3E
100
AcDbEntity
  8
0
  6
ByBlock
 62
     0
100
AcDbTrace
 10
-118.4239559927059
 20
-175.7538046147678
 30
0.0
 11
-118.4239559927059
 21
-177.0871379481012
 31
0.0
 12
-122.4239559927059
 22
-176.4204712814345
 32
0.0
 13
-122.4239559927059
 23
-176.4204712814345
 33
0.0
  0
SOLID
  5
44
330
3E
100
AcDbEntity
  8
0
  6
ByBlock
 62
     0
100
AcDbTrace
 10
113.5760440072942
 20
-175.7538046147678
 30
0.0
 11
113.5760440072942
 21
-177.0871379481012
 31
0.0
 12
117.5760440072942
 22
-176.4204712814345
 32
0.0
 13
117.5760440072942
 23
-176.4204712814345
 33
0.0
  0
POINT
  5
45
330
3E
100
AcDbEntity
  8
DEFPOINTS
  6
ByBlock
 62
     0
100
AcDbPoint
 10
-122.4239559927059
 20
-6.999999999999946
 30
0.0
  0
POINT
  5
46
330
3E
100
AcDbEntity
  8
DEFPOINTS
  6
ByBlock
 62
     0
100
AcDbPoint
 10
117.5760440072942
 20
-6.999999999999946
 30
0.0
  0
POINT
  5
47
330
3E
100
AcDbEntity
  8
DEFPOINTS
  6
ByBlock
 62
     0
100
AcDbPoint
 10
117.5760440072942
 20
-176.4204712814345
 30
0.0
  0
ENDBLK
  5
49
330
3E
100
AcDbEntity
  8
0
100
AcDbBlockEnd
  0
ENDSEC
  0
SECTION
  2
ENTITIES
  0
LINE
  5
1E
330
2
100
AcDbEntity
  8
ANCON-DIMS
  6
CENTER2
100
AcDbLine
 10
-141.8564623762053
 20
0.0000000000000533
 30
0.0
 11
145.4351327815532
 21
0.0000000000000533
 31
0.0
  0
TEXT
  5
21
330
2
100
AcDbEntity
  8
ANCON-TEXT
100
AcDbText
 10
133.9560440939238
 20
107.2519383806816
 30
0.0
 40
5.0
  1
DESIGN JOINT
  7
ROMANS
 72
     4
 11
160.0274726653523
 21
109.7519383806816
 31
0.0
100
AcDbText
  0
LINE
  5
23
330
2
100
AcDbEntity
  8
ANCON-TEXT
100
AcDbLine
 10
78.85237572903486
 20
117.5176545402233
 30
0.0
 11
254.2310534208973
 21
117.5176545402233
 31
0.0
  0
LINE
  5
24
330
2
100
AcDbEntity
  8
ANCON-TEXT
100
AcDbLine
 10
78.85237572903486
 20
91.44689348117765
 30
0.0
 11
254.2310534208973
 21
91.44689348117765
 31
0.0
  0
LINE
  5
25
330
2
100
AcDbEntity
  8
ANCON-TEXT
100
AcDbLine
 10
78.85237572903486
 20
64.41940840613057
 30
0.0
 11
254.2310534208973
 21
64.41940840613051
 31
0.0
  0
TEXT
  5
26
330
2
100
AcDbEntity
  8
ANCON-TEXT
100
AcDbText
 10
4.557477119754821
 20
-255.6876633919489
 30
0.0
 40
5.0
  1
SUITABLE FOR A DESIGN JOINT WIDTH OF ?? MM
  7
ROMANS
 72
     4
 11
99.43842950070726
 21
-253.1876633919489
 31
0.0
100
AcDbText
  0
LINE
  5
27
330
2
100
AcDbEntity
  8
ANCON-TEXT
100
AcDbLine
 10
0.9282315609134172
 20
-226.4410038167184
 30
0.0
 11
203.4151816675537
 21
-226.4410038167184
 31
0.0
  0
LINE
  5
28
330
2
100
AcDbEntity
  8
ANCON-TEXT
100
AcDbLine
 10
0.9282315609134172
 20
-279.4746964022688
 30
0.0
 11
203.4151816675537
 21
-279.4746964022688
 31
0.0
  0
TEXT
  5
29
330
2
100
AcDbEntity
  8
ANCON-TEXT
100
AcDbText
 10
5.011912289704937
 20
-265.736720805878
 30
0.0
 40
5.0
  1
AND CAPABLE OF TRANSFERRING A SERVICEABILITY
  7
ROMANS
 72
     4
 11
102.3928646706573
 21
-263.236720805878
 31
0.0
100
AcDbText
  0
TEXT
  5
2A
330
2
100
AcDbEntity
  8
ANCON-TEXT
100
AcDbText
 10
4.498780359697235
 20
-245.7865156822791
 30
0.0
 40
5.0
  1
COMPRISING SLEEVE AND DOWEL COMPONENT
  7
ROMANS
 72
     4
 11
92.47497083588777
 21
-243.2865156822791
 31
0.0
100
AcDbText
  0
TEXT
  5
2B
330
2
100
AcDbEntity
  8
ANCON-TEXT
100
AcDbText
 10
5.219964765753005
 20
-235.6818033564885
 30
0.0
 40
5.0
  1
TWO PART STAINLESS STEEL SHEAR CONNECTOR
  7
ROMANS
 72
     4
 11
97.83901238480078
 21
-233.1818033564885
 31
0.0
100
AcDbText
  0
LINE
  5
2C
330
2
100
AcDbEntity
  8
ANCON-DSD
100
AcDbLine
 10
-60.07604400729383
 20
120.0227939991175
 30
0.0
 11
-60.07604400729383
 21
-119.9772060008824
 31
0.0
  0
LINE
  5
2E
330
2
100
AcDbEntity
  8
ANCON-DSD
100
AcDbLine
 10
60.07604400729405
 20
119.9999999999999
 30
0.0
 11
60.07604400729405
 21
-119.9999999999999
 31
0.0
  0
DIMENSION
  5
2F
330
2
100
AcDbEntity
  8
ANCON-DIMS
100
AcDbDimension
  2
*D0
 10
60.07604400729405
 20
-145.3054915059403
 30
0.0
 11
0.0000000000001138
 21
-143.3054915059402
 31
0.0
 71
     5
 42
-1.0
  3
1-2
100
AcDbAlignedDimension
 13
-60.07604400729383
 23
-119.9772060008824
 33
0.0
 14
60.07604400729405
 24
-119.9999999999999
 34
0.0
100
AcDbRotatedDimension
  0
DIMENSION
  5
3D
330
2
100
AcDbEntity
  8
ANCON-DIMS
100
AcDbDimension
  2
*D1
 10
117.5760440072942
 20
-176.4204712814345
 30
0.0
 11
-2.423955992705941
 21
-168.9204712814345
 31
0.0
 70
   128
 71
     5
 42
-1.0
  3
1-2
100
AcDbAlignedDimension
 13
-122.4239559927059
 23
-6.999999999999946
 33
0.0
 14
117.5760440072942
 24
-6.999999999999946
 34
0.0
100
AcDbRotatedDimension
  0
TEXT
  5
4A
330
2
100
AcDbEntity
  8
ANCON-TEXT
100
AcDbText
 10
-126.6441407299994
 20
-205.7116002654681
 30
0.0
 40
5.0
  1
SPECIFICATION BY PRODUCT
  7
ROMANS
 72
     4
 11
-73.19175977761851
 21
-203.2116002654681
 31
0.0
100
AcDbText
  0
TEXT
  5
4B
330
2
100
AcDbEntity
  8
ANCON-TEXT
100
AcDbText
 10
-126.5005041203731
 20
-235.6460547299643
 30
0.0
 40
5.0
  1
SPECIFICATION BY DESCRIPTION
  7
ROMANS
 72
     4
 11
-66.85764697751602
 21
-233.1460547299643
 31
0.0
100
AcDbText
  0
LINE
  5
4C
330
2
100
AcDbEntity
  8
ANCON-DSD
100
AcDbLine
 10
-60.07604400729383
 20
-119.9772060008824
 30
0.0
 11
60.07604400729405
 21
-119.9999999999999
 31
0.0
  0
LINE
  5
4D
330
2
100
AcDbEntity
  8
ANCON-DIMS
  6
CENTER2
100
AcDbLine
 10
-50.07604400729383
 20
-103.7270753349839
 30
0.0
 11
-50.07604400729383
 21
-116.2303064983969
 31
0.0
  0
LINE
  5
4E
330
2
100
AcDbEntity
  8
ANCON-DIMS
  6
CENTER2
100
AcDbLine
 10
-56.3276594979784
 20
-109.9776241132398
 30
0.0
 11
-43.82442851660925
 21
-109.979757720141
 31
0.0
  0
CIRCLE
  5
4F
330
2
100
AcDbEntity
  8
ANCON-DSD
100
AcDbCircle
 10
-50.07604400729383
 20
-109.9788322446194
 30
0.0
 40
2.5
  0
LINE
  5
50
330
2
100
AcDbEntity
  8
ANCON-DSD
100
AcDbLine
 10
-122.4239559927059
 20
7.98735038127853
 30
0.0
 11
-60.07604400729383
 21
8.000000000000056
 31
0.0
  0
LINE
  5
51
330
2
100
AcDbEntity
  8
ANCON-DSD
100
AcDbLine
 10
-122.4239559927059
 20
-8.012649618721461
 30
0.0
 11
-60.07604400729383
 21
-7.999999999999936
 31
0.0
  0
LINE
  5
52
330
2
100
AcDbEntity
  8
ANCON-DSD
100
AcDbLine
 10
-122.4239559927059
 20
7.98735038127853
 30
0.0
 11
-122.4239559927059
 21
-8.012649618721461
 31
0.0
  0
TEXT
  5
53
330
2
100
AcDbEntity
  8
ANCON-TEXT
100
AcDbText
 10
5.42234123430547
 20
-205.7116002654681
 30
0.0
 40
5.0
  1
STAIFIX DSD ??
  7
ROMANS
 72
     4
 11
34.94615075811501
 21
-203.2116002654681
 31
0.0
100
AcDbText
  0
LINE
  5
54
330
2
100
AcDbEntity
  8
ANCON-TEXT
100
AcDbLine
 10
0.9282315609134172
 20
-208.9924654416259
 30
0.0
 11
68.51808248367532
 21
-208.9924654416259
 31
0.0
  0
LINE
  5
55
330
2
100
AcDbEntity
  8
ANCON-TEXT
100
AcDbLine
 10
0.9282315609134172
 20
-197.0744901496247
 30
0.0
 11
68.51808248367532
 21
-197.0744901496247
 31
0.0
  0
TEXT
  5
56
330
2
100
AcDbEntity
  8
ANCON-TEXT
100
AcDbText
 10
6.197693046048016
 20
-275.7716459708402
 30
0.0
 40
5.0
  1
LOAD OF ??? kN
  7
ROMANS
 72
     4
 11
38.81674066509564
 21
-273.2716459708402
 31
0.0
100
AcDbText
  0
LINE
  5
57
330
2
100
AcDbEntity
  8
ANCON-TEXT
100
AcDbLine
 10
0.9282315609134172
 20
-226.4410038167184
 30
0.0
 11
0.9282315609134172
 21
-279.4746964022688
 31
0.0
  0
LINE
  5
58
330
2
100
AcDbEntity
  8
ANCON-TEXT
100
AcDbLine
 10
0.9282315609134172
 20
-197.0744901496247
 30
0.0
 11
0.9282315609134172
 21
-208.9924654416259
 31
0.0
  0
LINE
  5
59
330
2
100
AcDbEntity
  8
ANCON-TEXT
100
AcDbLine
 10
68.51808248367532
 20
-197.0744901496247
 30
0.0
 11
68.51808248367532
 21
-208.9924654416259
 31
0.0
  0
LINE
  5
5A
330
2
100
AcDbEntity
  8
ANCON-DIMS
  6
CENTER2
100
AcDbLine
 10
43.82442851660971
 20
-109.9981273995156
 30
0.0
 11
56.32765949797795
 21
-110.0002610064169
 31
0.0
  0
CIRCLE
  5
5B
330
2
100
AcDbEntity
  8
ANCON-DSD
100
AcDbCircle
 10
50.07604400729405
 20
-109.998373491753
 30
0.0
 40
2.5
  0
LINE
  5
5C
330
2
100
AcDbEntity
  8
ANCON-DIMS
  6
CENTER2
100
AcDbLine
 10
0.0
 20
-22.94235838973106
 30
0.0
 11
0.0
 21
-96.28760984672663
 31
0.0
  0
CIRCLE
  5
5D
330
2
100
AcDbEntity
  8
ANCON-DSD
100
AcDbCircle
 10
0.0
 20
-59.99999999999996
 30
0.0
 40
24.15
  0
CIRCLE
  5
5E
330
2
100
AcDbEntity
  8
ANCON-DSD
100
AcDbCircle
 10
0.0
 20
-59.99999999999996
 30
0.0
 40
21.54999999999999
  0
LINE
  5
5F
330
2
100
AcDbEntity
  8
ANCON-DIMS
  6
CENTER2
100
AcDbLine
 10
50.07604400729428
 20
-103.7475786212598
 30
0.0
 11
50.07604400729428
 21
-116.2508097846728
 31
0.0
  0
LINE
  5
60
330
2
100
AcDbEntity
  8
ANCON-DIMS
  6
CENTER2
100
AcDbLine
 10
-31.84171977462892
 20
-59.9924641020598
 30
0.0
 11
31.84171977462892
 21
-60.00624850010409
 31
0.0
  0
LINE
  5
65
330
2
100
AcDbEntity
  8
ANCON-DSD
100
AcDbLine
 10
60.07604400729405
 20
8.000000000000049
 30
0.0
 11
117.5760440072942
 21
8.000000000000049
 31
0.0
  0
LINE
  5
66
330
2
100
AcDbEntity
  8
ANCON-DSD
100
AcDbLine
 10
60.07604400729405
 20
-7.999999999999943
 30
0.0
 11
117.5760440072942
 21
-7.999999999999943
 31
0.0
  0
LINE
  5
67
330
2
100
AcDbEntity
  8
ANCON-DSD
100
AcDbLine
 10
117.5760440072942
 20
8.000000000000049
 30
0.0
 11
117.5760440072942
 21
-7.999999999999942
 31
0.0
  0
LINE
  5
68
330
2
100
AcDbEntity
  8
ANCON-DSD
100
AcDbLine
 10
-60.07604400729383
 20
120.0227939991175
 30
0.0
 11
60.07604400729405
 21
119.9999999999999
 31
0.0
  0
LINE
  5
69
330
2
100
AcDbEntity
  8
ANCON-DIMS
  6
CENTER2
100
AcDbLine
 10
-56.32765950164958
 20
110.0225410711048
 30
0.0
 11
-43.82442851293854
 21
110.0204509324279
 31
0.0
  0
LINE
  5
6A
330
2
100
AcDbEntity
  8
ANCON-DIMS
  6
CENTER2
100
AcDbLine
 10
-50.07604400729405
 20
116.2731115834729
 30
0.0
 11
-50.07604400729405
 21
103.7698804200599
 31
0.0
  0
CIRCLE
  5
6B
330
2
100
AcDbEntity
  8
ANCON-DSD
100
AcDbCircle
 10
-50.07604400729383
 20
110.0211674908705
 30
0.0
 40
2.5
  0
LINE
  5
6C
330
2
100
AcDbEntity
  8
ANCON-DIMS
  6
CENTER2
100
AcDbLine
 10
43.82442851293854
 20
110.0024555007032
 30
0.0
 11
56.32765950164958
 21
110.0003653620263
 31
0.0
  0
CIRCLE
  5
6D
330
2
100
AcDbEntity
  8
ANCON-DSD
100
AcDbCircle
 10
50.07604400729405
 20
110.001626243737
 30
0.0
 40
2.5
  0
LINE
  5
6E
330
2
100
AcDbEntity
  8
ANCON-DIMS
  6
CENTER2
100
AcDbLine
 10
-31.84171978328186
 20
60.00684578744402
 30
0.0
 11
31.84171978328231
 21
59.99315421255606
 31
0.0
  0
CIRCLE
  5
6F
330
2
100
AcDbEntity
  8
ANCON-DSD
100
AcDbCircle
 10
0.0000000000002274
 20
60.00000000000004
 30
0.0
 40
24.15
  0
CIRCLE
  5
70
330
2
100
AcDbEntity
  8
ANCON-DSD
100
AcDbCircle
 10
0.0000000000002274
 20
60.00000000000004
 30
0.0
 40
21.54999999999999
  0
LINE
  5
71
330
2
100
AcDbEntity
  8
ANCON-DIMS
  6
CENTER2
100
AcDbLine
 10
0.0000000000002274
 20
96.84172041931121
 30
0.0
 11
0.0000000000002274
 21
23.15827958068888
 31
0.0
  0
LINE
  5
72
330
2
100
AcDbEntity
  8
ANCON-DIMS
  6
CENTER2
100
AcDbLine
 10
50.07604400729405
 20
116.2530260130712
 30
0.0
 11
50.07604400729383
 21
103.7497948496582
 31
0.0
  0
LINE
  5
73
330
2
100
AcDbEntity
  8
ANCON-TEXT
100
AcDbLine
 10
128.8523757290348
 20
117.5176545402233
 30
0.0
 11
128.8523757290348
 21
64.41940840613051
 31
0.0
  0
LINE
  5
74
330
2
100
AcDbEntity
  8
ANCON-TEXT
100
AcDbLine
 10
78.85237572903486
 20
117.5176545402233
 30
0.0
 11
78.85237572903486
 21
64.41940840613051
 31
0.0
  0
TEXT
  5
75
330
2
100
AcDbEntity
  8
ANCON-TEXT
100
AcDbText
 10
88.0949826982064
 20
75.23496549922907
 30
0.0
 40
5.0
  1
DSD150
  7
ROMANS
 72
     4
 11
102.7378398410635
 21
77.73496549922907
 31
0.0
100
AcDbText
  0
TEXT
  5
76
330
2
100
AcDbEntity
  8
ANCON-TEXT
100
AcDbText
 10
86.04475987810621
 20
107.2519383806816
 30
0.0
 40
5.0
  1
DSD REF:
  7
ROMANS
 72
     4
 11
104.0209503542967
 21
109.7519383806816
 31
0.0
100
AcDbText
  0
LINE
  5
77
330
2
100
AcDbEntity
  8
ANCON-TEXT
100
AcDbLine
 10
203.4151816675537
 20
-226.4410038167184
 30
0.0
 11
203.4151816675537
 21
-279.4746964022688
 31
0.0
  0
TEXT
  5
78
330
2
100
AcDbEntity
  8
ANCON-TEXT
100
AcDbText
 10
197.9759350791587
 20
96.31348993923493
 30
0.0
 40
5.0
  1
LOAD ( kN )
  7
ROMANS
 72
     4
 11
222.7378398410635
 21
98.45634708209207
 31
0.0
100
AcDbText
  0
TEXT
  5
79
330
2
100
AcDbEntity
  8
ANCON-TEXT
100
AcDbText
 10
194.8806969839206
 20
107.2567688778132
 30
0.0
 40
5.0
  1
SERVICEABILITY
  7
ROMANS
 72
     4
 11
222.7378398410635
 21
109.7567688778132
 31
0.0
100
AcDbText
  0
TEXT
  5
7A
330
2
100
AcDbEntity
  8
ANCON-TEXT
100
AcDbText
 10
216.3092684124921
 20
75.23496549922907
 30
0.0
 40
5.0
  1
???
  7
ROMANS
 72
     4
 11
222.7378398410635
 21
77.73496549922907
 31
0.0
100
AcDbText
  0
TEXT
  5
7B
330
2
100
AcDbEntity
  8
ANCON-TEXT
100
AcDbText
 10
149.4322345701142
 20
96.35431499306276
 30
0.0
 40
5.0
  1
WIDTH
  7
ROMANS
 72
     4
 11
160.0274726653523
 21
98.85431499306276
 31
0.0
100
AcDbText
  0
LINE
  5
7C
330
2
100
AcDbEntity
  8
ANCON-TEXT
100
AcDbLine
 10
189.3604692860977
 20
117.5176545402233
 30
0.0
 11
189.3604692860977
 21
64.41940840613051
 31
0.0
  0
TEXT
  5
7D
330
2
100
AcDbEntity
  8
ANCON-TEXT
100
AcDbText
 10
150.3568874601111
 20
75.23496549922907
 30
0.0
 40
5.0
  1
?? MM
  7
ROMANS
 72
     4
 11
162.7378398410635
 21
77.73496549922907
 31
0.0
100
AcDbText
  0
LINE
  5
7E
330
2
100
AcDbEntity
  8
ANCON-TEXT
100
AcDbLine
 10
254.2310534208973
 20
117.5176545402233
 30
0.0
 11
254.2310534208973
 21
64.41940840613051
 31
0.0
  0
ENDSEC
  0
SECTION
  2
OBJECTS
  0
DICTIONARY
  5
1A
330
0
100
AcDbDictionary
281
     1
  3
ACAD_GROUP
350
18
  3
ACAD_LAYOUT
350
82
  3
ACAD_MLINESTYLE
350
19
  3
ACAD_PLOTSETTINGS
350
83
  3
ACAD_PLOTSTYLENAME
350
80
  0
DICTIONARY
  5
18
102
{ACAD_REACTORS
330
1A
102
}
330
1A
100
AcDbDictionary
281
     1
  0
DICTIONARY
  5
82
102
{ACAD_REACTORS
330
1A
102
}
330
1A
100
AcDbDictionary
281
     1
  3
Layout1
350
85
  3
Model
350
84
  0
DICTIONARY
  5
19
102
{ACAD_REACTORS
330
1A
102
}
330
1A
100
AcDbDictionary
281
     1
  3
STANDARD
350
1C
  0
DICTIONARY
  5
83
102
{ACAD_REACTORS
330
1A
102
}
330
1A
100
AcDbDictionary
281
     1
  0
ACDBDICTIONARYWDFLT
  5
80
102
{ACAD_REACTORS
330
1A
102
}
330
1A
100
AcDbDictionary
281
     1
  3
Normal
350
81
100
AcDbDictionaryWithDefault
340
81
  0
LAYOUT
  5
85
102
{ACAD_REACTORS
330
82
102
}
330
82
100
AcDbPlotSettings
  1

  2
Ancon 2
  4

  6

 40
0.0
 41
0.0
 42
0.0
 43
0.0
 44
0.0
 45
0.0
 46
0.0
 47
0.0
 48
0.0
 49
0.0
140
0.0
141
0.0
142
1.0
143
1.0
 70
   688
 72
     0
 73
     0
 74
     5
  7

 75
    16
147
1.0
148
0.0
149
0.0
100
AcDbLayout
  1
Layout1
 70
     1
 71
     1
 10
0.0
 20
0.0
 11
420.0
 21
297.0
 12
0.0
 22
0.0
 32
0.0
 14
1.000000000000000E+20
 24
1.000000000000000E+20
 34
1.000000000000000E+20
 15
-1.000000000000000E+20
 25
-1.000000000000000E+20
 35
-1.000000000000000E+20
146
0.0
 13
0.0
 23
0.0
 33
0.0
 16
1.0
 26
0.0
 36
0.0
 17
0.0
 27
1.0
 37
0.0
 76
     0
330
7
  0
LAYOUT
  5
84
102
{ACAD_REACTORS
330
82
102
}
330
82
100
AcDbPlotSettings
  1

  2
Ancon 2
  4

  6

 40
0.0
 41
0.0
 42
0.0
 43
0.0
 44
0.0
 45
0.0
 46
0.0
 47
0.0
 48
0.0
 49
0.0
140
0.0
141
0.0
142
1.0
143
1.0
 70
  1712
 72
     0
 73
     0
 74
     0
  7

 75
     0
147
1.0
148
0.0
149
0.0
100
AcDbLayout
  1
Model
 70
     1
 71
     0
 10
0.0
 20
0.0
 11
12.0
 21
9.0
 12
0.0
 22
0.0
 32
0.0
 14
0.0
 24
0.0
 34
0.0
 15
0.0
 25
0.0
 35
0.0
146
0.0
 13
0.0
 23
0.0
 33
0.0
 16
1.0
 26
0.0
 36
0.0
 17
0.0
 27
1.0
 37
0.0
 76
     0
330
2
  0
MLINESTYLE
  5
1C
102
{ACAD_REACTORS
330
19
102
}
330
19
100
AcDbMlineStyle
  2
STANDARD
 70
     0
  3

 62
   256
 51
90.0
 52
90.0
 71
     2
 49
0.5
 62
   256
  6
BYLAYER
 49
-0.5
 62
   256
  6
BYLAYER
  0
ACDBPLACEHOLDER
  5
81
102
{ACAD_REACTORS
330
80
102
}
330
80
  0
ENDSEC
  0
EOF
