  0
SECTION
  2
HEADER
  9
$ACADVER
  1
AC1015
  9
$ACADMAINTVER
 70
    10
  9
$DWGCODEPAGE
  3
ANSI_1252
  9
$INSBASE
 10
0.0
 20
0.0
 30
0.0
  9
$EXTMIN
 10
-319.9999999999999
 20
-240.2819189242553
 30
0.0
  9
$EXTMAX
 10
422.5398490803475
 20
229.2089229068678
 30
0.0
  9
$LIMMIN
 10
0.0
 20
0.0
  9
$LIMMAX
 10
420.0
 20
297.0
  9
$ORTHOMODE
 70
     1
  9
$REGENMODE
 70
     1
  9
$FILLMODE
 70
     1
  9
$QTEXTMODE
 70
     0
  9
$MIRRTEXT
 70
     1
  9
$LTSCALE
 40
0.25
  9
$ATTMODE
 70
     1
  9
$TEXTSIZE
 40
5.0
  9
$TRACEWID
 40
10.0
  9
$TEXTSTYLE
  7
ROMANS
  9
$CLAYER
  8
ANCON-DSD
  9
$CELTYPE
  6
ByLayer
  9
$CECOLOR
 62
   256
  9
$CELTSCALE
 40
1.0
  9
$DISPSILH
 70
     0
  9
$DIMSCALE
 40
2.0
  9
$DIMASZ
 40
2.0
  9
$DIMEXO
 40
4.5
  9
$DIMDLI
 40
0.0
  9
$DIMRND
 40
1.0
  9
$DIMDLE
 40
0.0
  9
$DIMEXE
 40
1.5
  9
$DIMTP
 40
0.0
  9
$DIMTM
 40
0.0
  9
$DIMTXT
 40
1.8
  9
$DIMCEN
 40
0.0
  9
$DIMTSZ
 40
0.0
  9
$DIMTOL
 70
     0
  9
$DIMLIM
 70
     0
  9
$DIMTIH
 70
     0
  9
$DIMTOH
 70
     0
  9
$DIMSE1
 70
     0
  9
$DIMSE2
 70
     0
  9
$DIMTAD
 70
     1
  9
$DIMZIN
 70
    12
  9
$DIMBLK
  1

  9
$DIMASO
 70
     1
  9
$DIMSHO
 70
     0
  9
$DIMPOST
  1

  9
$DIMAPOST
  1

  9
$DIMALT
 70
     0
  9
$DIMALTD
 70
     0
  9
$DIMALTF
 40
25.4
  9
$DIMLFAC
 40
1.0
  9
$DIMTOFL
 70
     0
  9
$DIMTVP
 40
0.0
  9
$DIMTIX
 70
     0
  9
$DIMSOXD
 70
     0
  9
$DIMSAH
 70
     0
  9
$DIMBLK1
  1

  9
$DIMBLK2
  1

  9
$DIMSTYLE
  2
1-2
  9
$DIMCLRD
 70
     0
  9
$DIMCLRE
 70
     0
  9
$DIMCLRT
 70
     0
  9
$DIMTFAC
 40
1.25
  9
$DIMGAP
 40
0.1
  9
$DIMJUST
 70
     0
  9
$DIMSD1
 70
     0
  9
$DIMSD2
 70
     0
  9
$DIMTOLJ
 70
     1
  9
$DIMTZIN
 70
    12
  9
$DIMALTZ
 70
    12
  9
$DIMALTTZ
 70
    12
  9
$DIMUPT
 70
     0
  9
$DIMDEC
 70
     2
  9
$DIMTDEC
 70
     2
  9
$DIMALTU
 70
     2
  9
$DIMALTTD
 70
     0
  9
$DIMTXSTY
  7
STANDARD
  9
$DIMAUNIT
 70
     0
  9
$DIMADEC
 70
     0
  9
$DIMALTRND
 40
0.0
  9
$DIMAZIN
 70
     0
  9
$DIMDSEP
 70
    46
  9
$DIMATFIT
 70
     3
  9
$DIMFRAC
 70
     0
  9
$DIMLDRBLK
  1

  9
$DIMLUNIT
 70
     2
  9
$DIMLWD
 70
    -2
  9
$DIMLWE
 70
    -2
  9
$DIMTMOVE
 70
     2
  9
$LUNITS
 70
     2
  9
$LUPREC
 70
     2
  9
$SKETCHINC
 40
1.0
  9
$FILLETRAD
 40
0.0
  9
$AUNITS
 70
     0
  9
$AUPREC
 70
     4
  9
$MENU
  1
acad
  9
$ELEVATION
 40
0.0
  9
$PELEVATION
 40
0.0
  9
$THICKNESS
 40
0.0
  9
$LIMCHECK
 70
     0
  9
$CHAMFERA
 40
0.0
  9
$CHAMFERB
 40
0.0
  9
$CHAMFERC
 40
0.0
  9
$CHAMFERD
 40
0.0
  9
$SKPOLY
 70
     0
  9
$TDCREATE
 40
2449527.571155092
  9
$TDUCREATE
 40
2449527.529488425
  9
$TDUPDATE
 40
2452498.532508333
  9
$TDUUPDATE
 40
2452498.490841666
  9
$TDINDWG
 40
0.3418223032
  9
$TDUSRTIMER
 40
0.3418223032
  9
$USRTIMER
 70
     1
  9
$ANGBASE
 50
0.0
  9
$ANGDIR
 70
     0
  9
$PDMODE
 70
     0
  9
$PDSIZE
 40
0.0
  9
$PLINEWID
 40
0.0
  9
$SPLFRAME
 70
     0
  9
$SPLINETYPE
 70
     6
  9
$SPLINESEGS
 70
     8
  9
$HANDSEED
  5
18D
  9
$SURFTAB1
 70
    18
  9
$SURFTAB2
 70
    18
  9
$SURFTYPE
 70
     6
  9
$SURFU
 70
    18
  9
$SURFV
 70
    18
  9
$UCSBASE
  2

  9
$UCSNAME
  2

  9
$UCSORG
 10
0.0
 20
0.0
 30
0.0
  9
$UCSXDIR
 10
1.0
 20
0.0
 30
0.0
  9
$UCSYDIR
 10
0.0
 20
1.0
 30
0.0
  9
$UCSORTHOREF
  2

  9
$UCSORTHOVIEW
 70
     0
  9
$UCSORGTOP
 10
0.0
 20
0.0
 30
0.0
  9
$UCSORGBOTTOM
 10
0.0
 20
0.0
 30
0.0
  9
$UCSORGLEFT
 10
0.0
 20
0.0
 30
0.0
  9
$UCSORGRIGHT
 10
0.0
 20
0.0
 30
0.0
  9
$UCSORGFRONT
 10
0.0
 20
0.0
 30
0.0
  9
$UCSORGBACK
 10
0.0
 20
0.0
 30
0.0
  9
$PUCSBASE
  2

  9
$PUCSNAME
  2

  9
$PUCSORG
 10
0.0
 20
0.0
 30
0.0
  9
$PUCSXDIR
 10
1.0
 20
0.0
 30
0.0
  9
$PUCSYDIR
 10
0.0
 20
1.0
 30
0.0
  9
$PUCSORTHOREF
  2

  9
$PUCSORTHOVIEW
 70
     0
  9
$PUCSORGTOP
 10
0.0
 20
0.0
 30
0.0
  9
$PUCSORGBOTTOM
 10
0.0
 20
0.0
 30
0.0
  9
$PUCSORGLEFT
 10
0.0
 20
0.0
 30
0.0
  9
$PUCSORGRIGHT
 10
0.0
 20
0.0
 30
0.0
  9
$PUCSORGFRONT
 10
0.0
 20
0.0
 30
0.0
  9
$PUCSORGBACK
 10
0.0
 20
0.0
 30
0.0
  9
$USERI1
 70
     0
  9
$USERI2
 70
     0
  9
$USERI3
 70
     0
  9
$USERI4
 70
     0
  9
$USERI5
 70
     0
  9
$USERR1
 40
0.0
  9
$USERR2
 40
0.0
  9
$USERR3
 40
0.0
  9
$USERR4
 40
0.0
  9
$USERR5
 40
0.0
  9
$WORLDVIEW
 70
     1
  9
$SHADEDGE
 70
     3
  9
$SHADEDIF
 70
    70
  9
$TILEMODE
 70
     1
  9
$MAXACTVP
 70
    16
  9
$PINSBASE
 10
0.0
 20
0.0
 30
0.0
  9
$PLIMCHECK
 70
     0
  9
$PEXTMIN
 10
1.614583349603368
 20
1.129749872553066
 30
0.0
  9
$PEXTMAX
 10
14.5312501464303
 20
10.1677488529776
 30
0.0
  9
$PLIMMIN
 10
-0.1979161059762549
 20
-0.1979166691697489
  9
$PLIMMAX
 10
16.34375024029589
 20
11.49541603298637
  9
$UNITMODE
 70
     0
  9
$VISRETAIN
 70
     0
  9
$PLINEGEN
 70
     0
  9
$PSLTSCALE
 70
     1
  9
$TREEDEPTH
 70
  3020
  9
$CMLSTYLE
  2
Standard
  9
$CMLJUST
 70
     0
  9
$CMLSCALE
 40
1.0
  9
$PROXYGRAPHICS
 70
     1
  9
$MEASUREMENT
 70
     0
  9
$CELWEIGHT
370
    -1
  9
$ENDCAPS
280
     0
  9
$JOINSTYLE
280
     0
  9
$LWDISPLAY
290
     0
  9
$INSUNITS
 70
     0
  9
$HYPERLINKBASE
  1

  9
$STYLESHEET
  1

  9
$XEDIT
290
     1
  9
$CEPSNTYPE
380
     0
  9
$PSTYLEMODE
290
     1
  9
$FINGERPRINTGUID
  2
{CA38A4E4-246D-413C-B7CE-968D41841B5D}
  9
$VERSIONGUID
  2
{627E27FD-AD1D-11D6-AAC6-0010A4A25215}
  9
$EXTNAMES
290
     1
  9
$PSVPSCALE
 40
0.0
  9
$OLESTARTUP
290
     0
  0
ENDSEC
  0
SECTION
  2
CLASSES
  0
CLASS
  1
ACDBDICTIONARYWDFLT
  2
AcDbDictionaryWithDefault
  3
AutoCAD 2000
 90
        0
280
     1
281
     0
  0
CLASS
  1
ACDBPLACEHOLDER
  2
AcDbPlaceHolder
  3
AutoCAD 2000
 90
        0
280
     1
281
     0
  0
CLASS
  1
LAYOUT
  2
AcDbLayout
  3
AutoCAD 2000
 90
        0
280
     1
281
     0
  0
CLASS
  1
LONG_TRANSACTION
  2
AcDbLongTransaction
  3
AutoCAD 2000
 90
    32768
280
     1
281
     0
  0
CLASS
  1
LWPOLYLINE
  2
AcDbPolyline
  3
AutoCAD 2000
 90
    32768
280
     0
281
     1
  0
CLASS
  1
HATCH
  2
AcDbHatch
  3
AutoCAD 2000
 90
    32768
280
     0
281
     1
  0
CLASS
  1
XRECORD
  2
AcDbXrecord
  3
AutoCAD 2000
 90
    32768
280
     0
281
     0
  0
CLASS
  1
LONG_TRANSACTION
  2
AcDbLongTransaction
  3
AutoCAD 2000
 90
    32768
280
     0
281
     0
  0
CLASS
  1
LWPOLYLINE
  2
AcDbPolyline
  3
AutoCAD 2000
 90
    32768
280
     0
281
     1
  0
CLASS
  1
HATCH
  2
AcDbHatch
  3
AutoCAD 2000
 90
    32768
280
     0
281
     1
  0
CLASS
  1
XRECORD
  2
AcDbXrecord
  3
AutoCAD 2000
 90
    32768
280
     0
281
     0
  0
ENDSEC
  0
SECTION
  2
TABLES
  0
TABLE
  2
VPORT
  5
1C
330
0
100
AcDbSymbolTable
 70
     3
  0
VPORT
  5
18C
330
1C
100
AcDbSymbolTableRecord
100
AcDbViewportTableRecord
  2
*Active
 70
     0
 10
0.0
 20
0.0
 11
1.0
 21
1.0
 12
175.9273087913677
 22
-17.38943838998852
 13
0.0
 23
0.0
 14
5.0
 24
5.0
 15
10.0
 25
10.0
 16
0.0
 26
0.0
 36
1.0
 17
0.0
 27
0.0
 37
0.0
 40
683.3317444640401
 41
1.760948905109489
 42
50.0
 43
0.0
 44
0.0
 50
0.0
 51
0.0
 71
     0
 72
   100
 73
     1
 74
     1
 75
     0
 76
     0
 77
     0
 78
     0
281
     0
 65
     1
110
0.0
120
0.0
130
0.0
111
1.0
121
0.0
131
0.0
112
0.0
122
1.0
132
0.0
 79
     0
146
0.0
  0
ENDTAB
  0
TABLE
  2
LTYPE
  5
13
330
0
100
AcDbSymbolTable
 70
     2
  0
LTYPE
  5
14
330
13
100
AcDbSymbolTableRecord
100
AcDbLinetypeTableRecord
  2
ByBlock
 70
     0
  3

 72
    65
 73
     0
 40
0.0
  0
LTYPE
  5
17
330
13
100
AcDbSymbolTableRecord
100
AcDbLinetypeTableRecord
  2
ByLayer
 70
     0
  3

 72
    65
 73
     0
 40
0.0
  0
LTYPE
  5
8
330
13
100
AcDbSymbolTableRecord
100
AcDbLinetypeTableRecord
  2
CONTINUOUS
 70
     0
  3
Solid line
 72
    65
 73
     0
 40
0.0
  0
LTYPE
  5
60
330
13
100
AcDbSymbolTableRecord
100
AcDbLinetypeTableRecord
  2
CENTER2
 70
     0
  3
___ _ ___ _ ___ _ ___ _ ___ _ ___ _ ___ _ ___ _
 72
    65
 73
     4
 40
28.57499999999999
 49
19.05
 74
     0
 49
-3.174999999999999
 74
     0
 49
3.174999999999999
 74
     0
 49
-3.174999999999999
 74
     0
  0
ENDTAB
  0
TABLE
  2
LAYER
  5
10
330
0
100
AcDbSymbolTable
 70
     7
  0
LAYER
  5
7
330
10
100
AcDbSymbolTableRecord
100
AcDbLayerTableRecord
  2
0
 70
     0
 62
     7
  6
CONTINUOUS
370
    -3
390
149
  0
LAYER
  5
27
330
10
100
AcDbSymbolTableRecord
100
AcDbLayerTableRecord
  2
ANCON-DSD
 70
     0
 62
     3
  6
CONTINUOUS
370
    -3
390
149
  0
LAYER
  5
3D
330
10
100
AcDbSymbolTableRecord
100
AcDbLayerTableRecord
  2
DEFPOINTS
 70
     0
 62
     7
  6
CONTINUOUS
290
     0
370
    -3
390
149
  0
LAYER
  5
31
330
10
100
AcDbSymbolTableRecord
100
AcDbLayerTableRecord
  2
ANCON-DIMS
 70
     0
 62
     1
  6
CONTINUOUS
370
    -3
390
149
  0
LAYER
  5
70
330
10
100
AcDbSymbolTableRecord
100
AcDbLayerTableRecord
  2
ANCON-CONCRETE
 70
     0
 62
     2
  6
CONTINUOUS
370
    -3
390
149
  0
LAYER
  5
5F
330
10
100
AcDbSymbolTableRecord
100
AcDbLayerTableRecord
  2
ANCON-GRID
 70
     0
 62
     1
  6
CONTINUOUS
370
    -3
390
149
  0
LAYER
  5
2E
330
10
100
AcDbSymbolTableRecord
100
AcDbLayerTableRecord
  2
ANCON-TEXT
 70
     0
 62
     6
  6
CONTINUOUS
370
    -3
390
149
  0
ENDTAB
  0
TABLE
  2
STYLE
  5
11
330
0
100
AcDbSymbolTable
 70
     2
  0
STYLE
  5
12
330
11
100
AcDbSymbolTableRecord
100
AcDbTextStyleTableRecord
  2
STANDARD
 70
     0
 40
0.0
 41
1.0
 50
0.0
 71
     0
 42
6.0
  3
txt.shx
  4

  0
STYLE
  5
28
330
11
100
AcDbSymbolTableRecord
100
AcDbTextStyleTableRecord
  2
ROMANS
 70
     0
 40
0.0
 41
1.0
 50
0.0
 71
     0
 42
5.0
  3
romans
  4

  0
ENDTAB
  0
TABLE
  2
VIEW
  5
1A
330
0
100
AcDbSymbolTable
 70
     0
  0
ENDTAB
  0
TABLE
  2
UCS
  5
1B
330
0
100
AcDbSymbolTable
 70
     0
  0
ENDTAB
  0
TABLE
  2
APPID
  5
1E
330
0
100
AcDbSymbolTable
 70
     1
  0
APPID
  5
1F
330
1E
100
AcDbSymbolTableRecord
100
AcDbRegAppTableRecord
  2
ACAD
 70
     0
  0
ENDTAB
  0
TABLE
  2
DIMSTYLE
  5
20
330
0
100
AcDbSymbolTable
 70
     2
100
AcDbDimStyleTable
 71
     0
  0
DIMSTYLE
105
2A
330
20
100
AcDbSymbolTableRecord
100
AcDbDimStyleTableRecord
  2
1-2
 70
     0
 40
2.0
 41
2.0
 42
4.5
 43
0.0
 44
1.5
 45
1.0
 73
     0
 74
     0
 77
     1
 78
    12
140
1.8
141
0.0
146
1.25
147
0.1
171
     0
271
     2
272
     2
274
     0
279
     2
284
    12
285
    12
286
    12
340
12
  0
DIMSTYLE
105
32
102
{ACAD_REACTORS
330
136
330
115
330
103
330
F6
330
C9
330
BB
330
AE
330
A1
330
93
330
81
330
51
330
44
330
30
102
}
330
20
100
AcDbSymbolTableRecord
100
AcDbDimStyleTableRecord
  2
1-1
 70
     0
 40
0.0
 41
2.0
 42
4.5
 43
10.0
 44
1.5
 46
1.25
 73
     0
 74
     0
 77
     1
 78
    12
140
3.0
141
-3.0
143
0.039
146
0.75
147
1.5
271
     2
272
     2
279
     2
284
    12
285
    12
286
    12
340
12
  0
ENDTAB
  0
TABLE
  2
BLOCK_RECORD
  5
1
330
0
100
AcDbSymbolTable
 70
    13
  0
BLOCK_RECORD
  5
2
102
{ACAD_XDICTIONARY
360
3
102
}
330
1
100
AcDbSymbolTableRecord
100
AcDbBlockTableRecord
  2
*Model_Space
340
14C
  0
BLOCK_RECORD
  5
A
102
{ACAD_XDICTIONARY
360
B
102
}
330
1
100
AcDbSymbolTableRecord
100
AcDbBlockTableRecord
  2
*Paper_Space
340
14D
  0
BLOCK_RECORD
  5
35
330
1
100
AcDbSymbolTableRecord
100
AcDbBlockTableRecord
  2
*D0
340
0
  0
BLOCK_RECORD
  5
45
330
1
100
AcDbSymbolTableRecord
100
AcDbBlockTableRecord
  2
*D1
340
0
  0
BLOCK_RECORD
  5
52
330
1
100
AcDbSymbolTableRecord
100
AcDbBlockTableRecord
  2
*D2
340
0
  0
BLOCK_RECORD
  5
82
330
1
100
AcDbSymbolTableRecord
100
AcDbBlockTableRecord
  2
*D3
340
0
  0
BLOCK_RECORD
  5
94
330
1
100
AcDbSymbolTableRecord
100
AcDbBlockTableRecord
  2
*D4
340
0
  0
BLOCK_RECORD
  5
A2
330
1
100
AcDbSymbolTableRecord
100
AcDbBlockTableRecord
  2
*D5
340
0
  0
BLOCK_RECORD
  5
AF
330
1
100
AcDbSymbolTableRecord
100
AcDbBlockTableRecord
  2
*D6
340
0
  0
BLOCK_RECORD
  5
BC
330
1
100
AcDbSymbolTableRecord
100
AcDbBlockTableRecord
  2
*D7
340
0
  0
BLOCK_RECORD
  5
CA
330
1
100
AcDbSymbolTableRecord
100
AcDbBlockTableRecord
  2
*D8
340
0
  0
BLOCK_RECORD
  5
F7
330
1
100
AcDbSymbolTableRecord
100
AcDbBlockTableRecord
  2
*D9
340
0
  0
BLOCK_RECORD
  5
104
330
1
100
AcDbSymbolTableRecord
100
AcDbBlockTableRecord
  2
*D10
340
0
  0
BLOCK_RECORD
  5
116
330
1
100
AcDbSymbolTableRecord
100
AcDbBlockTableRecord
  2
*D11
340
0
  0
BLOCK_RECORD
  5
137
330
1
100
AcDbSymbolTableRecord
100
AcDbBlockTableRecord
  2
*D12
340
0
  0
ENDTAB
  0
ENDSEC
  0
SECTION
  2
BLOCKS
  0
BLOCK
  5
6
330
2
100
AcDbEntity
  8
0
100
AcDbBlockBegin
  2
*Model_Space
 70
     0
 10
0.0
 20
0.0
 30
0.0
  3
*Model_Space
  1

  0
ENDBLK
  5
9
330
2
100
AcDbEntity
  8
0
100
AcDbBlockEnd
  0
BLOCK
  5
E
330
A
100
AcDbEntity
 67
     1
  8
0
100
AcDbBlockBegin
  2
*Paper_Space
 70
     0
 10
0.0
 20
0.0
 30
0.0
  3
*Paper_Space
  1

  0
ENDBLK
  5
F
330
A
100
AcDbEntity
 67
     1
  8
0
100
AcDbBlockEnd
  0
BLOCK
  5
42
330
35
100
AcDbEntity
  8
0
100
AcDbBlockBegin
  2
*D0
 70
     1
 10
0.0
 20
0.0
 30
0.0
  3
*D0
  1

  0
LINE
  5
36
330
35
100
AcDbEntity
  8
0
  6
ByBlock
 62
     0
100
AcDbLine
 10
-0.0000000000000003
 20
-124.65
 30
0.0
 11
-0.0000000000000056
 21
-210.9159629129247
 31
0.0
  0
LINE
  5
37
330
35
100
AcDbEntity
  8
0
  6
ByBlock
 62
     0
100
AcDbLine
 10
290.0
 20
-88.65000000000003
 30
0.0
 11
290.0
 21
-210.9159629129247
 31
0.0
  0
LINE
  5
38
330
35
100
AcDbEntity
  8
0
  6
ByBlock
 62
     0
100
AcDbLine
 10
1.999999999999994
 20
-209.4159629129247
 30
0.0
 11
288.0
 21
-209.4159629129247
 31
0.0
  0
SOLID
  5
39
330
35
100
AcDbEntity
  8
0
  6
ByBlock
 62
     0
100
AcDbTrace
 10
1.999999999999994
 20
-209.0826295795913
 30
0.0
 11
1.999999999999994
 21
-209.749296246258
 31
0.0
 12
-0.0000000000000055
 22
-209.4159629129247
 32
0.0
 13
-0.0000000000000055
 23
-209.4159629129247
 33
0.0
  0
SOLID
  5
3A
330
35
100
AcDbEntity
  8
0
  6
ByBlock
 62
     0
100
AcDbTrace
 10
288.0
 20
-209.0826295795913
 30
0.0
 11
288.0
 21
-209.749296246258
 31
0.0
 12
290.0
 22
-209.4159629129247
 32
0.0
 13
290.0
 23
-209.4159629129247
 33
0.0
  0
MTEXT
  5
3B
330
35
100
AcDbEntity
  8
0
  6
ByBlock
 62
     0
100
AcDbMText
 10
145.0
 20
-206.4159629129247
 30
0.0
 40
3.0
 41
0.0
 71
     5
 72
     1
  1
\A1;290
 73
     1
 44
1.0
1001
ACAD
1000
MTEXTBEGIN
1070
    73
1070
     1
1070
    44
1040
1.0
1070
    74
1070
     0
1000
MTEXTEND
  0
POINT
  5
3C
330
35
100
AcDbEntity
  8
DEFPOINTS
  6
ByBlock
 62
     0
100
AcDbPoint
 10
0.0
 20
-120.15
 30
0.0
  0
POINT
  5
40
330
35
100
AcDbEntity
  8
DEFPOINTS
  6
ByBlock
 62
     0
100
AcDbPoint
 10
290.0
 20
-84.15000000000004
 30
0.0
  0
POINT
  5
41
330
35
100
AcDbEntity
  8
DEFPOINTS
  6
ByBlock
 62
     0
100
AcDbPoint
 10
290.0
 20
-209.4159629129247
 30
0.0
  0
ENDBLK
  5
43
330
35
100
AcDbEntity
  8
0
100
AcDbBlockEnd
  0
BLOCK
  5
4F
330
45
100
AcDbEntity
  8
0
100
AcDbBlockBegin
  2
*D1
 70
     1
 10
0.0
 20
0.0
 30
0.0
  3
*D1
  1

  0
LINE
  5
46
330
45
100
AcDbEntity
  8
0
  6
ByBlock
 62
     0
100
AcDbLine
 10
8.5
 20
-120.15
 30
0.0
 11
422.5398490803475
 21
-120.15
 31
0.0
  0
LINE
  5
47
330
45
100
AcDbEntity
  8
0
  6
ByBlock
 62
     0
100
AcDbLine
 10
8.5
 20
120.15
 30
0.0
 11
422.5398490803475
 21
120.1499999999999
 31
0.0
  0
LINE
  5
48
330
45
100
AcDbEntity
  8
0
  6
ByBlock
 62
     0
100
AcDbLine
 10
421.0398490803474
 20
-118.15
 30
0.0
 11
421.0398490803474
 21
118.1499999999999
 31
0.0
  0
SOLID
  5
49
330
45
100
AcDbEntity
  8
0
  6
ByBlock
 62
     0
100
AcDbTrace
 10
420.7065157470141
 20
-118.15
 30
0.0
 11
421.3731824136807
 21
-118.15
 31
0.0
 12
421.0398490803474
 22
-120.15
 32
0.0
 13
421.0398490803474
 23
-120.15
 33
0.0
  0
SOLID
  5
4A
330
45
100
AcDbEntity
  8
0
  6
ByBlock
 62
     0
100
AcDbTrace
 10
420.7065157470141
 20
118.1499999999999
 30
0.0
 11
421.3731824136807
 21
118.1499999999999
 31
0.0
 12
421.0398490803474
 22
120.1499999999999
 32
0.0
 13
421.0398490803474
 23
120.1499999999999
 33
0.0
  0
MTEXT
  5
4B
330
45
100
AcDbEntity
  8
0
  6
ByBlock
 62
     0
100
AcDbMText
 10
418.0398490803474
 20
-0.0000000000000538
 30
0.0
 40
3.0
 41
0.0
 71
     5
 72
     1
  1
\A1;240
 11
0.0000000000000001
 21
1.0
 31
0.0
 73
     1
 44
1.0
1001
ACAD
1000
MTEXTBEGIN
1070
    73
1070
     1
1070
    44
1040
1.0
1070
    74
1070
     0
1000
MTEXTEND
  0
POINT
  5
4C
330
45
100
AcDbEntity
  8
DEFPOINTS
  6
ByBlock
 62
     0
100
AcDbPoint
 10
3.999999999999999
 20
-120.15
 30
0.0
  0
POINT
  5
4D
330
45
100
AcDbEntity
  8
DEFPOINTS
  6
ByBlock
 62
     0
100
AcDbPoint
 10
4.0
 20
120.15
 30
0.0
  0
POINT
  5
4E
330
45
100
AcDbEntity
  8
DEFPOINTS
  6
ByBlock
 62
     0
100
AcDbPoint
 10
421.0398490803474
 20
120.1499999999999
 30
0.0
  0
ENDBLK
  5
50
330
45
100
AcDbEntity
  8
0
100
AcDbBlockEnd
  0
BLOCK
  5
5C
330
52
100
AcDbEntity
  8
0
100
AcDbBlockBegin
  2
*D2
 70
     1
 10
0.0
 20
0.0
 30
0.0
  3
*D2
  1

  0
LINE
  5
53
330
52
100
AcDbEntity
  8
0
  6
ByBlock
 62
     0
100
AcDbLine
 10
50.0
 20
-16.50000000000001
 30
0.0
 11
50.0
 21
-180.5856329850623
 31
0.0
  0
LINE
  5
54
330
52
100
AcDbEntity
  8
0
  6
ByBlock
 62
     0
100
AcDbLine
 10
104.0
 20
-16.50000000000001
 30
0.0
 11
103.9999999999999
 21
-180.5856329850623
 31
0.0
  0
LINE
  5
55
330
52
100
AcDbEntity
  8
0
  6
ByBlock
 62
     0
100
AcDbLine
 10
51.99999999999999
 20
-179.0856329850624
 30
0.0
 11
101.9999999999999
 21
-179.0856329850624
 31
0.0
  0
SOLID
  5
56
330
52
100
AcDbEntity
  8
0
  6
ByBlock
 62
     0
100
AcDbTrace
 10
51.99999999999999
 20
-178.752299651729
 30
0.0
 11
51.99999999999999
 21
-179.4189663183957
 31
0.0
 12
50.0
 22
-179.0856329850624
 32
0.0
 13
50.0
 23
-179.0856329850624
 33
0.0
  0
SOLID
  5
57
330
52
100
AcDbEntity
  8
0
  6
ByBlock
 62
     0
100
AcDbTrace
 10
101.9999999999999
 20
-178.752299651729
 30
0.0
 11
101.9999999999999
 21
-179.4189663183957
 31
0.0
 12
103.9999999999999
 22
-179.0856329850624
 32
0.0
 13
103.9999999999999
 23
-179.0856329850624
 33
0.0
  0
MTEXT
  5
58
330
52
100
AcDbEntity
  8
0
  6
ByBlock
 62
     0
100
AcDbMText
 10
76.99999999999999
 20
-176.0856329850624
 30
0.0
 40
3.0
 41
0.0
 71
     5
 72
     1
  1
\A1;54
 73
     1
 44
1.0
1001
ACAD
1000
MTEXTBEGIN
1070
    73
1070
     1
1070
    44
1040
1.0
1070
    74
1070
     0
1000
MTEXTEND
  0
POINT
  5
59
330
52
100
AcDbEntity
  8
DEFPOINTS
  6
ByBlock
 62
     0
100
AcDbPoint
 10
50.0
 20
-12.00000000000001
 30
0.0
  0
POINT
  5
5A
330
52
100
AcDbEntity
  8
DEFPOINTS
  6
ByBlock
 62
     0
100
AcDbPoint
 10
104.0
 20
-12.00000000000001
 30
0.0
  0
POINT
  5
5B
330
52
100
AcDbEntity
  8
DEFPOINTS
  6
ByBlock
 62
     0
100
AcDbPoint
 10
103.9999999999999
 20
-179.0856329850624
 30
0.0
  0
ENDBLK
  5
5D
330
52
100
AcDbEntity
  8
0
100
AcDbBlockEnd
  0
BLOCK
  5
8C
330
82
100
AcDbEntity
  8
0
100
AcDbBlockBegin
  2
*D3
 70
     1
 10
0.0
 20
0.0
 30
0.0
  3
*D3
  1

  0
LINE
  5
83
330
82
100
AcDbEntity
  8
0
  6
ByBlock
 62
     0
100
AcDbLine
 10
-309.9999999999998
 20
-83.60733408074239
 30
0.0
 11
-309.9999999999998
 21
-210.9159629129247
 31
0.0
  0
LINE
  5
84
330
82
100
AcDbEntity
  8
0
  6
ByBlock
 62
     0
100
AcDbLine
 10
-19.99999999999988
 20
-104.6073340807422
 30
0.0
 11
-19.99999999999989
 21
-210.9159629129247
 31
0.0
  0
LINE
  5
85
330
82
100
AcDbEntity
  8
0
  6
ByBlock
 62
     0
100
AcDbLine
 10
-307.9999999999998
 20
-209.4159629129247
 30
0.0
 11
-21.99999999999989
 21
-209.4159629129247
 31
0.0
  0
SOLID
  5
86
330
82
100
AcDbEntity
  8
0
  6
ByBlock
 62
     0
100
AcDbTrace
 10
-307.9999999999998
 20
-209.0826295795913
 30
0.0
 11
-307.9999999999998
 21
-209.749296246258
 31
0.0
 12
-309.9999999999998
 22
-209.4159629129247
 32
0.0
 13
-309.9999999999998
 23
-209.4159629129247
 33
0.0
  0
SOLID
  5
87
330
82
100
AcDbEntity
  8
0
  6
ByBlock
 62
     0
100
AcDbTrace
 10
-21.99999999999989
 20
-209.0826295795913
 30
0.0
 11
-21.99999999999989
 21
-209.749296246258
 31
0.0
 12
-19.99999999999989
 22
-209.4159629129247
 32
0.0
 13
-19.99999999999989
 23
-209.4159629129247
 33
0.0
  0
MTEXT
  5
88
330
82
100
AcDbEntity
  8
0
  6
ByBlock
 62
     0
100
AcDbMText
 10
-164.9999999999998
 20
-206.4159629129247
 30
0.0
 40
3.0
 41
0.0
 71
     5
 72
     1
  1
\A1;290
 73
     1
 44
1.0
1001
ACAD
1000
MTEXTBEGIN
1070
    73
1070
     1
1070
    44
1040
1.0
1070
    74
1070
     0
1000
MTEXTEND
  0
POINT
  5
89
330
82
100
AcDbEntity
  8
DEFPOINTS
  6
ByBlock
 62
     0
100
AcDbPoint
 10
-309.9999999999998
 20
-79.10733408074239
 30
0.0
  0
POINT
  5
8A
330
82
100
AcDbEntity
  8
DEFPOINTS
  6
ByBlock
 62
     0
100
AcDbPoint
 10
-19.99999999999988
 20
-100.1073340807422
 30
0.0
  0
POINT
  5
8B
330
82
100
AcDbEntity
  8
DEFPOINTS
  6
ByBlock
 62
     0
100
AcDbPoint
 10
-19.99999999999989
 20
-209.4159629129247
 30
0.0
  0
ENDBLK
  5
8D
330
82
100
AcDbEntity
  8
0
100
AcDbBlockEnd
  0
BLOCK
  5
9E
330
94
100
AcDbEntity
  8
0
100
AcDbBlockBegin
  2
*D4
 70
     1
 10
0.0
 20
0.0
 30
0.0
  3
*D4
  1

  0
LINE
  5
95
330
94
100
AcDbEntity
  8
0
  6
ByBlock
 62
     0
100
AcDbLine
 10
-19.99999999999988
 20
-104.6073340807422
 30
0.0
 11
-19.99999999999989
 21
-210.9159629129247
 31
0.0
  0
LINE
  5
96
330
94
100
AcDbEntity
  8
0
  6
ByBlock
 62
     0
100
AcDbLine
 10
-0.0000000000000003
 20
-124.65
 30
0.0
 11
-0.0000000000000056
 21
-210.9159629129247
 31
0.0
  0
LINE
  5
97
330
94
100
AcDbEntity
  8
0
  6
ByBlock
 62
     0
100
AcDbLine
 10
-17.99999999999989
 20
-209.4159629129247
 30
0.0
 11
-2.000000000000005
 21
-209.4159629129247
 31
0.0
  0
SOLID
  5
98
330
94
100
AcDbEntity
  8
0
  6
ByBlock
 62
     0
100
AcDbTrace
 10
-17.99999999999989
 20
-209.0826295795913
 30
0.0
 11
-17.99999999999989
 21
-209.749296246258
 31
0.0
 12
-19.99999999999989
 22
-209.4159629129247
 32
0.0
 13
-19.99999999999989
 23
-209.4159629129247
 33
0.0
  0
SOLID
  5
99
330
94
100
AcDbEntity
  8
0
  6
ByBlock
 62
     0
100
AcDbTrace
 10
-2.000000000000005
 20
-209.0826295795913
 30
0.0
 11
-2.000000000000005
 21
-209.749296246258
 31
0.0
 12
-0.0000000000000055
 22
-209.4159629129247
 32
0.0
 13
-0.0000000000000055
 23
-209.4159629129247
 33
0.0
  0
MTEXT
  5
9A
330
94
100
AcDbEntity
  8
0
  6
ByBlock
 62
     0
100
AcDbMText
 10
-9.99999999999995
 20
-206.4159629129247
 30
0.0
 40
3.0
 41
0.0
 71
     5
 72
     1
  1
\A1;20
 73
     1
 44
1.0
1001
ACAD
1000
MTEXTBEGIN
1070
    73
1070
     1
1070
    44
1040
1.0
1070
    74
1070
     0
1000
MTEXTEND
  0
POINT
  5
9B
330
94
100
AcDbEntity
  8
DEFPOINTS
  6
ByBlock
 62
     0
100
AcDbPoint
 10
-19.99999999999988
 20
-100.1073340807422
 30
0.0
  0
POINT
  5
9C
330
94
100
AcDbEntity
  8
DEFPOINTS
  6
ByBlock
 62
     0
100
AcDbPoint
 10
0.0
 20
-120.15
 30
0.0
  0
POINT
  5
9D
330
94
100
AcDbEntity
  8
DEFPOINTS
  6
ByBlock
 62
     0
100
AcDbPoint
 10
-0.0000000000000055
 20
-209.4159629129247
 30
0.0
  0
ENDBLK
  5
9F
330
94
100
AcDbEntity
  8
0
100
AcDbBlockEnd
  0
BLOCK
  5
AC
330
A2
100
AcDbEntity
  8
0
100
AcDbBlockBegin
  2
*D5
 70
     1
 10
0.0
 20
0.0
 30
0.0
  3
*D5
  1

  0
LINE
  5
A3
330
A2
100
AcDbEntity
  8
0
  6
ByBlock
 62
     0
100
AcDbLine
 10
-73.99999999999983
 20
-17.00000000000014
 30
0.0
 11
-73.99999999999984
 21
-180.5856329850623
 31
0.0
  0
LINE
  5
A4
330
A2
100
AcDbEntity
  8
0
  6
ByBlock
 62
     0
100
AcDbLine
 10
-27.99999999999988
 20
-104.6073340807422
 30
0.0
 11
-27.99999999999989
 21
-180.5856329850623
 31
0.0
  0
LINE
  5
A5
330
A2
100
AcDbEntity
  8
0
  6
ByBlock
 62
     0
100
AcDbLine
 10
-71.99999999999985
 20
-179.0856329850624
 30
0.0
 11
-29.99999999999989
 21
-179.0856329850624
 31
0.0
  0
SOLID
  5
A6
330
A2
100
AcDbEntity
  8
0
  6
ByBlock
 62
     0
100
AcDbTrace
 10
-71.99999999999985
 20
-178.752299651729
 30
0.0
 11
-71.99999999999985
 21
-179.4189663183957
 31
0.0
 12
-73.99999999999984
 22
-179.0856329850624
 32
0.0
 13
-73.99999999999984
 23
-179.0856329850624
 33
0.0
  0
SOLID
  5
A7
330
A2
100
AcDbEntity
  8
0
  6
ByBlock
 62
     0
100
AcDbTrace
 10
-29.99999999999989
 20
-178.752299651729
 30
0.0
 11
-29.99999999999989
 21
-179.4189663183957
 31
0.0
 12
-27.99999999999989
 22
-179.0856329850624
 32
0.0
 13
-27.99999999999989
 23
-179.0856329850624
 33
0.0
  0
MTEXT
  5
A8
330
A2
100
AcDbEntity
  8
0
  6
ByBlock
 62
     0
100
AcDbMText
 10
-50.99999999999987
 20
-176.0856329850624
 30
0.0
 40
3.0
 41
0.0
 71
     5
 72
     1
  1
\A1;46
 73
     1
 44
1.0
1001
ACAD
1000
MTEXTBEGIN
1070
    73
1070
     1
1070
    44
1040
1.0
1070
    74
1070
     0
1000
MTEXTEND
  0
POINT
  5
A9
330
A2
100
AcDbEntity
  8
DEFPOINTS
  6
ByBlock
 62
     0
100
AcDbPoint
 10
-73.99999999999983
 20
-12.50000000000014
 30
0.0
  0
POINT
  5
AA
330
A2
100
AcDbEntity
  8
DEFPOINTS
  6
ByBlock
 62
     0
100
AcDbPoint
 10
-27.99999999999988
 20
-100.1073340807422
 30
0.0
  0
POINT
  5
AB
330
A2
100
AcDbEntity
  8
DEFPOINTS
  6
ByBlock
 62
     0
100
AcDbPoint
 10
-27.99999999999989
 20
-179.0856329850624
 30
0.0
  0
ENDBLK
  5
AD
330
A2
100
AcDbEntity
  8
0
100
AcDbBlockEnd
  0
BLOCK
  5
B9
330
AF
100
AcDbEntity
  8
0
100
AcDbBlockBegin
  2
*D6
 70
     1
 10
0.0
 20
0.0
 30
0.0
  3
*D6
  1

  0
LINE
  5
B0
330
AF
100
AcDbEntity
  8
0
  6
ByBlock
 62
     0
100
AcDbLine
 10
-127.9999999999997
 20
-17.00000000000014
 30
0.0
 11
-127.9999999999998
 21
-180.5856329850623
 31
0.0
  0
LINE
  5
B1
330
AF
100
AcDbEntity
  8
0
  6
ByBlock
 62
     0
100
AcDbLine
 10
-73.99999999999983
 20
-17.00000000000014
 30
0.0
 11
-73.99999999999984
 21
-180.5856329850623
 31
0.0
  0
LINE
  5
B2
330
AF
100
AcDbEntity
  8
0
  6
ByBlock
 62
     0
100
AcDbLine
 10
-125.9999999999998
 20
-179.0856329850624
 30
0.0
 11
-75.99999999999984
 21
-179.0856329850624
 31
0.0
  0
SOLID
  5
B3
330
AF
100
AcDbEntity
  8
0
  6
ByBlock
 62
     0
100
AcDbTrace
 10
-125.9999999999998
 20
-178.752299651729
 30
0.0
 11
-125.9999999999998
 21
-179.4189663183957
 31
0.0
 12
-127.9999999999998
 22
-179.0856329850624
 32
0.0
 13
-127.9999999999998
 23
-179.0856329850624
 33
0.0
  0
SOLID
  5
B4
330
AF
100
AcDbEntity
  8
0
  6
ByBlock
 62
     0
100
AcDbTrace
 10
-75.99999999999984
 20
-178.752299651729
 30
0.0
 11
-75.99999999999984
 21
-179.4189663183957
 31
0.0
 12
-73.99999999999984
 22
-179.0856329850624
 32
0.0
 13
-73.99999999999984
 23
-179.0856329850624
 33
0.0
  0
MTEXT
  5
B5
330
AF
100
AcDbEntity
  8
0
  6
ByBlock
 62
     0
100
AcDbMText
 10
-100.9999999999998
 20
-176.0856329850624
 30
0.0
 40
3.0
 41
0.0
 71
     5
 72
     1
  1
\A1;54
 73
     1
 44
1.0
1001
ACAD
1000
MTEXTBEGIN
1070
    73
1070
     1
1070
    44
1040
1.0
1070
    74
1070
     0
1000
MTEXTEND
  0
POINT
  5
B6
330
AF
100
AcDbEntity
  8
DEFPOINTS
  6
ByBlock
 62
     0
100
AcDbPoint
 10
-127.9999999999997
 20
-12.50000000000014
 30
0.0
  0
POINT
  5
B7
330
AF
100
AcDbEntity
  8
DEFPOINTS
  6
ByBlock
 62
     0
100
AcDbPoint
 10
-73.99999999999983
 20
-12.50000000000014
 30
0.0
  0
POINT
  5
B8
330
AF
100
AcDbEntity
  8
DEFPOINTS
  6
ByBlock
 62
     0
100
AcDbPoint
 10
-73.99999999999984
 20
-179.0856329850624
 30
0.0
  0
ENDBLK
  5
BA
330
AF
100
AcDbEntity
  8
0
100
AcDbBlockEnd
  0
BLOCK
  5
C6
330
BC
100
AcDbEntity
  8
0
100
AcDbBlockBegin
  2
*D7
 70
     1
 10
0.0
 20
0.0
 30
0.0
  3
*D7
  1

  0
LINE
  5
BD
330
BC
100
AcDbEntity
  8
0
  6
ByBlock
 62
     0
100
AcDbLine
 10
3.999999999999999
 20
-124.65
 30
0.0
 11
3.999999999999996
 21
-180.5856329850623
 31
0.0
  0
LINE
  5
BE
330
BC
100
AcDbEntity
  8
0
  6
ByBlock
 62
     0
100
AcDbLine
 10
50.0
 20
-16.50000000000001
 30
0.0
 11
50.0
 21
-180.5856329850623
 31
0.0
  0
LINE
  5
BF
330
BC
100
AcDbEntity
  8
0
  6
ByBlock
 62
     0
100
AcDbLine
 10
5.999999999999996
 20
-179.0856329850624
 30
0.0
 11
47.99999999999999
 21
-179.0856329850624
 31
0.0
  0
SOLID
  5
C0
330
BC
100
AcDbEntity
  8
0
  6
ByBlock
 62
     0
100
AcDbTrace
 10
5.999999999999996
 20
-178.752299651729
 30
0.0
 11
5.999999999999996
 21
-179.4189663183957
 31
0.0
 12
3.999999999999996
 22
-179.0856329850624
 32
0.0
 13
3.999999999999996
 23
-179.0856329850624
 33
0.0
  0
SOLID
  5
C1
330
BC
100
AcDbEntity
  8
0
  6
ByBlock
 62
     0
100
AcDbTrace
 10
47.99999999999999
 20
-178.752299651729
 30
0.0
 11
47.99999999999999
 21
-179.4189663183957
 31
0.0
 12
50.0
 22
-179.0856329850624
 32
0.0
 13
50.0
 23
-179.0856329850624
 33
0.0
  0
MTEXT
  5
C2
330
BC
100
AcDbEntity
  8
0
  6
ByBlock
 62
     0
100
AcDbMText
 10
26.99999999999999
 20
-176.0856329850624
 30
0.0
 40
3.0
 41
0.0
 71
     5
 72
     1
  1
\A1;46
 73
     1
 44
1.0
1001
ACAD
1000
MTEXTBEGIN
1070
    73
1070
     1
1070
    44
1040
1.0
1070
    74
1070
     0
1000
MTEXTEND
  0
POINT
  5
C3
330
BC
100
AcDbEntity
  8
DEFPOINTS
  6
ByBlock
 62
     0
100
AcDbPoint
 10
4.0
 20
-120.15
 30
0.0
  0
POINT
  5
C4
330
BC
100
AcDbEntity
  8
DEFPOINTS
  6
ByBlock
 62
     0
100
AcDbPoint
 10
50.0
 20
-12.00000000000001
 30
0.0
  0
POINT
  5
C5
330
BC
100
AcDbEntity
  8
DEFPOINTS
  6
ByBlock
 62
     0
100
AcDbPoint
 10
50.0
 20
-179.0856329850624
 30
0.0
  0
ENDBLK
  5
C7
330
BC
100
AcDbEntity
  8
0
100
AcDbBlockEnd
  0
BLOCK
  5
D4
330
CA
100
AcDbEntity
  8
0
100
AcDbBlockBegin
  2
*D8
 70
     1
 10
0.0
 20
0.0
 30
0.0
  3
*D8
  1

  0
LINE
  5
CB
330
CA
100
AcDbEntity
  8
0
  6
ByBlock
 62
     0
100
AcDbLine
 10
-27.99999999999988
 20
-104.6073340807422
 30
0.0
 11
-27.99999999999989
 21
-180.5856329850623
 31
0.0
  0
LINE
  5
CC
330
CA
100
AcDbEntity
  8
0
  6
ByBlock
 62
     0
100
AcDbLine
 10
-19.99999999999988
 20
-104.6073340807422
 30
0.0
 11
-19.99999999999989
 21
-180.5856329850623
 31
0.0
  0
LINE
  5
CD
330
CA
100
AcDbEntity
  8
0
  6
ByBlock
 62
     0
100
AcDbLine
 10
-25.99999999999988
 20
-179.0856329850624
 30
0.0
 11
-21.99999999999989
 21
-179.0856329850624
 31
0.0
  0
SOLID
  5
CE
330
CA
100
AcDbEntity
  8
0
  6
ByBlock
 62
     0
100
AcDbTrace
 10
-25.99999999999988
 20
-178.752299651729
 30
0.0
 11
-25.99999999999988
 21
-179.4189663183957
 31
0.0
 12
-27.99999999999989
 22
-179.0856329850624
 32
0.0
 13
-27.99999999999989
 23
-179.0856329850624
 33
0.0
  0
SOLID
  5
CF
330
CA
100
AcDbEntity
  8
0
  6
ByBlock
 62
     0
100
AcDbTrace
 10
-21.99999999999989
 20
-178.752299651729
 30
0.0
 11
-21.99999999999989
 21
-179.4189663183957
 31
0.0
 12
-19.99999999999989
 22
-179.0856329850624
 32
0.0
 13
-19.99999999999989
 23
-179.0856329850624
 33
0.0
  0
MTEXT
  5
D0
330
CA
100
AcDbEntity
  8
0
  6
ByBlock
 62
     0
100
AcDbMText
 10
-23.99999999999989
 20
-176.0856329850624
 30
0.0
 40
3.0
 41
0.0
 71
     5
 72
     1
  1
\A1;8
 73
     1
 44
1.0
1001
ACAD
1000
MTEXTBEGIN
1070
    73
1070
     1
1070
    44
1040
1.0
1070
    74
1070
     0
1000
MTEXTEND
  0
POINT
  5
D1
330
CA
100
AcDbEntity
  8
DEFPOINTS
  6
ByBlock
 62
     0
100
AcDbPoint
 10
-27.99999999999988
 20
-100.1073340807422
 30
0.0
  0
POINT
  5
D2
330
CA
100
AcDbEntity
  8
DEFPOINTS
  6
ByBlock
 62
     0
100
AcDbPoint
 10
-19.99999999999988
 20
-100.1073340807422
 30
0.0
  0
POINT
  5
D3
330
CA
100
AcDbEntity
  8
DEFPOINTS
  6
ByBlock
 62
     0
100
AcDbPoint
 10
-19.99999999999989
 20
-179.0856329850624
 30
0.0
  0
ENDBLK
  5
D5
330
CA
100
AcDbEntity
  8
0
100
AcDbBlockEnd
  0
BLOCK
  5
101
330
F7
100
AcDbEntity
  8
0
100
AcDbBlockBegin
  2
*D9
 70
     1
 10
0.0
 20
0.0
 30
0.0
  3
*D9
  1

  0
LINE
  5
F8
330
F7
100
AcDbEntity
  8
0
  6
ByBlock
 62
     0
100
AcDbLine
 10
309.5
 20
-59.99999999999992
 30
0.0
 11
387.9956103424335
 21
-59.99999999999993
 31
0.0
  0
LINE
  5
F9
330
F7
100
AcDbEntity
  8
0
  6
ByBlock
 62
     0
100
AcDbLine
 10
309.4999999999997
 20
59.99999999999996
 30
0.0
 11
387.9956103424335
 21
59.99999999999995
 31
0.0
  0
LINE
  5
FA
330
F7
100
AcDbEntity
  8
0
  6
ByBlock
 62
     0
100
AcDbLine
 10
386.4956103424335
 20
-57.99999999999993
 30
0.0
 11
386.4956103424335
 21
57.99999999999995
 31
0.0
  0
SOLID
  5
FB
330
F7
100
AcDbEntity
  8
0
  6
ByBlock
 62
     0
100
AcDbTrace
 10
386.1622770091002
 20
-57.99999999999993
 30
0.0
 11
386.8289436757669
 21
-57.99999999999993
 31
0.0
 12
386.4956103424335
 22
-59.99999999999993
 32
0.0
 13
386.4956103424335
 23
-59.99999999999993
 33
0.0
  0
SOLID
  5
FC
330
F7
100
AcDbEntity
  8
0
  6
ByBlock
 62
     0
100
AcDbTrace
 10
386.1622770091002
 20
57.99999999999995
 30
0.0
 11
386.8289436757669
 21
57.99999999999995
 31
0.0
 12
386.4956103424335
 22
59.99999999999995
 32
0.0
 13
386.4956103424335
 23
59.99999999999995
 33
0.0
  0
MTEXT
  5
FD
330
F7
100
AcDbEntity
  8
0
  6
ByBlock
 62
     0
100
AcDbMText
 10
383.4956103424335
 20
0.0000000000000051
 30
0.0
 40
3.0
 41
0.0
 71
     5
 72
     1
  1
\A1;120
 11
0.0000000000000001
 21
1.0
 31
0.0
 73
     1
 44
1.0
1001
ACAD
1000
MTEXTBEGIN
1070
    73
1070
     1
1070
    44
1040
1.0
1070
    74
1070
     0
1000
MTEXTEND
  0
POINT
  5
FE
330
F7
100
AcDbEntity
  8
DEFPOINTS
  6
ByBlock
 62
     0
100
AcDbPoint
 10
305.0
 20
-59.99999999999992
 30
0.0
  0
POINT
  5
FF
330
F7
100
AcDbEntity
  8
DEFPOINTS
  6
ByBlock
 62
     0
100
AcDbPoint
 10
304.9999999999997
 20
59.99999999999996
 30
0.0
  0
POINT
  5
100
330
F7
100
AcDbEntity
  8
DEFPOINTS
  6
ByBlock
 62
     0
100
AcDbPoint
 10
386.4956103424335
 20
59.99999999999995
 30
0.0
  0
ENDBLK
  5
102
330
F7
100
AcDbEntity
  8
0
100
AcDbBlockEnd
  0
BLOCK
  5
10E
330
104
100
AcDbEntity
  8
0
100
AcDbBlockBegin
  2
*D10
 70
     1
 10
0.0
 20
0.0
 30
0.0
  3
*D10
  1

  0
LINE
  5
105
330
104
100
AcDbEntity
  8
0
  6
ByBlock
 62
     0
100
AcDbLine
 10
294.4999999999999
 20
-35.85000000000001
 30
0.0
 11
343.6753285103582
 21
-35.85000000000001
 31
0.0
  0
LINE
  5
106
330
104
100
AcDbEntity
  8
0
  6
ByBlock
 62
     0
100
AcDbLine
 10
294.4999999999999
 20
35.85
 30
0.0
 11
343.6753285103582
 21
35.85
 31
0.0
  0
LINE
  5
107
330
104
100
AcDbEntity
  8
0
  6
ByBlock
 62
     0
100
AcDbLine
 10
342.1753285103582
 20
-33.85000000000001
 30
0.0
 11
342.1753285103582
 21
33.85
 31
0.0
  0
SOLID
  5
108
330
104
100
AcDbEntity
  8
0
  6
ByBlock
 62
     0
100
AcDbTrace
 10
341.8419951770248
 20
-33.85000000000001
 30
0.0
 11
342.5086618436915
 21
-33.85000000000001
 31
0.0
 12
342.1753285103582
 22
-35.85000000000001
 32
0.0
 13
342.1753285103582
 23
-35.85000000000001
 33
0.0
  0
SOLID
  5
109
330
104
100
AcDbEntity
  8
0
  6
ByBlock
 62
     0
100
AcDbTrace
 10
341.8419951770248
 20
33.85
 30
0.0
 11
342.5086618436915
 21
33.85
 31
0.0
 12
342.1753285103582
 22
35.85
 32
0.0
 13
342.1753285103582
 23
35.85
 33
0.0
  0
MTEXT
  5
10A
330
104
100
AcDbEntity
  8
0
  6
ByBlock
 62
     0
100
AcDbMText
 10
339.1753285103582
 20
-0.0000000000000064
 30
0.0
 40
3.0
 41
0.0
 71
     5
 72
     1
  1
\A1;71.7
 11
0.0000000000000001
 21
1.0
 31
0.0
 73
     1
 44
1.0
1001
ACAD
1000
MTEXTBEGIN
1070
    73
1070
     1
1070
    44
1040
1.0
1070
    74
1070
     0
1000
MTEXTEND
  0
POINT
  5
10B
330
104
100
AcDbEntity
  8
DEFPOINTS
  6
ByBlock
 62
     0
100
AcDbPoint
 10
290.0
 20
-35.85
 30
0.0
  0
POINT
  5
10C
330
104
100
AcDbEntity
  8
DEFPOINTS
  6
ByBlock
 62
     0
100
AcDbPoint
 10
290.0
 20
35.85
 30
0.0
  0
POINT
  5
10D
330
104
100
AcDbEntity
  8
DEFPOINTS
  6
ByBlock
 62
     0
100
AcDbPoint
 10
342.1753285103582
 20
35.85
 30
0.0
  0
ENDBLK
  5
10F
330
104
100
AcDbEntity
  8
0
100
AcDbBlockEnd
  0
BLOCK
  5
120
330
116
100
AcDbEntity
  8
0
100
AcDbBlockBegin
  2
*D11
 70
     1
 10
0.0
 20
0.0
 30
0.0
  3
*D11
  1

  0
LINE
  5
117
330
116
100
AcDbEntity
  8
0
  6
ByBlock
 62
     0
100
AcDbLine
 10
309.5
 20
-59.99999999999992
 30
0.0
 11
343.6753285103582
 21
-59.99999999999992
 31
0.0
  0
LINE
  5
118
330
116
100
AcDbEntity
  8
0
  6
ByBlock
 62
     0
100
AcDbLine
 10
294.4999999999999
 20
-84.15000000000004
 30
0.0
 11
343.6753285103582
 21
-84.15000000000004
 31
0.0
  0
LINE
  5
119
330
116
100
AcDbEntity
  8
0
  6
ByBlock
 62
     0
100
AcDbLine
 10
342.1753285103582
 20
-61.99999999999993
 30
0.0
 11
342.1753285103582
 21
-82.15000000000003
 31
0.0
  0
SOLID
  5
11A
330
116
100
AcDbEntity
  8
0
  6
ByBlock
 62
     0
100
AcDbTrace
 10
341.8419951770248
 20
-61.99999999999993
 30
0.0
 11
342.5086618436915
 21
-61.99999999999993
 31
0.0
 12
342.1753285103582
 22
-59.99999999999992
 32
0.0
 13
342.1753285103582
 23
-59.99999999999992
 33
0.0
  0
SOLID
  5
11B
330
116
100
AcDbEntity
  8
0
  6
ByBlock
 62
     0
100
AcDbTrace
 10
341.8419951770248
 20
-82.15000000000003
 30
0.0
 11
342.5086618436915
 21
-82.15000000000003
 31
0.0
 12
342.1753285103582
 22
-84.15000000000004
 32
0.0
 13
342.1753285103582
 23
-84.15000000000004
 33
0.0
  0
MTEXT
  5
11C
330
116
100
AcDbEntity
  8
0
  6
ByBlock
 62
     0
100
AcDbMText
 10
339.1753285103582
 20
-72.07499999999997
 30
0.0
 40
3.0
 41
0.0
 71
     5
 72
     1
  1
\A1;24.15
 11
0.0000000000000001
 21
1.0
 31
0.0
 73
     1
 44
1.0
1001
ACAD
1000
MTEXTBEGIN
1070
    73
1070
     1
1070
    44
1040
1.0
1070
    74
1070
     0
1000
MTEXTEND
  0
POINT
  5
11D
330
116
100
AcDbEntity
  8
DEFPOINTS
  6
ByBlock
 62
     0
100
AcDbPoint
 10
305.0
 20
-59.99999999999992
 30
0.0
  0
POINT
  5
11E
330
116
100
AcDbEntity
  8
DEFPOINTS
  6
ByBlock
 62
     0
100
AcDbPoint
 10
290.0
 20
-84.15000000000004
 30
0.0
  0
POINT
  5
11F
330
116
100
AcDbEntity
  8
DEFPOINTS
  6
ByBlock
 62
     0
100
AcDbPoint
 10
342.1753285103582
 20
-84.15000000000004
 30
0.0
  0
ENDBLK
  5
121
330
116
100
AcDbEntity
  8
0
100
AcDbBlockEnd
  0
BLOCK
  5
141
330
137
100
AcDbEntity
  8
0
100
AcDbBlockBegin
  2
*D12
 70
     1
 10
0.0
 20
0.0
 30
0.0
  3
*D12
  1

  0
LINE
  5
138
330
137
100
AcDbEntity
  8
0
  6
ByBlock
 62
     0
100
AcDbLine
 10
294.4999999999999
 20
35.85
 30
0.0
 11
343.6753285103582
 21
35.85
 31
0.0
  0
LINE
  5
139
330
137
100
AcDbEntity
  8
0
  6
ByBlock
 62
     0
100
AcDbLine
 10
309.4999999999997
 20
59.99999999999996
 30
0.0
 11
343.6753285103582
 21
59.99999999999996
 31
0.0
  0
LINE
  5
13A
330
137
100
AcDbEntity
  8
0
  6
ByBlock
 62
     0
100
AcDbLine
 10
342.1753285103582
 20
37.85
 30
0.0
 11
342.1753285103582
 21
57.99999999999996
 31
0.0
  0
SOLID
  5
13B
330
137
100
AcDbEntity
  8
0
  6
ByBlock
 62
     0
100
AcDbTrace
 10
341.8419951770248
 20
37.85
 30
0.0
 11
342.5086618436915
 21
37.85
 31
0.0
 12
342.1753285103582
 22
35.85
 32
0.0
 13
342.1753285103582
 23
35.85
 33
0.0
  0
SOLID
  5
13C
330
137
100
AcDbEntity
  8
0
  6
ByBlock
 62
     0
100
AcDbTrace
 10
341.8419951770248
 20
57.99999999999996
 30
0.0
 11
342.5086618436915
 21
57.99999999999996
 31
0.0
 12
342.1753285103582
 22
59.99999999999996
 32
0.0
 13
342.1753285103582
 23
59.99999999999996
 33
0.0
  0
MTEXT
  5
13D
330
137
100
AcDbEntity
  8
0
  6
ByBlock
 62
     0
100
AcDbMText
 10
339.1753285103582
 20
47.92499999999997
 30
0.0
 40
3.0
 41
0.0
 71
     5
 72
     1
  1
\A1;24.15
 11
0.0000000000000001
 21
1.0
 31
0.0
 73
     1
 44
1.0
1001
ACAD
1000
MTEXTBEGIN
1070
    73
1070
     1
1070
    44
1040
1.0
1070
    74
1070
     0
1000
MTEXTEND
  0
POINT
  5
13E
330
137
100
AcDbEntity
  8
DEFPOINTS
  6
ByBlock
 62
     0
100
AcDbPoint
 10
290.0
 20
35.85
 30
0.0
  0
POINT
  5
13F
330
137
100
AcDbEntity
  8
DEFPOINTS
  6
ByBlock
 62
     0
100
AcDbPoint
 10
304.9999999999997
 20
59.99999999999996
 30
0.0
  0
POINT
  5
140
330
137
100
AcDbEntity
  8
DEFPOINTS
  6
ByBlock
 62
     0
100
AcDbPoint
 10
342.1753285103582
 20
59.99999999999996
 30
0.0
  0
ENDBLK
  5
142
330
137
100
AcDbEntity
  8
0
100
AcDbBlockEnd
  0
ENDSEC
  0
SECTION
  2
ENTITIES
  0
TEXT
  5
2D
330
2
100
AcDbEntity
  8
ANCON-TEXT
  6
Continuous
100
AcDbText
 10
37.28331460162988
 20
220.0564825452035
 30
0.0
 40
5.0
  1
SPECIFICATION BY PRODUCT
  7
ROMANS
 72
     4
 11
90.73569555401082
 21
222.5564825452035
 31
0.0
100
AcDbText
  0
TEXT
  5
2F
330
2
100
AcDbEntity
  8
ANCON-TEXT
  6
Continuous
100
AcDbText
 10
37.42695121125618
 20
190.1220280807073
 30
0.0
 40
5.0
  1
SPECIFICATION BY DESCRIPTION
  7
ROMANS
 72
     4
 11
97.06980835411332
 21
192.6220280807074
 31
0.0
100
AcDbText
  0
DIMENSION
  5
30
330
2
100
AcDbEntity
  8
ANCON-DIMS
100
AcDbDimension
  2
*D0
 10
290.0
 20
-209.4159629129247
 30
0.0
 11
145.0
 21
-206.4159629129247
 31
0.0
 71
     5
 42
-1.0
  3
1-1
100
AcDbAlignedDimension
 13
0.0
 23
-120.15
 33
0.0
 14
290.0
 24
-84.15000000000004
 34
0.0
100
AcDbRotatedDimension
  0
DIMENSION
  5
44
330
2
100
AcDbEntity
  8
ANCON-DIMS
100
AcDbDimension
  2
*D1
 10
421.0398490803474
 20
120.1499999999999
 30
0.0
 11
418.0398490803474
 21
-0.0000000000000538
 31
0.0
  1
240
 71
     5
 42
-1.0
  3
1-1
100
AcDbAlignedDimension
 13
4.0
 23
-120.15
 33
0.0
 14
4.0
 24
120.15
 34
0.0
 50
90.0
100
AcDbRotatedDimension
  0
DIMENSION
  5
51
330
2
100
AcDbEntity
  8
ANCON-DIMS
100
AcDbDimension
  2
*D2
 10
103.9999999999999
 20
-179.0856329850624
 30
0.0
 11
76.99999999999999
 21
-176.0856329850624
 31
0.0
 71
     5
 42
-1.0
  3
1-1
100
AcDbAlignedDimension
 13
50.0
 23
-12.00000000000001
 33
0.0
 14
104.0
 24
-12.00000000000001
 34
0.0
100
AcDbRotatedDimension
  0
LINE
  5
5E
330
2
100
AcDbEntity
  8
ANCON-GRID
  6
CENTER2
100
AcDbLine
 10
304.9999999999997
 20
59.99999999999996
 30
0.0
 11
0.0000000000000046
 21
59.99999999999992
 31
0.0
  0
LINE
  5
61
330
2
100
AcDbEntity
  8
ANCON-GRID
  6
CENTER2
100
AcDbLine
 10
305.0
 20
-59.99999999999992
 30
0.0
 11
-0.0000000000000047
 21
-59.99999999999992
 31
0.0
  0
LINE
  5
62
330
2
100
AcDbEntity
  8
ANCON-GRID
  6
CENTER2
100
AcDbLine
 10
61.99999999999988
 20
-0.0000000000000142
 30
0.0
 11
38.07571599557581
 21
-0.0000000000000142
 31
0.0
  0
LINE
  5
63
330
2
100
AcDbEntity
  8
ANCON-DSD
  6
Continuous
100
AcDbLine
 10
290.0
 20
35.85
 30
0.0
 11
4.0
 21
35.85
 31
0.0
  0
LINE
  5
64
330
2
100
AcDbEntity
  8
ANCON-DSD
  6
Continuous
100
AcDbLine
 10
290.0
 20
84.15000000000002
 30
0.0
 11
4.0
 21
84.15000000000002
 31
0.0
  0
LINE
  5
65
330
2
100
AcDbEntity
  8
ANCON-DSD
  6
Continuous
100
AcDbLine
 10
290.0
 20
-84.15000000000004
 30
0.0
 11
4.0
 21
-84.15000000000004
 31
0.0
  0
LINE
  5
66
330
2
100
AcDbEntity
  8
ANCON-DSD
  6
Continuous
100
AcDbLine
 10
290.0
 20
-35.85
 30
0.0
 11
4.0
 21
-35.85
 31
0.0
  0
LINE
  5
67
330
2
100
AcDbEntity
  8
ANCON-DSD
  6
Continuous
100
AcDbLine
 10
0.0000000000000127
 20
80.89266591925762
 30
0.0
 11
250.0
 21
80.89266591925762
 31
0.0
  0
LINE
  5
68
330
2
100
AcDbEntity
  8
ANCON-DSD
  6
Continuous
100
AcDbLine
 10
0.0000000000000185
 20
38.8926659192576
 30
0.0
 11
250.0
 21
38.8926659192576
 31
0.0
  0
LINE
  5
69
330
2
100
AcDbEntity
  8
ANCON-DSD
  6
Continuous
100
AcDbLine
 10
0.0000000000000292
 20
-39.10733408074239
 30
0.0
 11
250.0000000000002
 21
-39.10733408074374
 31
0.0
  0
LINE
  5
6A
330
2
100
AcDbEntity
  8
ANCON-DSD
  6
Continuous
100
AcDbLine
 10
0.000000000000035
 20
-81.10733408074228
 30
0.0
 11
250.0
 21
-81.10733408074363
 31
0.0
  0
CIRCLE
  5
6B
330
2
100
AcDbEntity
  8
ANCON-DSD
  6
Continuous
100
AcDbCircle
 10
49.99999999999989
 20
-0.0000000000000142
 30
0.0
 40
8.0
  0
LINE
  5
6C
330
2
100
AcDbEntity
  8
ANCON-GRID
  6
CENTER2
100
AcDbLine
 10
50.0
 20
11.99999999999998
 30
0.0
 11
50.0
 21
-12.00000000000001
 31
0.0
  0
LINE
  5
6D
330
2
100
AcDbEntity
  8
ANCON-GRID
  6
CENTER2
100
AcDbLine
 10
-127.9999999999997
 20
12.49999999999985
 30
0.0
 11
-127.9999999999997
 21
-12.50000000000014
 31
0.0
  0
LINE
  5
6E
330
2
100
AcDbEntity
  8
ANCON-GRID
  6
CENTER2
100
AcDbLine
 10
-73.99999999999988
 20
12.49999999999985
 30
0.0
 11
-73.99999999999983
 21
-12.50000000000014
 31
0.0
  0
LINE
  5
6F
330
2
100
AcDbEntity
  8
ANCON-CONCRETE
100
AcDbLine
 10
0.0000000000000568
 20
-240.2728586436023
 30
0.0
 11
0.0
 21
173.297501804489
 31
0.0
  0
LINE
  5
71
330
2
100
AcDbEntity
  8
ANCON-CONCRETE
100
AcDbLine
 10
-19.99999999999994
 20
-240.2819189242553
 30
0.0
 11
-20.0
 21
173.2884415238361
 31
0.0
  0
LINE
  5
72
330
2
100
AcDbEntity
  8
ANCON-DSD
  6
Continuous
100
AcDbLine
 10
4.0
 20
38.35
 30
0.0
 11
4.0
 21
-38.35
 31
0.0
  0
LINE
  5
73
330
2
100
AcDbEntity
  8
ANCON-DSD
  6
Continuous
100
AcDbLine
 10
4.0
 20
120.15
 30
0.0
 11
4.0
 21
-120.15
 31
0.0
  0
LINE
  5
74
330
2
100
AcDbEntity
  8
ANCON-DSD
  6
Continuous
100
AcDbLine
 10
0.0
 20
120.15
 30
0.0
 11
0.0
 21
-120.15
 31
0.0
  0
LINE
  5
75
330
2
100
AcDbEntity
  8
ANCON-DSD
  6
Continuous
100
AcDbLine
 10
-27.99999999999988
 20
99.89266591925762
 30
0.0
 11
-27.99999999999988
 21
-100.1073340807422
 31
0.0
  0
LINE
  5
76
330
2
100
AcDbEntity
  8
ANCON-DSD
  6
Continuous
100
AcDbLine
 10
-19.99999999999988
 20
99.89266591925762
 30
0.0
 11
-19.99999999999988
 21
-100.1073340807422
 31
0.0
  0
LINE
  5
77
330
2
100
AcDbEntity
  8
ANCON-DSD
  6
Continuous
100
AcDbLine
 10
-147.9999999999997
 20
38.8926659192576
 30
0.0
 11
-147.9999999999997
 21
-39.10733408074227
 31
0.0
  0
CIRCLE
  5
78
330
2
100
AcDbEntity
  8
ANCON-DSD
  6
Continuous
100
AcDbCircle
 10
-73.99999999999997
 20
-0.0000000000001421
 30
0.0
 40
8.0
  0
CIRCLE
  5
79
330
2
100
AcDbEntity
  8
ANCON-DSD
  6
Continuous
100
AcDbCircle
 10
-127.9999999999999
 20
-0.0000000000001421
 30
0.0
 40
8.0
  0
DIMENSION
  5
81
330
2
100
AcDbEntity
  8
ANCON-DIMS
100
AcDbDimension
  2
*D3
 10
-19.99999999999989
 20
-209.4159629129247
 30
0.0
 11
-164.9999999999998
 21
-206.4159629129247
 31
0.0
 71
     5
 42
-1.0
  3
1-1
100
AcDbAlignedDimension
 13
-309.9999999999998
 23
-79.10733408074239
 33
0.0
 14
-19.99999999999988
 24
-100.1073340807422
 34
0.0
100
AcDbRotatedDimension
  0
LINE
  5
8E
330
2
100
AcDbEntity
  8
ANCON-GRID
  6
CENTER2
100
AcDbLine
 10
0.0
 20
-59.99999999999992
 30
0.0
 11
-319.9999999999998
 21
-59.9999999999999
 31
0.0
  0
LINE
  5
8F
330
2
100
AcDbEntity
  8
ANCON-DSD
  6
Continuous
100
AcDbLine
 10
-309.9999999999998
 20
-81.10733408074239
 30
0.0
 11
-27.99999999999988
 21
-81.10733408074228
 31
0.0
  0
LINE
  5
90
330
2
100
AcDbEntity
  8
ANCON-DSD
  6
Continuous
100
AcDbLine
 10
-309.9999999999998
 20
-39.10733408074239
 30
0.0
 11
-27.99999999999988
 21
-39.10733408074227
 31
0.0
  0
LINE
  5
92
330
2
100
AcDbEntity
  8
ANCON-DSD
  6
Continuous
100
AcDbLine
 10
-309.9999999999998
 20
-39.10733408074239
 30
0.0
 11
-309.9999999999998
 21
-81.10733408074239
 31
0.0
  0
DIMENSION
  5
93
330
2
100
AcDbEntity
  8
ANCON-DIMS
100
AcDbDimension
  2
*D4
 10
-0.0000000000000055
 20
-209.4159629129247
 30
0.0
 11
-9.99999999999995
 21
-206.4159629129247
 31
0.0
 71
     5
 42
-1.0
  3
1-1
100
AcDbAlignedDimension
 13
-19.99999999999988
 23
-100.1073340807422
 33
0.0
 14
0.0
 24
-120.15
 34
0.0
100
AcDbRotatedDimension
  0
DIMENSION
  5
A1
330
2
100
AcDbEntity
  8
ANCON-DIMS
100
AcDbDimension
  2
*D5
 10
-27.99999999999989
 20
-179.0856329850624
 30
0.0
 11
-50.99999999999987
 21
-176.0856329850624
 31
0.0
 71
     5
 42
-1.0
  3
1-1
100
AcDbAlignedDimension
 13
-73.99999999999983
 23
-12.50000000000014
 33
0.0
 14
-27.99999999999988
 24
-100.1073340807422
 34
0.0
100
AcDbRotatedDimension
  0
DIMENSION
  5
AE
330
2
100
AcDbEntity
  8
ANCON-DIMS
100
AcDbDimension
  2
*D6
 10
-73.99999999999984
 20
-179.0856329850624
 30
0.0
 11
-100.9999999999998
 21
-176.0856329850624
 31
0.0
 71
     5
 42
-1.0
  3
1-1
100
AcDbAlignedDimension
 13
-127.9999999999997
 23
-12.50000000000014
 33
0.0
 14
-73.99999999999983
 24
-12.50000000000014
 34
0.0
100
AcDbRotatedDimension
  0
DIMENSION
  5
BB
330
2
100
AcDbEntity
  8
ANCON-DIMS
100
AcDbDimension
  2
*D7
 10
50.0
 20
-179.0856329850624
 30
0.0
 11
26.99999999999999
 21
-176.0856329850624
 31
0.0
 71
     5
 42
-1.0
  3
1-1
100
AcDbAlignedDimension
 13
4.0
 23
-120.15
 33
0.0
 14
50.0
 24
-12.00000000000001
 34
0.0
100
AcDbRotatedDimension
  0
LINE
  5
C8
330
2
100
AcDbEntity
  8
ANCON-DSD
  6
Continuous
100
AcDbLine
 10
4.0
 20
-81.65000000000004
 30
0.0
 11
4.0
 21
-120.15
 31
0.0
  0
DIMENSION
  5
C9
330
2
100
AcDbEntity
  8
ANCON-DIMS
100
AcDbDimension
  2
*D8
 10
-19.99999999999989
 20
-179.0856329850624
 30
0.0
 11
-23.99999999999989
 21
-176.0856329850624
 31
0.0
 71
     5
 42
-1.0
  3
1-1
100
AcDbAlignedDimension
 13
-27.99999999999988
 23
-100.1073340807422
 33
0.0
 14
-19.99999999999988
 24
-100.1073340807422
 34
0.0
100
AcDbRotatedDimension
  0
LINE
  5
D6
330
2
100
AcDbEntity
  8
ANCON-DSD
  6
Continuous
100
AcDbLine
 10
-27.99999999999988
 20
-100.1073340807422
 30
0.0
 11
-19.99999999999988
 21
-100.1073340807422
 31
0.0
  0
LINE
  5
D7
330
2
100
AcDbEntity
  8
ANCON-DSD
  6
Continuous
100
AcDbLine
 10
4.0
 20
-120.15
 30
0.0
 11
0.0
 21
-120.15
 31
0.0
  0
LINE
  5
D8
330
2
100
AcDbEntity
  8
ANCON-DSD
  6
Continuous
100
AcDbLine
 10
4.0
 20
-120.15
 30
0.0
 11
0.0
 21
-120.15
 31
0.0
  0
LINE
  5
D9
330
2
100
AcDbEntity
  8
ANCON-DSD
  6
Continuous
100
AcDbLine
 10
-19.99999999999988
 20
-81.10733408074228
 30
0.0
 11
0.000000000000035
 21
-81.10733408074228
 31
0.0
  0
LINE
  5
DA
330
2
100
AcDbEntity
  8
ANCON-DSD
  6
Continuous
100
AcDbLine
 10
-19.99999999999988
 20
-39.10733408074239
 30
0.0
 11
0.0000000000000292
 21
-39.10733408074239
 31
0.0
  0
TEXT
  5
DB
330
2
100
AcDbEntity
  8
ANCON-TEXT
  6
Continuous
100
AcDbText
 10
-182.6960309237545
 20
218.9432067473262
 30
0.0
 40
5.0
  1
DESIGN JOINT
  7
ROMANS
 72
     4
 11
-156.624602352326
 21
221.4432067473262
 31
0.0
100
AcDbText
  0
LINE
  5
DC
330
2
100
AcDbEntity
  8
ANCON-TEXT
  6
Continuous
100
AcDbLine
 10
-237.7996992886435
 20
176.1106767727751
 30
0.0
 11
-62.42102159678104
 21
176.110676772775
 31
0.0
  0
LINE
  5
DD
330
2
100
AcDbEntity
  8
ANCON-TEXT
  6
Continuous
100
AcDbLine
 10
-237.7996992886434
 20
203.1381618478221
 30
0.0
 11
-62.42102159678101
 21
203.1381618478221
 31
0.0
  0
LINE
  5
DE
330
2
100
AcDbEntity
  8
ANCON-TEXT
  6
Continuous
100
AcDbLine
 10
-237.7996992886435
 20
229.2089229068678
 30
0.0
 11
-62.42102159678104
 21
229.2089229068678
 31
0.0
  0
LINE
  5
DF
330
2
100
AcDbEntity
  8
ANCON-GRID
  6
CENTER2
100
AcDbLine
 10
0.0
 20
59.99999999999994
 30
0.0
 11
-319.9999999999999
 21
59.9999999999999
 31
0.0
  0
LINE
  5
E0
330
2
100
AcDbEntity
  8
ANCON-DSD
  6
Continuous
100
AcDbLine
 10
-309.9999999999998
 20
38.8926659192576
 30
0.0
 11
-27.99999999999988
 21
38.8926659192576
 31
0.0
  0
LINE
  5
E1
330
2
100
AcDbEntity
  8
ANCON-DSD
  6
Continuous
100
AcDbLine
 10
-309.9999999999998
 20
80.89266591925762
 30
0.0
 11
-27.99999999999988
 21
80.89266591925762
 31
0.0
  0
LINE
  5
E2
330
2
100
AcDbEntity
  8
ANCON-TEXT
  6
Continuous
100
AcDbLine
 10
-187.7996992886435
 20
229.2089229068678
 30
0.0
 11
-187.7996992886435
 21
176.110676772775
 31
0.0
  0
LINE
  5
E3
330
2
100
AcDbEntity
  8
ANCON-TEXT
  6
Continuous
100
AcDbLine
 10
-237.7996992886434
 20
229.2089229068678
 30
0.0
 11
-237.7996992886434
 21
176.110676772775
 31
0.0
  0
LINE
  5
E4
330
2
100
AcDbEntity
  8
ANCON-DSD
  6
Continuous
100
AcDbLine
 10
-309.9999999999998
 20
80.89266591925762
 30
0.0
 11
-309.9999999999998
 21
38.8926659192576
 31
0.0
  0
TEXT
  5
E5
330
2
100
AcDbEntity
  8
ANCON-TEXT
  6
Continuous
100
AcDbText
 10
-228.5570923194719
 20
186.9262338658736
 30
0.0
 40
5.0
  1
DSD150
  7
ROMANS
 72
     4
 11
-213.9142351766148
 21
189.4262338658736
 31
0.0
100
AcDbText
  0
TEXT
  5
E6
330
2
100
AcDbEntity
  8
ANCON-TEXT
  6
Continuous
100
AcDbText
 10
-230.6073151395721
 20
218.9432067473262
 30
0.0
 40
5.0
  1
DSD REF:
  7
ROMANS
 72
     4
 11
-212.6311246633816
 21
221.4432067473262
 31
0.0
100
AcDbText
  0
LINE
  5
E7
330
2
100
AcDbEntity
  8
ANCON-TEXT
  6
Continuous
100
AcDbLine
 10
-62.42102159678104
 20
229.2089229068678
 30
0.0
 11
-62.42102159678104
 21
176.110676772775
 31
0.0
  0
LINE
  5
E8
330
2
100
AcDbEntity
  8
ANCON-TEXT
  6
Continuous
100
AcDbLine
 10
-127.2916057315806
 20
229.2089229068678
 30
0.0
 11
-127.2916057315806
 21
176.110676772775
 31
0.0
  0
LINE
  5
E9
330
2
100
AcDbEntity
  8
ANCON-GRID
  6
CENTER2
100
AcDbLine
 10
-86.49999999999989
 20
-0.0000000000001421
 30
0.0
 11
-61.49999999999988
 21
-0.0000000000001421
 31
0.0
  0
LINE
  5
EA
330
2
100
AcDbEntity
  8
ANCON-GRID
  6
CENTER2
100
AcDbLine
 10
-140.4999999999997
 20
-0.0000000000001421
 30
0.0
 11
-115.4999999999997
 21
-0.0000000000001421
 31
0.0
  0
LINE
  5
EB
330
2
100
AcDbEntity
  8
ANCON-DSD
  6
Continuous
100
AcDbLine
 10
4.0
 20
120.15
 30
0.0
 11
4.0
 21
81.65000000000002
 31
0.0
  0
LINE
  5
EC
330
2
100
AcDbEntity
  8
ANCON-DSD
  6
Continuous
100
AcDbLine
 10
-19.99999999999988
 20
38.8926659192576
 30
0.0
 11
0.0000000000000185
 21
38.8926659192576
 31
0.0
  0
LINE
  5
ED
330
2
100
AcDbEntity
  8
ANCON-DSD
  6
Continuous
100
AcDbLine
 10
-19.99999999999988
 20
80.89266591925762
 30
0.0
 11
0.0000000000000127
 21
80.89266591925762
 31
0.0
  0
LINE
  5
EE
330
2
100
AcDbEntity
  8
ANCON-DSD
  6
Continuous
100
AcDbLine
 10
-19.99999999999988
 20
99.89266591925762
 30
0.0
 11
-27.99999999999988
 21
99.89266591925762
 31
0.0
  0
LINE
  5
EF
330
2
100
AcDbEntity
  8
ANCON-DSD
  6
Continuous
100
AcDbLine
 10
0.0
 20
120.15
 30
0.0
 11
4.0
 21
120.15
 31
0.0
  0
LINE
  5
F0
330
2
100
AcDbEntity
  8
ANCON-DSD
  6
Continuous
100
AcDbLine
 10
4.0
 20
120.15
 30
0.0
 11
0.0
 21
120.15
 31
0.0
  0
TEXT
  5
F1
330
2
100
AcDbEntity
  8
ANCON-TEXT
  6
Continuous
100
AcDbText
 10
-166.7713780337576
 20
186.9262338658736
 30
0.0
 40
5.0
  1
20 MM
  7
ROMANS
 72
     4
 11
-153.9142351766148
 21
189.4262338658736
 31
0.0
100
AcDbText
  0
TEXT
  5
F2
330
2
100
AcDbEntity
  8
ANCON-TEXT
  6
Continuous
100
AcDbText
 10
-167.2198404475641
 20
208.0455833597072
 30
0.0
 40
5.0
  1
WIDTH
  7
ROMANS
 72
     4
 11
-156.624602352326
 21
210.5455833597072
 31
0.0
100
AcDbText
  0
TEXT
  5
F3
330
2
100
AcDbEntity
  8
ANCON-TEXT
  6
Continuous
100
AcDbText
 10
-104.9856637480433
 20
186.9262338658736
 30
0.0
 40
5.0
  1
195.7
  7
ROMANS
 72
     4
 11
-93.91423517661483
 21
189.4262338658736
 31
0.0
100
AcDbText
  0
TEXT
  5
F4
330
2
100
AcDbEntity
  8
ANCON-TEXT
  6
Continuous
100
AcDbText
 10
-121.7713780337576
 20
218.9480372444578
 30
0.0
 40
5.0
  1
SERVICEABILITY
  7
ROMANS
 72
     4
 11
-93.91423517661483
 21
221.4480372444578
 31
0.0
100
AcDbText
  0
TEXT
  5
F5
330
2
100
AcDbEntity
  8
ANCON-TEXT
  6
Continuous
100
AcDbText
 10
-118.6761399385195
 20
208.0047583058794
 30
0.0
 40
5.0
  1
LOAD ( kN )
  7
ROMANS
 72
     4
 11
-93.91423517661483
 21
210.1476154487365
 31
0.0
100
AcDbText
  0
DIMENSION
  5
F6
330
2
100
AcDbEntity
  8
ANCON-DIMS
100
AcDbDimension
  2
*D9
 10
386.4956103424335
 20
59.99999999999995
 30
0.0
 11
383.4956103424335
 21
0.0000000000000051
 31
0.0
 71
     5
 42
-1.0
  3
1-1
100
AcDbAlignedDimension
 13
305.0
 23
-59.99999999999992
 33
0.0
 14
304.9999999999997
 24
59.99999999999996
 34
0.0
 50
90.0
100
AcDbRotatedDimension
  0
DIMENSION
  5
103
330
2
100
AcDbEntity
  8
ANCON-DIMS
100
AcDbDimension
  2
*D10
 10
342.1753285103582
 20
35.85
 30
0.0
 11
339.1753285103582
 21
-0.0000000000000064
 31
0.0
  1
71.7
 71
     5
 42
-1.0
  3
1-1
100
AcDbAlignedDimension
 13
290.0
 23
-35.85
 33
0.0
 14
290.0
 24
35.85
 34
0.0
 50
90.0
100
AcDbRotatedDimension
  0
LINE
  5
110
330
2
100
AcDbEntity
  8
ANCON-GRID
  6
CENTER2
100
AcDbLine
 10
103.9999999999999
 20
11.99999999999998
 30
0.0
 11
104.0
 21
-12.00000000000001
 31
0.0
  0
LINE
  5
111
330
2
100
AcDbEntity
  8
ANCON-DSD
  6
Continuous
100
AcDbLine
 10
124.0
 20
35.85
 30
0.0
 11
124.0
 21
-35.85
 31
0.0
  0
CIRCLE
  5
112
330
2
100
AcDbEntity
  8
ANCON-DSD
  6
Continuous
100
AcDbCircle
 10
104.0
 20
-0.0000000000000142
 30
0.0
 40
8.0
  0
LINE
  5
113
330
2
100
AcDbEntity
  8
ANCON-GRID
  6
CENTER2
100
AcDbLine
 10
115.9838722080842
 20
-0.6219380196659898
 30
0.0
 11
92.01612779191576
 21
-0.6219380196659898
 31
0.0
  0
LINE
  5
114
330
2
100
AcDbEntity
  8
ANCON-DSD
  6
Continuous
100
AcDbLine
 10
250.0000000000002
 20
-39.10733408074374
 30
0.0
 11
250.0
 21
-81.10733408074363
 31
0.0
  0
DIMENSION
  5
115
330
2
100
AcDbEntity
  8
ANCON-DIMS
100
AcDbDimension
  2
*D11
 10
342.1753285103582
 20
-84.15000000000004
 30
0.0
 11
339.1753285103582
 21
-72.07499999999997
 31
0.0
  1
24.15
 71
     5
 42
-1.0
  3
1-1
100
AcDbAlignedDimension
 13
305.0
 23
-59.99999999999992
 33
0.0
 14
290.0
 24
-84.15000000000004
 34
0.0
 50
90.0
100
AcDbRotatedDimension
  0
LINE
  5
122
330
2
100
AcDbEntity
  8
ANCON-DSD
  6
Continuous
100
AcDbLine
 10
290.0
 20
-38.35
 30
0.0
 11
290.0
 21
-81.62330649580917
 31
0.0
  0
LINE
  5
123
330
2
100
AcDbEntity
  8
ANCON-DSD
  6
Continuous
100
AcDbLine
 10
290.0
 20
-35.85
 30
0.0
 11
290.0
 21
-84.15000000000004
 31
0.0
  0
LINE
  5
124
330
2
100
AcDbEntity
  8
ANCON-DSD
  6
Continuous
100
AcDbLine
 10
295.0
 20
-36.84999999999995
 30
0.0
 11
295.0
 21
-83.15000000000003
 31
0.0
  0
LINE
  5
125
330
2
100
AcDbEntity
  8
ANCON-DSD
  6
Continuous
100
AcDbLine
 10
295.0000000000002
 20
-83.15000000000003
 30
0.0
 11
290.0
 21
-83.15000000000003
 31
0.0
  0
LINE
  5
126
330
2
100
AcDbEntity
  8
ANCON-DSD
  6
Continuous
100
AcDbLine
 10
295.0
 20
-36.84999999999995
 30
0.0
 11
290.0
 21
-36.84999999999995
 31
0.0
  0
TEXT
  5
127
330
2
100
AcDbEntity
  8
ANCON-TEXT
  6
Continuous
100
AcDbText
 10
168.4849324513841
 20
170.0804194187227
 30
0.0
 40
5.0
  1
SUITABLE FOR A DESIGN JOINT WIDTH OF ?? MM
  7
ROMANS
 72
     4
 11
263.3658848323365
 21
172.5804194187228
 31
0.0
100
AcDbText
  0
LINE
  5
128
330
2
100
AcDbEntity
  8
ANCON-TEXT
  6
Continuous
100
AcDbLine
 10
164.8556868925427
 20
199.3270789939532
 30
0.0
 11
367.3426369991831
 21
199.3270789939532
 31
0.0
  0
LINE
  5
129
330
2
100
AcDbEntity
  8
ANCON-TEXT
  6
Continuous
100
AcDbLine
 10
164.8556868925427
 20
146.2933864084028
 30
0.0
 11
367.3426369991831
 21
146.2933864084028
 31
0.0
  0
TEXT
  5
12A
330
2
100
AcDbEntity
  8
ANCON-TEXT
  6
Continuous
100
AcDbText
 10
168.9393676213342
 20
160.0313620047937
 30
0.0
 40
5.0
  1
AND CAPABLE OF TRANSFERRING A SERVICEABILITY
  7
ROMANS
 72
     4
 11
266.3203200022866
 21
162.5313620047937
 31
0.0
100
AcDbText
  0
TEXT
  5
12B
330
2
100
AcDbEntity
  8
ANCON-TEXT
  6
Continuous
100
AcDbText
 10
168.4262356913265
 20
179.9815671283925
 30
0.0
 40
5.0
  1
COMPRISING SLEEVE AND DOWEL COMPONENT
  7
ROMANS
 72
     4
 11
256.4024261675171
 21
182.4815671283925
 31
0.0
100
AcDbText
  0
TEXT
  5
12C
330
2
100
AcDbEntity
  8
ANCON-TEXT
  6
Continuous
100
AcDbText
 10
169.1474200973823
 20
190.0862794541831
 30
0.0
 40
5.0
  1
TWO PART STAINLESS STEEL SHEAR CONNECTOR
  7
ROMANS
 72
     4
 11
261.7664677164301
 21
192.5862794541831
 31
0.0
100
AcDbText
  0
LINE
  5
12D
330
2
100
AcDbEntity
  8
ANCON-TEXT
  6
Continuous
100
AcDbLine
 10
164.8556868925427
 20
199.3270789939532
 30
0.0
 11
164.8556868925427
 21
146.2933864084028
 31
0.0
  0
LINE
  5
12E
330
2
100
AcDbEntity
  8
ANCON-DSD
  6
Continuous
100
AcDbLine
 10
250.0
 20
80.89266591925762
 30
0.0
 11
250.0
 21
38.8926659192576
 31
0.0
  0
TEXT
  5
12F
330
2
100
AcDbEntity
  8
ANCON-TEXT
  6
Continuous
100
AcDbText
 10
170.1251483776773
 20
149.9964368398314
 30
0.0
 40
5.0
  1
LOAD OF ??? kN
  7
ROMANS
 72
     4
 11
202.7441959967249
 21
152.4964368398314
 31
0.0
100
AcDbText
  0
LINE
  5
130
330
2
100
AcDbEntity
  8
ANCON-TEXT
  6
Continuous
100
AcDbLine
 10
164.8556868925427
 20
216.7756173690457
 30
0.0
 11
232.4455378153046
 21
216.7756173690457
 31
0.0
  0
LINE
  5
131
330
2
100
AcDbEntity
  8
ANCON-TEXT
  6
Continuous
100
AcDbLine
 10
164.8556868925427
 20
228.693592661047
 30
0.0
 11
232.4455378153046
 21
228.693592661047
 31
0.0
  0
LINE
  5
132
330
2
100
AcDbEntity
  8
ANCON-TEXT
  6
Continuous
100
AcDbLine
 10
164.8556868925427
 20
228.693592661047
 30
0.0
 11
164.8556868925427
 21
216.7756173690457
 31
0.0
  0
TEXT
  5
133
330
2
100
AcDbEntity
  8
ANCON-TEXT
  6
Continuous
100
AcDbText
 10
169.3497965659347
 20
220.0564825452035
 30
0.0
 40
5.0
  1
STAIFIX DSD ??
  7
ROMANS
 72
     4
 11
198.8736060897443
 21
222.5564825452035
 31
0.0
100
AcDbText
  0
LINE
  5
134
330
2
100
AcDbEntity
  8
ANCON-TEXT
  6
Continuous
100
AcDbLine
 10
232.4455378153046
 20
228.693592661047
 30
0.0
 11
232.4455378153046
 21
216.7756173690457
 31
0.0
  0
LINE
  5
135
330
2
100
AcDbEntity
  8
ANCON-TEXT
  6
Continuous
100
AcDbLine
 10
367.3426369991831
 20
199.3270789939532
 30
0.0
 11
367.3426369991831
 21
146.2933864084028
 31
0.0
  0
DIMENSION
  5
136
330
2
100
AcDbEntity
  8
ANCON-DIMS
100
AcDbDimension
  2
*D12
 10
342.1753285103582
 20
59.99999999999996
 30
0.0
 11
339.1753285103582
 21
47.92499999999997
 31
0.0
  1
24.15
 71
     5
 42
-1.0
  3
1-1
100
AcDbAlignedDimension
 13
290.0
 23
35.85
 33
0.0
 14
304.9999999999997
 24
59.99999999999996
 34
0.0
 50
90.0
100
AcDbRotatedDimension
  0
LINE
  5
143
330
2
100
AcDbEntity
  8
ANCON-DSD
  6
Continuous
100
AcDbLine
 10
290.0
 20
35.85
 30
0.0
 11
290.0
 21
84.15000000000002
 31
0.0
  0
LINE
  5
144
330
2
100
AcDbEntity
  8
ANCON-DSD
  6
Continuous
100
AcDbLine
 10
294.9999999999997
 20
36.84999999999995
 30
0.0
 11
295.0
 21
83.14999999999995
 31
0.0
  0
LINE
  5
145
330
2
100
AcDbEntity
  8
ANCON-DSD
100
AcDbLine
 10
294.9999999999997
 20
36.84999999999995
 30
0.0
 11
290.0
 21
36.84999999999995
 31
0.0
  0
LINE
  5
146
330
2
100
AcDbEntity
  8
ANCON-DSD
  6
Continuous
100
AcDbLine
 10
295.0
 20
83.14999999999995
 30
0.0
 11
290.0000000000002
 21
83.14999999999995
 31
0.0
  0
ENDSEC
  0
SECTION
  2
OBJECTS
  0
DICTIONARY
  5
26
330
0
100
AcDbDictionary
281
     1
  3
ACAD_GROUP
350
22
  3
ACAD_LAYOUT
350
14A
  3
ACAD_MLINESTYLE
350
23
  3
ACAD_PLOTSETTINGS
350
14B
  3
ACAD_PLOTSTYLENAME
350
148
  0
DICTIONARY
  5
3
330
2
100
AcDbDictionary
280
     1
281
     1
  3
ACAD_LAYOUTSELFREF
360
17B
  0
DICTIONARY
  5
B
330
A
100
AcDbDictionary
280
     1
281
     1
  3
ACAD_LAYOUTSELFREF
360
17C
  0
DICTIONARY
  5
22
102
{ACAD_REACTORS
330
26
102
}
330
26
100
AcDbDictionary
281
     1
  0
DICTIONARY
  5
14A
102
{ACAD_REACTORS
330
26
102
}
330
26
100
AcDbDictionary
281
     1
  3
Layout1
350
14D
  3
Model
350
14C
  0
DICTIONARY
  5
23
102
{ACAD_REACTORS
330
26
102
}
330
26
100
AcDbDictionary
281
     1
  3
Standard
350
29
  0
DICTIONARY
  5
14B
102
{ACAD_REACTORS
330
26
102
}
330
26
100
AcDbDictionary
281
     1
  0
ACDBDICTIONARYWDFLT
  5
148
102
{ACAD_REACTORS
330
26
102
}
330
26
100
AcDbDictionary
281
     1
  3
Normal
350
149
100
AcDbDictionaryWithDefault
340
149
  0
XRECORD
  5
17B
102
{ACAD_REACTORS
330
3
102
}
330
3
100
AcDbXrecord
280
     1
340
2
  0
XRECORD
  5
17C
102
{ACAD_REACTORS
330
B
102
}
330
B
100
AcDbXrecord
280
     1
340
A
  0
LAYOUT
  5
14D
102
{ACAD_REACTORS
330
14A
102
}
330
14A
100
AcDbPlotSettings
  1

  2
None
  4

  6

 40
0.0
 41
0.0
 42
0.0
 43
0.0
 44
0.0
 45
0.0
 46
0.0
 47
0.0
 48
0.0
 49
0.0
140
0.0
141
0.0
142
1.0
143
1.0
 70
   688
 72
     0
 73
     0
 74
     5
  7
Std pen settings.ctb
 75
    16
147
1.0
148
0.0
149
0.0
100
AcDbLayout
  1
Layout1
 70
     1
 71
     1
 10
-0.1979161059762549
 20
-0.1979166691697489
 11
16.34375024029589
 21
11.49541603298637
 12
0.0
 22
0.0
 32
0.0
 14
1.614583349603368
 24
1.129749872553066
 34
0.0
 15
14.5312501464303
 25
10.1677488529776
 35
0.0
146
0.0
 13
0.0
 23
0.0
 33
0.0
 16
1.0
 26
0.0
 36
0.0
 17
0.0
 27
1.0
 37
0.0
 76
     0
330
A
  0
LAYOUT
  5
14C
102
{ACAD_REACTORS
330
14A
102
}
330
14A
100
AcDbPlotSettings
  1

  2
None
  4

  6

 40
0.0
 41
0.0
 42
0.0
 43
0.0
 44
0.0
 45
0.0
 46
0.0
 47
0.0
 48
0.0
 49
0.0
140
0.0
141
0.0
142
1.0
143
1.0
 70
  1712
 72
     0
 73
     0
 74
     0
  7
Std pen settings.ctb
 75
     0
147
1.0
148
0.0
149
0.0
100
AcDbLayout
  1
Model
 70
     1
 71
     0
 10
0.0
 20
0.0
 11
12.0
 21
9.0
 12
0.0
 22
0.0
 32
0.0
 14
0.0
 24
0.0
 34
0.0
 15
0.0
 25
0.0
 35
0.0
146
0.0
 13
0.0
 23
0.0
 33
0.0
 16
1.0
 26
0.0
 36
0.0
 17
0.0
 27
1.0
 37
0.0
 76
     0
330
2
  0
MLINESTYLE
  5
29
102
{ACAD_REACTORS
330
23
102
}
330
23
100
AcDbMlineStyle
  2
STANDARD
 70
     0
  3

 62
   256
 51
90.0
 52
90.0
 71
     2
 49
0.5
 62
   256
  6
BYLAYER
 49
-0.5
 62
   256
  6
BYLAYER
  0
ACDBPLACEHOLDER
  5
149
102
{ACAD_REACTORS
330
148
102
}
330
148
  0
ENDSEC
  0
EOF
