  0
SECTION
  2
HEADER
  9
$ACADVER
  1
AC1015
  9
$ACADMAINTVER
 70
    10
  9
$DWGCODEPAGE
  3
ANSI_1252
  9
$INSBASE
 10
0.0
 20
-0.0000000000000142
 30
0.0
  9
$EXTMIN
 10
-360.0271680024536
 20
-279.558733584181
 30
-0.0015258207003583
  9
$EXTMAX
 10
530.3362007086721
 20
258.1337564830294
 30
0.0000000349246037
  9
$LIMMIN
 10
0.0
 20
0.0
  9
$LIMMAX
 10
420.0
 20
297.0
  9
$ORTHOMODE
 70
     1
  9
$REGENMODE
 70
     1
  9
$FILLMODE
 70
     1
  9
$QTEXTMODE
 70
     0
  9
$MIRRTEXT
 70
     1
  9
$LTSCALE
 40
0.25
  9
$ATTMODE
 70
     1
  9
$TEXTSIZE
 40
5.0
  9
$TRACEWID
 40
10.0
  9
$TEXTSTYLE
  7
ROMANS
  9
$CLAYER
  8
DIMS
  9
$CELTYPE
  6
ByLayer
  9
$CECOLOR
 62
   256
  9
$CELTSCALE
 40
1.0
  9
$DISPSILH
 70
     0
  9
$DIMSCALE
 40
2.0
  9
$DIMASZ
 40
2.0
  9
$DIMEXO
 40
4.5
  9
$DIMDLI
 40
0.0
  9
$DIMRND
 40
0.5
  9
$DIMDLE
 40
0.0
  9
$DIMEXE
 40
1.5
  9
$DIMTP
 40
0.0
  9
$DIMTM
 40
0.0
  9
$DIMTXT
 40
1.8
  9
$DIMCEN
 40
0.0
  9
$DIMTSZ
 40
0.0
  9
$DIMTOL
 70
     0
  9
$DIMLIM
 70
     0
  9
$DIMTIH
 70
     0
  9
$DIMTOH
 70
     0
  9
$DIMSE1
 70
     0
  9
$DIMSE2
 70
     0
  9
$DIMTAD
 70
     1
  9
$DIMZIN
 70
    12
  9
$DIMBLK
  1

  9
$DIMASO
 70
     1
  9
$DIMSHO
 70
     0
  9
$DIMPOST
  1

  9
$DIMAPOST
  1

  9
$DIMALT
 70
     0
  9
$DIMALTD
 70
     0
  9
$DIMALTF
 40
25.4
  9
$DIMLFAC
 40
1.0
  9
$DIMTOFL
 70
     0
  9
$DIMTVP
 40
0.0
  9
$DIMTIX
 70
     0
  9
$DIMSOXD
 70
     0
  9
$DIMSAH
 70
     0
  9
$DIMBLK1
  1

  9
$DIMBLK2
  1

  9
$DIMSTYLE
  2
1-2
  9
$DIMCLRD
 70
     0
  9
$DIMCLRE
 70
     0
  9
$DIMCLRT
 70
     0
  9
$DIMTFAC
 40
1.25
  9
$DIMGAP
 40
0.1
  9
$DIMJUST
 70
     0
  9
$DIMSD1
 70
     0
  9
$DIMSD2
 70
     0
  9
$DIMTOLJ
 70
     1
  9
$DIMTZIN
 70
    12
  9
$DIMALTZ
 70
    12
  9
$DIMALTTZ
 70
    12
  9
$DIMUPT
 70
     0
  9
$DIMDEC
 70
     2
  9
$DIMTDEC
 70
     2
  9
$DIMALTU
 70
     2
  9
$DIMALTTD
 70
     0
  9
$DIMTXSTY
  7
STANDARD
  9
$DIMAUNIT
 70
     0
  9
$DIMADEC
 70
     0
  9
$DIMALTRND
 40
0.0
  9
$DIMAZIN
 70
     0
  9
$DIMDSEP
 70
    46
  9
$DIMATFIT
 70
     3
  9
$DIMFRAC
 70
     0
  9
$DIMLDRBLK
  1

  9
$DIMLUNIT
 70
     2
  9
$DIMLWD
 70
    -2
  9
$DIMLWE
 70
    -2
  9
$DIMTMOVE
 70
     2
  9
$LUNITS
 70
     2
  9
$LUPREC
 70
     2
  9
$SKETCHINC
 40
1.0
  9
$FILLETRAD
 40
0.0
  9
$AUNITS
 70
     0
  9
$AUPREC
 70
     4
  9
$MENU
  1
acad
  9
$ELEVATION
 40
0.0
  9
$PELEVATION
 40
0.0
  9
$THICKNESS
 40
0.0
  9
$LIMCHECK
 70
     0
  9
$CHAMFERA
 40
0.0
  9
$CHAMFERB
 40
0.0
  9
$CHAMFERC
 40
0.0
  9
$CHAMFERD
 40
0.0
  9
$SKPOLY
 70
     0
  9
$TDCREATE
 40
2449527.571155092
  9
$TDUCREATE
 40
2449527.529488425
  9
$TDUPDATE
 40
2452188.590717511
  9
$TDUUPDATE
 40
2452188.549050844
  9
$TDINDWG
 40
0.9117621296
  9
$TDUSRTIMER
 40
0.9117621296
  9
$USRTIMER
 70
     1
  9
$ANGBASE
 50
0.0
  9
$ANGDIR
 70
     0
  9
$PDMODE
 70
     0
  9
$PDSIZE
 40
0.0
  9
$PLINEWID
 40
0.0
  9
$SPLFRAME
 70
     0
  9
$SPLINETYPE
 70
     6
  9
$SPLINESEGS
 70
     8
  9
$HANDSEED
  5
189
  9
$SURFTAB1
 70
    18
  9
$SURFTAB2
 70
    18
  9
$SURFTYPE
 70
     6
  9
$SURFU
 70
    18
  9
$SURFV
 70
    18
  9
$UCSBASE
  2

  9
$UCSNAME
  2

  9
$UCSORG
 10
0.0
 20
0.0
 30
0.0
  9
$UCSXDIR
 10
1.0
 20
0.0
 30
0.0
  9
$UCSYDIR
 10
0.0
 20
1.0
 30
0.0
  9
$UCSORTHOREF
  2

  9
$UCSORTHOVIEW
 70
     0
  9
$UCSORGTOP
 10
0.0
 20
0.0
 30
0.0
  9
$UCSORGBOTTOM
 10
0.0
 20
0.0
 30
0.0
  9
$UCSORGLEFT
 10
0.0
 20
0.0
 30
0.0
  9
$UCSORGRIGHT
 10
0.0
 20
0.0
 30
0.0
  9
$UCSORGFRONT
 10
0.0
 20
0.0
 30
0.0
  9
$UCSORGBACK
 10
0.0
 20
0.0
 30
0.0
  9
$PUCSBASE
  2

  9
$PUCSNAME
  2

  9
$PUCSORG
 10
0.0
 20
0.0
 30
0.0
  9
$PUCSXDIR
 10
1.0
 20
0.0
 30
0.0
  9
$PUCSYDIR
 10
0.0
 20
1.0
 30
0.0
  9
$PUCSORTHOREF
  2

  9
$PUCSORTHOVIEW
 70
     0
  9
$PUCSORGTOP
 10
0.0
 20
0.0
 30
0.0
  9
$PUCSORGBOTTOM
 10
0.0
 20
0.0
 30
0.0
  9
$PUCSORGLEFT
 10
0.0
 20
0.0
 30
0.0
  9
$PUCSORGRIGHT
 10
0.0
 20
0.0
 30
0.0
  9
$PUCSORGFRONT
 10
0.0
 20
0.0
 30
0.0
  9
$PUCSORGBACK
 10
0.0
 20
0.0
 30
0.0
  9
$USERI1
 70
     0
  9
$USERI2
 70
     0
  9
$USERI3
 70
     0
  9
$USERI4
 70
     0
  9
$USERI5
 70
     0
  9
$USERR1
 40
0.0
  9
$USERR2
 40
0.0
  9
$USERR3
 40
0.0
  9
$USERR4
 40
0.0
  9
$USERR5
 40
0.0
  9
$WORLDVIEW
 70
     1
  9
$SHADEDGE
 70
     3
  9
$SHADEDIF
 70
    70
  9
$TILEMODE
 70
     1
  9
$MAXACTVP
 70
    16
  9
$PINSBASE
 10
0.0
 20
0.0
 30
0.0
  9
$PLIMCHECK
 70
     0
  9
$PEXTMIN
 10
1.614583349603368
 20
1.129749872553066
 30
0.0
  9
$PEXTMAX
 10
14.5312501464303
 20
10.1677488529776
 30
0.0
  9
$PLIMMIN
 10
-0.1979161059762549
 20
-0.1979166691697489
  9
$PLIMMAX
 10
16.34375024029589
 20
11.49541603298637
  9
$UNITMODE
 70
     0
  9
$VISRETAIN
 70
     0
  9
$PLINEGEN
 70
     0
  9
$PSLTSCALE
 70
     1
  9
$TREEDEPTH
 70
  3020
  9
$CMLSTYLE
  2
Standard
  9
$CMLJUST
 70
     0
  9
$CMLSCALE
 40
1.0
  9
$PROXYGRAPHICS
 70
     1
  9
$MEASUREMENT
 70
     0
  9
$CELWEIGHT
370
    -1
  9
$ENDCAPS
280
     0
  9
$JOINSTYLE
280
     0
  9
$LWDISPLAY
290
     0
  9
$INSUNITS
 70
     0
  9
$HYPERLINKBASE
  1

  9
$STYLESHEET
  1

  9
$XEDIT
290
     1
  9
$CEPSNTYPE
380
     0
  9
$PSTYLEMODE
290
     1
  9
$FINGERPRINTGUID
  2
{E9092373-29B6-4A1D-B9EC-86FE5E5F6876}
  9
$VERSIONGUID
  2
{9BB982BC-8EE4-4FFE-82CB-DA3FF926BDA3}
  9
$EXTNAMES
290
     1
  9
$PSVPSCALE
 40
0.0
  9
$OLESTARTUP
290
     0
  0
ENDSEC
  0
SECTION
  2
CLASSES
  0
CLASS
  1
ACDBDICTIONARYWDFLT
  2
AcDbDictionaryWithDefault
  3
AutoCAD 2000
 90
        0
280
     1
281
     0
  0
CLASS
  1
ACDBPLACEHOLDER
  2
AcDbPlaceHolder
  3
AutoCAD 2000
 90
        0
280
     1
281
     0
  0
CLASS
  1
LAYOUT
  2
AcDbLayout
  3
AutoCAD 2000
 90
        0
280
     1
281
     0
  0
CLASS
  1
LONG_TRANSACTION
  2
AcDbLongTransaction
  3
AutoCAD 2000
 90
    32768
280
     1
281
     0
  0
CLASS
  1
LWPOLYLINE
  2
AcDbPolyline
  3
AutoCAD 2000
 90
    32768
280
     0
281
     1
  0
CLASS
  1
HATCH
  2
AcDbHatch
  3
AutoCAD 2000
 90
    32768
280
     0
281
     1
  0
CLASS
  1
XRECORD
  2
AcDbXrecord
  3
AutoCAD 2000
 90
    32768
280
     0
281
     0
  0
ENDSEC
  0
SECTION
  2
TABLES
  0
TABLE
  2
VPORT
  5
1C
330
0
100
AcDbSymbolTable
 70
     3
  0
VPORT
  5
188
330
1C
100
AcDbSymbolTableRecord
100
AcDbViewportTableRecord
  2
*Active
 70
     0
 10
0.0
 20
0.0
 11
1.0
 21
1.0
 12
93.27016256931846
 22
5.654061116335753
 13
0.0
 23
0.0
 14
5.0
 24
5.0
 15
10.0
 25
10.0
 16
0.0
 26
0.0
 36
1.0
 17
0.0
 27
0.0
 37
0.0
 40
758.4070137930503
 41
1.6541822721598
 42
50.0
 43
0.0
 44
0.0
 50
0.0
 51
0.0
 71
     0
 72
   100
 73
     1
 74
     1
 75
     0
 76
     0
 77
     0
 78
     0
281
     0
 65
     1
110
0.0
120
0.0
130
0.0
111
1.0
121
0.0
131
0.0
112
0.0
122
1.0
132
0.0
 79
     0
146
0.0
  0
ENDTAB
  0
TABLE
  2
LTYPE
  5
13
330
0
100
AcDbSymbolTable
 70
     3
  0
LTYPE
  5
14
330
13
100
AcDbSymbolTableRecord
100
AcDbLinetypeTableRecord
  2
ByBlock
 70
     0
  3

 72
    65
 73
     0
 40
0.0
  0
LTYPE
  5
17
330
13
100
AcDbSymbolTableRecord
100
AcDbLinetypeTableRecord
  2
ByLayer
 70
     0
  3

 72
    65
 73
     0
 40
0.0
  0
LTYPE
  5
8
330
13
100
AcDbSymbolTableRecord
100
AcDbLinetypeTableRecord
  2
CONTINUOUS
 70
     0
  3
Solid line
 72
    65
 73
     0
 40
0.0
  0
LTYPE
  5
2F
330
13
100
AcDbSymbolTableRecord
100
AcDbLinetypeTableRecord
  2
CENTER2
 70
     0
  3
___ _ ___ _ ___ _ ___ _ ___ _ ___ _ ___ _ ___ _
 72
    65
 73
     4
 40
28.57499999999999
 49
19.05
 74
     0
 49
-3.174999999999999
 74
     0
 49
3.174999999999999
 74
     0
 49
-3.174999999999999
 74
     0
  0
LTYPE
  5
32
330
13
100
AcDbSymbolTableRecord
100
AcDbLinetypeTableRecord
  2
HIDDEN
 70
     0
  3
__ __ __ __ __ __ __ __ __ __ __ __ __ __ __ __
 72
    65
 73
     2
 40
9.524999999999998
 49
6.349999999999999
 74
     0
 49
-3.174999999999999
 74
     0
  0
ENDTAB
  0
TABLE
  2
LAYER
  5
10
330
0
100
AcDbSymbolTable
 70
     9
  0
LAYER
  5
7
330
10
100
AcDbSymbolTableRecord
100
AcDbLayerTableRecord
  2
0
 70
     0
 62
     7
  6
CONTINUOUS
370
    -3
390
14C
  0
LAYER
  5
27
330
10
100
AcDbSymbolTableRecord
100
AcDbLayerTableRecord
  2
DIMS
 70
     0
 62
     1
  6
CONTINUOUS
370
    -3
390
14C
  0
LAYER
  5
61
330
10
100
AcDbSymbolTableRecord
100
AcDbLayerTableRecord
  2
ANCON-DSD
 70
     0
 62
     3
  6
CONTINUOUS
370
    -3
390
14C
  0
LAYER
  5
3F
330
10
100
AcDbSymbolTableRecord
100
AcDbLayerTableRecord
  2
DEFPOINTS
 70
     0
 62
     7
  6
CONTINUOUS
290
     0
370
    -3
390
14C
  0
LAYER
  5
9E
330
10
100
AcDbSymbolTableRecord
100
AcDbLayerTableRecord
  2
CONCRETE
 70
     0
 62
     2
  6
CONTINUOUS
370
    -3
390
14C
  0
LAYER
  5
2E
330
10
100
AcDbSymbolTableRecord
100
AcDbLayerTableRecord
  2
20MM-JOINT
 70
     0
 62
     7
  6
CONTINUOUS
370
    -3
390
14C
  0
LAYER
  5
64
330
10
100
AcDbSymbolTableRecord
100
AcDbLayerTableRecord
  2
SPECP
 70
     0
 62
     6
  6
CONTINUOUS
370
    -3
390
14C
  0
LAYER
  5
66
330
10
100
AcDbSymbolTableRecord
100
AcDbLayerTableRecord
  2
SPECD
 70
     0
 62
     6
  6
CONTINUOUS
370
    -3
390
14C
  0
LAYER
  5
6E
330
10
100
AcDbSymbolTableRecord
100
AcDbLayerTableRecord
  2
20MM-DIMS
 70
     0
 62
     1
  6
CONTINUOUS
370
    -3
390
14C
  0
ENDTAB
  0
TABLE
  2
STYLE
  5
11
330
0
100
AcDbSymbolTable
 70
     2
  0
STYLE
  5
12
330
11
100
AcDbSymbolTableRecord
100
AcDbTextStyleTableRecord
  2
STANDARD
 70
     0
 40
0.0
 41
1.0
 50
0.0
 71
     0
 42
6.0
  3
txt.shx
  4

  0
STYLE
  5
28
330
11
100
AcDbSymbolTableRecord
100
AcDbTextStyleTableRecord
  2
ROMANS
 70
     0
 40
0.0
 41
1.0
 50
0.0
 71
     0
 42
5.0
  3
romans
  4

  0
ENDTAB
  0
TABLE
  2
VIEW
  5
1A
330
0
100
AcDbSymbolTable
 70
     0
  0
ENDTAB
  0
TABLE
  2
UCS
  5
1B
330
0
100
AcDbSymbolTable
 70
     0
  0
ENDTAB
  0
TABLE
  2
APPID
  5
1E
330
0
100
AcDbSymbolTable
 70
     1
  0
APPID
  5
1F
330
1E
100
AcDbSymbolTableRecord
100
AcDbRegAppTableRecord
  2
ACAD
 70
     0
  0
ENDTAB
  0
TABLE
  2
DIMSTYLE
  5
20
330
0
100
AcDbSymbolTable
 70
     1
100
AcDbDimStyleTable
 71
     0
  0
DIMSTYLE
105
2A
102
{ACAD_REACTORS
330
53
330
107
330
139
330
116
330
46
330
D6
330
8C
330
36
330
7B
330
6D
330
C9
330
AB
330
BC
102
}
330
20
100
AcDbSymbolTableRecord
100
AcDbDimStyleTableRecord
  2
1-2
 70
     0
 40
2.0
 41
2.0
 42
4.5
 43
0.0
 44
1.5
 45
0.5
 73
     0
 74
     0
 77
     1
 78
    12
140
1.8
141
0.0
146
1.25
147
0.1
171
     0
271
     2
272
     2
274
     0
279
     2
284
    12
285
    12
286
    12
340
12
  0
ENDTAB
  0
TABLE
  2
BLOCK_RECORD
  5
1
330
0
100
AcDbSymbolTable
 70
    14
  0
BLOCK_RECORD
  5
2
102
{ACAD_XDICTIONARY
360
3
102
}
330
1
100
AcDbSymbolTableRecord
100
AcDbBlockTableRecord
  2
*Model_Space
340
14F
  0
BLOCK_RECORD
  5
A
102
{ACAD_XDICTIONARY
360
B
102
}
330
1
100
AcDbSymbolTableRecord
100
AcDbBlockTableRecord
  2
*Paper_Space
340
150
  0
BLOCK_RECORD
  5
54
330
1
100
AcDbSymbolTableRecord
100
AcDbBlockTableRecord
  2
*D0
340
0
  0
BLOCK_RECORD
  5
D7
330
1
100
AcDbSymbolTableRecord
100
AcDbBlockTableRecord
  2
*D1
340
0
  0
BLOCK_RECORD
  5
47
330
1
100
AcDbSymbolTableRecord
100
AcDbBlockTableRecord
  2
*D2
340
0
  0
BLOCK_RECORD
  5
108
330
1
100
AcDbSymbolTableRecord
100
AcDbBlockTableRecord
  2
*D3
340
0
  0
BLOCK_RECORD
  5
117
330
1
100
AcDbSymbolTableRecord
100
AcDbBlockTableRecord
  2
*D4
340
0
  0
BLOCK_RECORD
  5
13A
330
1
100
AcDbSymbolTableRecord
100
AcDbBlockTableRecord
  2
*D5
340
0
  0
BLOCK_RECORD
  5
8D
330
1
100
AcDbSymbolTableRecord
100
AcDbBlockTableRecord
  2
*D6
340
0
  0
BLOCK_RECORD
  5
37
330
1
100
AcDbSymbolTableRecord
100
AcDbBlockTableRecord
  2
*D7
340
0
  0
BLOCK_RECORD
  5
7C
330
1
100
AcDbSymbolTableRecord
100
AcDbBlockTableRecord
  2
*D8
340
0
  0
BLOCK_RECORD
  5
6F
330
1
100
AcDbSymbolTableRecord
100
AcDbBlockTableRecord
  2
*D9
340
0
  0
BLOCK_RECORD
  5
AC
330
1
100
AcDbSymbolTableRecord
100
AcDbBlockTableRecord
  2
*D10
340
0
  0
BLOCK_RECORD
  5
BD
330
1
100
AcDbSymbolTableRecord
100
AcDbBlockTableRecord
  2
*D11
340
0
  0
BLOCK_RECORD
  5
CA
330
1
100
AcDbSymbolTableRecord
100
AcDbBlockTableRecord
  2
*D12
340
0
  0
BLOCK_RECORD
  5
A0
330
1
100
AcDbSymbolTableRecord
100
AcDbBlockTableRecord
  2
A$C6BE937E7
340
0
102
{BLKREFS
331
9F
102
}
  0
ENDTAB
  0
ENDSEC
  0
SECTION
  2
BLOCKS
  0
BLOCK
  5
6
330
2
100
AcDbEntity
  8
0
100
AcDbBlockBegin
  2
*Model_Space
 70
     0
 10
0.0
 20
0.0
 30
0.0
  3
*Model_Space
  1

  0
ENDBLK
  5
9
330
2
100
AcDbEntity
  8
0
100
AcDbBlockEnd
  0
BLOCK
  5
E
330
A
100
AcDbEntity
 67
     1
  8
0
100
AcDbBlockBegin
  2
*Paper_Space
 70
     0
 10
0.0
 20
0.0
 30
0.0
  3
*Paper_Space
  1

  0
ENDBLK
  5
F
330
A
100
AcDbEntity
 67
     1
  8
0
100
AcDbBlockEnd
  0
BLOCK
  5
5E
330
54
100
AcDbEntity
  8
0
100
AcDbBlockBegin
  2
*D0
 70
     1
 10
0.0
 20
0.0
 30
0.0
  3
*D0
  1

  0
LINE
  5
55
330
54
100
AcDbEntity
  8
0
  6
ByBlock
 62
     0
100
AcDbLine
 10
13.99977685237061
 20
-160.0
 30
0.0
 11
530.3090285603937
 21
-160.0
 31
0.0
  0
LINE
  5
56
330
54
100
AcDbEntity
  8
0
  6
ByBlock
 62
     0
100
AcDbLine
 10
14.0
 20
160.0
 30
0.0
 11
530.3090285603937
 21
160.0
 31
0.0
  0
LINE
  5
57
330
54
100
AcDbEntity
  8
0
  6
ByBlock
 62
     0
100
AcDbLine
 10
527.3090285603936
 20
-156.0
 30
0.0
 11
527.3090285603936
 21
156.0
 31
0.0
  0
SOLID
  5
58
330
54
100
AcDbEntity
  8
0
  6
ByBlock
 62
     0
100
AcDbTrace
 10
526.642361893727
 20
-156.0
 30
0.0
 11
527.9756952270603
 21
-156.0
 31
0.0
 12
527.3090285603936
 22
-160.0
 32
0.0
 13
527.3090285603936
 23
-160.0
 33
0.0
  0
SOLID
  5
59
330
54
100
AcDbEntity
  8
0
  6
ByBlock
 62
     0
100
AcDbTrace
 10
526.642361893727
 20
156.0
 30
0.0
 11
527.9756952270603
 21
156.0
 31
0.0
 12
527.3090285603936
 22
160.0
 32
0.0
 13
527.3090285603936
 23
160.0
 33
0.0
  0
TEXT
  5
5A
330
54
100
AcDbEntity
  8
0
  6
ByBlock
 62
     0
100
AcDbText
 10
525.5090285603936
 20
-5.142857142857157
 30
0.0
 40
3.6
  1
320
 50
90.0
  7
ROMANS
 72
     1
 11
523.7090285603937
 21
-0.0000000000000142
 31
0.0
100
AcDbText
 73
     2
  0
POINT
  5
5B
330
54
100
AcDbEntity
  8
DEFPOINTS
  6
ByBlock
 62
     0
100
AcDbPoint
 10
4.999776852370614
 20
-160.0
 30
0.0
  0
POINT
  5
5C
330
54
100
AcDbEntity
  8
DEFPOINTS
  6
ByBlock
 62
     0
100
AcDbPoint
 10
5.0
 20
160.0
 30
0.0
  0
POINT
  5
5D
330
54
100
AcDbEntity
  8
DEFPOINTS
  6
ByBlock
 62
     0
100
AcDbPoint
 10
527.3090285603936
 20
160.0
 30
0.0
  0
ENDBLK
  5
5F
330
54
100
AcDbEntity
  8
0
100
AcDbBlockEnd
  0
BLOCK
  5
E2
330
D7
100
AcDbEntity
  8
0
100
AcDbBlockBegin
  2
*D1
 70
     1
 10
0.0
 20
0.0
 30
0.0
  3
*D1
  1

  0
LINE
  5
D8
330
D7
100
AcDbEntity
  8
0
  6
ByBlock
 62
     0
100
AcDbLine
 10
5.0
 20
-169.0
 30
0.0
 11
5.0
 21
-182.4974168213519
 31
0.0
  0
LINE
  5
D9
330
D7
100
AcDbEntity
  8
0
  6
ByBlock
 62
     0
100
AcDbLine
 10
0.0
 20
-169.0
 30
0.0
 11
0.0
 21
-182.4974168213519
 31
0.0
  0
LINE
  5
DA
330
D7
100
AcDbEntity
  8
0
  6
ByBlock
 62
     0
100
AcDbLine
 10
9.0
 20
-179.4974168213519
 30
0.0
 11
13.0
 21
-179.4974168213519
 31
0.0
  0
LINE
  5
DB
330
D7
100
AcDbEntity
  8
0
  6
ByBlock
 62
     0
100
AcDbLine
 10
-4.0
 20
-179.4974168213519
 30
0.0
 11
-8.0
 21
-179.4974168213519
 31
0.0
  0
SOLID
  5
DC
330
D7
100
AcDbEntity
  8
0
  6
ByBlock
 62
     0
100
AcDbTrace
 10
9.0
 20
-178.8307501546853
 30
0.0
 11
9.0
 21
-180.1640834880186
 31
0.0
 12
5.0
 22
-179.4974168213519
 32
0.0
 13
5.0
 23
-179.4974168213519
 33
0.0
  0
SOLID
  5
DD
330
D7
100
AcDbEntity
  8
0
  6
ByBlock
 62
     0
100
AcDbTrace
 10
-4.0
 20
-178.8307501546853
 30
0.0
 11
-4.0
 21
-180.1640834880186
 31
0.0
 12
0.0
 22
-179.4974168213519
 32
0.0
 13
0.0
 23
-179.4974168213519
 33
0.0
  0
TEXT
  5
DE
330
D7
100
AcDbEntity
  8
0
  6
ByBlock
 62
     0
100
AcDbText
 10
-7.612689374711838
 20
-177.6974168213519
 30
0.0
 40
3.6
  1
5
  7
ROMANS
 72
     1
 11
-5.898403660426124
 21
-175.8974168213519
 31
0.0
100
AcDbText
 73
     2
  0
POINT
  5
DF
330
D7
100
AcDbEntity
  8
DEFPOINTS
  6
ByBlock
 62
     0
100
AcDbPoint
 10
5.0
 20
-160.0
 30
0.0
  0
POINT
  5
E0
330
D7
100
AcDbEntity
  8
DEFPOINTS
  6
ByBlock
 62
     0
100
AcDbPoint
 10
0.0
 20
-160.0
 30
0.0
  0
POINT
  5
E1
330
D7
100
AcDbEntity
  8
DEFPOINTS
  6
ByBlock
 62
     0
100
AcDbPoint
 10
0.0
 20
-179.4974168213519
 30
0.0
  0
ENDBLK
  5
E3
330
D7
100
AcDbEntity
  8
0
100
AcDbBlockEnd
  0
BLOCK
  5
51
330
47
100
AcDbEntity
  8
0
100
AcDbBlockBegin
  2
*D2
 70
     1
 10
0.0
 20
0.0
 30
0.0
  3
*D2
  1

  0
LINE
  5
48
330
47
100
AcDbEntity
  8
0
  6
ByBlock
 62
     0
100
AcDbLine
 10
0.0
 20
-169.0
 30
0.0
 11
0.0
 21
-197.9242433982734
 31
0.0
  0
LINE
  5
49
330
47
100
AcDbEntity
  8
0
  6
ByBlock
 62
     0
100
AcDbLine
 10
390.0
 20
-134.0
 30
0.0
 11
390.0
 21
-197.9242433982734
 31
0.0
  0
LINE
  5
4A
330
47
100
AcDbEntity
  8
0
  6
ByBlock
 62
     0
100
AcDbLine
 10
4.0
 20
-194.9242433982734
 30
0.0
 11
386.0
 21
-194.9242433982734
 31
0.0
  0
SOLID
  5
4B
330
47
100
AcDbEntity
  8
0
  6
ByBlock
 62
     0
100
AcDbTrace
 10
4.0
 20
-194.2575767316068
 30
0.0
 11
4.0
 21
-195.5909100649401
 31
0.0
 12
0.0
 22
-194.9242433982734
 32
0.0
 13
0.0
 23
-194.9242433982734
 33
0.0
  0
SOLID
  5
4C
330
47
100
AcDbEntity
  8
0
  6
ByBlock
 62
     0
100
AcDbTrace
 10
386.0
 20
-194.2575767316068
 30
0.0
 11
386.0
 21
-195.5909100649401
 31
0.0
 12
390.0
 22
-194.9242433982734
 32
0.0
 13
390.0
 23
-194.9242433982734
 33
0.0
  0
TEXT
  5
4D
330
47
100
AcDbEntity
  8
0
  6
ByBlock
 62
     0
100
AcDbText
 10
189.8571428571428
 20
-193.1242433982734
 30
0.0
 40
3.6
  1
390
  7
ROMANS
 72
     1
 11
195.0
 21
-191.3242433982734
 31
0.0
100
AcDbText
 73
     2
  0
POINT
  5
4E
330
47
100
AcDbEntity
  8
DEFPOINTS
  6
ByBlock
 62
     0
100
AcDbPoint
 10
0.0
 20
-160.0
 30
0.0
  0
POINT
  5
4F
330
47
100
AcDbEntity
  8
DEFPOINTS
  6
ByBlock
 62
     0
100
AcDbPoint
 10
390.0
 20
-125.0
 30
0.0
  0
POINT
  5
50
330
47
100
AcDbEntity
  8
DEFPOINTS
  6
ByBlock
 62
     0
100
AcDbPoint
 10
390.0
 20
-194.9242433982734
 30
0.0
  0
ENDBLK
  5
52
330
47
100
AcDbEntity
  8
0
100
AcDbBlockEnd
  0
BLOCK
  5
112
330
108
100
AcDbEntity
  8
0
100
AcDbBlockBegin
  2
*D3
 70
     1
 10
0.0
 20
0.0
 30
0.0
  3
*D3
  1

  0
LINE
  5
109
330
108
100
AcDbEntity
  8
0
  6
ByBlock
 62
     0
100
AcDbLine
 10
399.0
 20
-55.0
 30
0.0
 11
496.2567667478872
 21
-55.0
 31
0.0
  0
LINE
  5
10A
330
108
100
AcDbEntity
  8
0
  6
ByBlock
 62
     0
100
AcDbLine
 10
399.0
 20
54.99999999999994
 30
0.0
 11
496.2567667478872
 21
54.99999999999994
 31
0.0
  0
LINE
  5
10B
330
108
100
AcDbEntity
  8
0
  6
ByBlock
 62
     0
100
AcDbLine
 10
493.2567667478872
 20
-51.0
 30
0.0
 11
493.2567667478872
 21
50.99999999999994
 31
0.0
  0
SOLID
  5
10C
330
108
100
AcDbEntity
  8
0
  6
ByBlock
 62
     0
100
AcDbTrace
 10
492.5901000812205
 20
-51.0
 30
0.0
 11
493.9234334145539
 21
-51.0
 31
0.0
 12
493.2567667478872
 22
-55.0
 32
0.0
 13
493.2567667478872
 23
-55.0
 33
0.0
  0
SOLID
  5
10D
330
108
100
AcDbEntity
  8
0
  6
ByBlock
 62
     0
100
AcDbTrace
 10
492.5901000812205
 20
50.99999999999994
 30
0.0
 11
493.9234334145539
 21
50.99999999999994
 31
0.0
 12
493.2567667478872
 22
54.99999999999994
 32
0.0
 13
493.2567667478872
 23
54.99999999999994
 33
0.0
  0
TEXT
  5
10E
330
108
100
AcDbEntity
  8
0
  6
ByBlock
 62
     0
100
AcDbText
 10
491.4567667478872
 20
-5.400000000000027
 30
0.0
 40
3.6
  1
110
 50
90.0
  7
ROMANS
 72
     1
 11
489.6567667478872
 21
-0.0000000000000284
 31
0.0
100
AcDbText
 73
     2
  0
POINT
  5
10F
330
108
100
AcDbEntity
  8
DEFPOINTS
  6
ByBlock
 62
     0
100
AcDbPoint
 10
390.0
 20
-55.0
 30
0.0
  0
POINT
  5
110
330
108
100
AcDbEntity
  8
DEFPOINTS
  6
ByBlock
 62
     0
100
AcDbPoint
 10
390.0
 20
54.99999999999994
 30
0.0
  0
POINT
  5
111
330
108
100
AcDbEntity
  8
DEFPOINTS
  6
ByBlock
 62
     0
100
AcDbPoint
 10
493.2567667478872
 20
54.99999999999994
 30
0.0
  0
ENDBLK
  5
113
330
108
100
AcDbEntity
  8
0
100
AcDbBlockEnd
  0
BLOCK
  5
121
330
117
100
AcDbEntity
  8
0
100
AcDbBlockBegin
  2
*D4
 70
     1
 10
0.0
 20
0.0
 30
0.0
  3
*D4
  1

  0
LINE
  5
118
330
117
100
AcDbEntity
  8
0
  6
ByBlock
 62
     0
100
AcDbLine
 10
399.0
 20
-55.0
 30
0.0
 11
496.2567667478872
 21
-55.0
 31
0.0
  0
LINE
  5
119
330
117
100
AcDbEntity
  8
0
  6
ByBlock
 62
     0
100
AcDbLine
 10
414.0
 20
-90.0
 30
0.0
 11
496.2567667478872
 21
-90.0
 31
0.0
  0
LINE
  5
11A
330
117
100
AcDbEntity
  8
0
  6
ByBlock
 62
     0
100
AcDbLine
 10
493.2567667478872
 20
-59.0
 30
0.0
 11
493.2567667478872
 21
-86.0
 31
0.0
  0
SOLID
  5
11B
330
117
100
AcDbEntity
  8
0
  6
ByBlock
 62
     0
100
AcDbTrace
 10
492.5901000812205
 20
-59.0
 30
0.0
 11
493.9234334145539
 21
-59.0
 31
0.0
 12
493.2567667478872
 22
-55.0
 32
0.0
 13
493.2567667478872
 23
-55.0
 33
0.0
  0
SOLID
  5
11C
330
117
100
AcDbEntity
  8
0
  6
ByBlock
 62
     0
100
AcDbTrace
 10
492.5901000812205
 20
-86.0
 30
0.0
 11
493.9234334145539
 21
-86.0
 31
0.0
 12
493.2567667478872
 22
-90.0
 32
0.0
 13
493.2567667478872
 23
-90.0
 33
0.0
  0
TEXT
  5
11D
330
117
100
AcDbEntity
  8
0
  6
ByBlock
 62
     0
100
AcDbText
 10
491.4567667478872
 20
-75.92857142857143
 30
0.0
 40
3.6
  1
35
 50
90.0
  7
ROMANS
 72
     1
 11
489.6567667478872
 21
-72.5
 31
0.0
100
AcDbText
 73
     2
  0
POINT
  5
11E
330
117
100
AcDbEntity
  8
DEFPOINTS
  6
ByBlock
 62
     0
100
AcDbPoint
 10
390.0
 20
-55.0
 30
0.0
  0
POINT
  5
11F
330
117
100
AcDbEntity
  8
DEFPOINTS
  6
ByBlock
 62
     0
100
AcDbPoint
 10
405.0
 20
-90.0
 30
0.0
  0
POINT
  5
120
330
117
100
AcDbEntity
  8
DEFPOINTS
  6
ByBlock
 62
     0
100
AcDbPoint
 10
493.2567667478872
 20
-90.0
 30
0.0
  0
ENDBLK
  5
122
330
117
100
AcDbEntity
  8
0
100
AcDbBlockEnd
  0
BLOCK
  5
144
330
13A
100
AcDbEntity
  8
0
100
AcDbBlockBegin
  2
*D5
 70
     1
 10
0.0
 20
0.0
 30
0.0
  3
*D5
  1

  0
LINE
  5
13B
330
13A
100
AcDbEntity
  8
0
  6
ByBlock
 62
     0
100
AcDbLine
 10
399.0
 20
54.99999999999994
 30
0.0
 11
496.2567667478872
 21
54.99999999999994
 31
0.0
  0
LINE
  5
13C
330
13A
100
AcDbEntity
  8
0
  6
ByBlock
 62
     0
100
AcDbLine
 10
413.9999999999997
 20
89.99999999999994
 30
0.0
 11
496.2567667478872
 21
89.99999999999994
 31
0.0
  0
LINE
  5
13D
330
13A
100
AcDbEntity
  8
0
  6
ByBlock
 62
     0
100
AcDbLine
 10
493.2567667478872
 20
58.99999999999995
 30
0.0
 11
493.2567667478872
 21
85.99999999999994
 31
0.0
  0
SOLID
  5
13E
330
13A
100
AcDbEntity
  8
0
  6
ByBlock
 62
     0
100
AcDbTrace
 10
492.5901000812205
 20
58.99999999999995
 30
0.0
 11
493.9234334145539
 21
58.99999999999995
 31
0.0
 12
493.2567667478872
 22
54.99999999999994
 32
0.0
 13
493.2567667478872
 23
54.99999999999994
 33
0.0
  0
SOLID
  5
13F
330
13A
100
AcDbEntity
  8
0
  6
ByBlock
 62
     0
100
AcDbTrace
 10
492.5901000812205
 20
85.99999999999994
 30
0.0
 11
493.9234334145539
 21
85.99999999999994
 31
0.0
 12
493.2567667478872
 22
89.99999999999994
 32
0.0
 13
493.2567667478872
 23
89.99999999999994
 33
0.0
  0
TEXT
  5
140
330
13A
100
AcDbEntity
  8
0
  6
ByBlock
 62
     0
100
AcDbText
 10
491.4567667478872
 20
69.07142857142851
 30
0.0
 40
3.6
  1
35
 50
90.0
  7
ROMANS
 72
     1
 11
489.6567667478872
 21
72.49999999999994
 31
0.0
100
AcDbText
 73
     2
  0
POINT
  5
141
330
13A
100
AcDbEntity
  8
DEFPOINTS
  6
ByBlock
 62
     0
100
AcDbPoint
 10
390.0
 20
54.99999999999994
 30
0.0
  0
POINT
  5
142
330
13A
100
AcDbEntity
  8
DEFPOINTS
  6
ByBlock
 62
     0
100
AcDbPoint
 10
404.9999999999998
 20
89.99999999999994
 30
0.0
  0
POINT
  5
143
330
13A
100
AcDbEntity
  8
DEFPOINTS
  6
ByBlock
 62
     0
100
AcDbPoint
 10
493.2567667478872
 20
89.99999999999994
 30
0.0
  0
ENDBLK
  5
145
330
13A
100
AcDbEntity
  8
0
100
AcDbBlockEnd
  0
BLOCK
  5
97
330
8D
100
AcDbEntity
  8
0
100
AcDbBlockBegin
  2
*D6
 70
     1
 10
0.0
 20
0.0
 30
0.0
  3
*D6
  1

  0
LINE
  5
8E
330
8D
100
AcDbEntity
  8
0
  6
ByBlock
 62
     0
100
AcDbLine
 10
5.0
 20
-169.0
 30
0.0
 11
5.0
 21
-182.4974168213519
 31
0.0
  0
LINE
  5
8F
330
8D
100
AcDbEntity
  8
0
  6
ByBlock
 62
     0
100
AcDbLine
 10
80.0
 20
-25.71497389813941
 30
0.0
 11
80.0
 21
-182.4974168213519
 31
0.0
  0
LINE
  5
90
330
8D
100
AcDbEntity
  8
0
  6
ByBlock
 62
     0
100
AcDbLine
 10
9.0
 20
-179.4974168213519
 30
0.0
 11
76.0
 21
-179.4974168213519
 31
0.0
  0
SOLID
  5
91
330
8D
100
AcDbEntity
  8
0
  6
ByBlock
 62
     0
100
AcDbTrace
 10
9.0
 20
-178.8307501546853
 30
0.0
 11
9.0
 21
-180.1640834880186
 31
0.0
 12
5.0
 22
-179.4974168213519
 32
0.0
 13
5.0
 23
-179.4974168213519
 33
0.0
  0
SOLID
  5
92
330
8D
100
AcDbEntity
  8
0
  6
ByBlock
 62
     0
100
AcDbTrace
 10
76.0
 20
-178.8307501546853
 30
0.0
 11
76.0
 21
-180.1640834880186
 31
0.0
 12
80.0
 22
-179.4974168213519
 32
0.0
 13
80.0
 23
-179.4974168213519
 33
0.0
  0
TEXT
  5
93
330
8D
100
AcDbEntity
  8
0
  6
ByBlock
 62
     0
100
AcDbText
 10
39.07142857142856
 20
-177.6974168213519
 30
0.0
 40
3.6
  1
75
  7
ROMANS
 72
     1
 11
42.5
 21
-175.8974168213519
 31
0.0
100
AcDbText
 73
     2
  0
POINT
  5
94
330
8D
100
AcDbEntity
  8
DEFPOINTS
  6
ByBlock
 62
     0
100
AcDbPoint
 10
5.0
 20
-160.0
 30
0.0
  0
POINT
  5
95
330
8D
100
AcDbEntity
  8
DEFPOINTS
  6
ByBlock
 62
     0
100
AcDbPoint
 10
80.0
 20
-16.71497389813942
 30
0.0
  0
POINT
  5
96
330
8D
100
AcDbEntity
  8
DEFPOINTS
  6
ByBlock
 62
     0
100
AcDbPoint
 10
80.0
 20
-179.4974168213519
 30
0.0
  0
ENDBLK
  5
98
330
8D
100
AcDbEntity
  8
0
100
AcDbBlockEnd
  0
BLOCK
  5
44
330
37
100
AcDbEntity
  8
0
100
AcDbBlockBegin
  2
*D7
 70
     1
 10
0.0
 20
0.0
 30
0.0
  3
*D7
  1

  0
LINE
  5
38
330
37
100
AcDbEntity
  8
0
  6
ByBlock
 62
     0
100
AcDbLine
 10
80.0
 20
-25.71497389813941
 30
0.0
 11
80.0
 21
-182.4974168213519
 31
0.0
  0
LINE
  5
39
330
37
100
AcDbEntity
  8
0
  6
ByBlock
 62
     0
100
AcDbLine
 10
150.0
 20
-25.71497389813941
 30
0.0
 11
150.0
 21
-182.4974168213519
 31
0.0
  0
LINE
  5
3A
330
37
100
AcDbEntity
  8
0
  6
ByBlock
 62
     0
100
AcDbLine
 10
84.0
 20
-179.4974168213519
 30
0.0
 11
146.0
 21
-179.4974168213519
 31
0.0
  0
SOLID
  5
3B
330
37
100
AcDbEntity
  8
0
  6
ByBlock
 62
     0
100
AcDbTrace
 10
84.0
 20
-178.8307501546853
 30
0.0
 11
84.0
 21
-180.1640834880186
 31
0.0
 12
80.0
 22
-179.4974168213519
 32
0.0
 13
80.0
 23
-179.4974168213519
 33
0.0
  0
SOLID
  5
3C
330
37
100
AcDbEntity
  8
0
  6
ByBlock
 62
     0
100
AcDbTrace
 10
146.0
 20
-178.8307501546853
 30
0.0
 11
146.0
 21
-180.1640834880186
 31
0.0
 12
150.0
 22
-179.4974168213519
 32
0.0
 13
150.0
 23
-179.4974168213519
 33
0.0
  0
TEXT
  5
3D
330
37
100
AcDbEntity
  8
0
  6
ByBlock
 62
     0
100
AcDbText
 10
111.5714285714285
 20
-177.6974168213519
 30
0.0
 40
3.6
  1
70
  7
ROMANS
 72
     1
 11
115.0
 21
-175.8974168213519
 31
0.0
100
AcDbText
 73
     2
  0
POINT
  5
3E
330
37
100
AcDbEntity
  8
DEFPOINTS
  6
ByBlock
 62
     0
100
AcDbPoint
 10
80.0
 20
-16.71497389813942
 30
0.0
  0
POINT
  5
42
330
37
100
AcDbEntity
  8
DEFPOINTS
  6
ByBlock
 62
     0
100
AcDbPoint
 10
150.0
 20
-16.71497389813942
 30
0.0
  0
POINT
  5
43
330
37
100
AcDbEntity
  8
DEFPOINTS
  6
ByBlock
 62
     0
100
AcDbPoint
 10
150.0
 20
-179.4974168213519
 30
0.0
  0
ENDBLK
  5
45
330
37
100
AcDbEntity
  8
0
100
AcDbBlockEnd
  0
BLOCK
  5
86
330
7C
100
AcDbEntity
  8
0
100
AcDbBlockBegin
  2
*D8
 70
     1
 10
0.0
 20
0.0
 30
0.0
  3
*D8
  1

  0
LINE
  5
7D
330
7C
100
AcDbEntity
  8
0
  6
ByBlock
 62
     0
100
AcDbLine
 10
-170.0
 20
-23.64592507128543
 30
0.0
 11
-170.0
 21
-182.4974168213519
 31
0.0
  0
LINE
  5
7E
330
7C
100
AcDbEntity
  8
0
  6
ByBlock
 62
     0
100
AcDbLine
 10
-100.0
 20
-23.64592507128554
 30
0.0
 11
-100.0
 21
-182.4974168213519
 31
0.0
  0
LINE
  5
7F
330
7C
100
AcDbEntity
  8
0
  6
ByBlock
 62
     0
100
AcDbLine
 10
-166.0
 20
-179.4974168213519
 30
0.0
 11
-104.0
 21
-179.4974168213519
 31
0.0
  0
SOLID
  5
80
330
7C
100
AcDbEntity
  8
0
  6
ByBlock
 62
     0
100
AcDbTrace
 10
-166.0
 20
-178.8307501546853
 30
0.0
 11
-166.0
 21
-180.1640834880186
 31
0.0
 12
-170.0
 22
-179.4974168213519
 32
0.0
 13
-170.0
 23
-179.4974168213519
 33
0.0
  0
SOLID
  5
81
330
7C
100
AcDbEntity
  8
0
  6
ByBlock
 62
     0
100
AcDbTrace
 10
-104.0
 20
-178.8307501546853
 30
0.0
 11
-104.0
 21
-180.1640834880186
 31
0.0
 12
-100.0
 22
-179.4974168213519
 32
0.0
 13
-100.0
 23
-179.4974168213519
 33
0.0
  0
TEXT
  5
82
330
7C
100
AcDbEntity
  8
0
  6
ByBlock
 62
     0
100
AcDbText
 10
-138.4285714285714
 20
-177.6974168213519
 30
0.0
 40
3.6
  1
70
  7
ROMANS
 72
     1
 11
-135.0
 21
-175.8974168213519
 31
0.0
100
AcDbText
 73
     2
  0
POINT
  5
83
330
7C
100
AcDbEntity
  8
DEFPOINTS
  6
ByBlock
 62
     0
100
AcDbPoint
 10
-170.0
 20
-14.64592507128543
 30
0.0
  0
POINT
  5
84
330
7C
100
AcDbEntity
  8
DEFPOINTS
  6
ByBlock
 62
     0
100
AcDbPoint
 10
-100.0
 20
-14.64592507128554
 30
0.0
  0
POINT
  5
85
330
7C
100
AcDbEntity
  8
DEFPOINTS
  6
ByBlock
 62
     0
100
AcDbPoint
 10
-100.0
 20
-179.4974168213519
 30
0.0
  0
ENDBLK
  5
87
330
7C
100
AcDbEntity
  8
0
100
AcDbBlockEnd
  0
BLOCK
  5
79
330
6F
100
AcDbEntity
  8
0
100
AcDbBlockBegin
  2
*D9
 70
     1
 10
0.0
 20
0.0
 30
0.0
  3
*D9
  1

  0
LINE
  5
70
330
6F
100
AcDbEntity
  8
0
  6
ByBlock
 62
     0
100
AcDbLine
 10
-100.0
 20
-23.64592507128554
 30
0.0
 11
-100.0
 21
-182.4974168213519
 31
0.0
  0
LINE
  5
71
330
6F
100
AcDbEntity
  8
0
  6
ByBlock
 62
     0
100
AcDbLine
 10
-30.0
 20
-163.9999999999998
 30
0.0
 11
-30.0
 21
-182.4974168213519
 31
0.0
  0
LINE
  5
72
330
6F
100
AcDbEntity
  8
0
  6
ByBlock
 62
     0
100
AcDbLine
 10
-96.0
 20
-179.4974168213519
 30
0.0
 11
-34.0
 21
-179.4974168213519
 31
0.0
  0
SOLID
  5
73
330
6F
100
AcDbEntity
  8
0
  6
ByBlock
 62
     0
100
AcDbTrace
 10
-96.0
 20
-178.8307501546853
 30
0.0
 11
-96.0
 21
-180.1640834880186
 31
0.0
 12
-100.0
 22
-179.4974168213519
 32
0.0
 13
-100.0
 23
-179.4974168213519
 33
0.0
  0
SOLID
  5
74
330
6F
100
AcDbEntity
  8
0
  6
ByBlock
 62
     0
100
AcDbTrace
 10
-34.0
 20
-178.8307501546853
 30
0.0
 11
-34.0
 21
-180.1640834880186
 31
0.0
 12
-30.0
 22
-179.4974168213519
 32
0.0
 13
-30.0
 23
-179.4974168213519
 33
0.0
  0
TEXT
  5
75
330
6F
100
AcDbEntity
  8
0
  6
ByBlock
 62
     0
100
AcDbText
 10
-68.42857142857143
 20
-177.6974168213519
 30
0.0
 40
3.6
  1
70
  7
ROMANS
 72
     1
 11
-65.0
 21
-175.8974168213519
 31
0.0
100
AcDbText
 73
     2
  0
POINT
  5
76
330
6F
100
AcDbEntity
  8
DEFPOINTS
  6
ByBlock
 62
     0
100
AcDbPoint
 10
-100.0
 20
-14.64592507128554
 30
0.0
  0
POINT
  5
77
330
6F
100
AcDbEntity
  8
DEFPOINTS
  6
ByBlock
 62
     0
100
AcDbPoint
 10
-30.0
 20
-154.9999999999998
 30
0.0
  0
POINT
  5
78
330
6F
100
AcDbEntity
  8
DEFPOINTS
  6
ByBlock
 62
     0
100
AcDbPoint
 10
-30.0
 20
-179.4974168213519
 30
0.0
  0
ENDBLK
  5
7A
330
6F
100
AcDbEntity
  8
0
100
AcDbBlockEnd
  0
BLOCK
  5
B6
330
AC
100
AcDbEntity
  8
0
100
AcDbBlockBegin
  2
*D10
 70
     1
 10
0.0
 20
0.0
 30
0.0
  3
*D10
  1

  0
LINE
  5
AD
330
AC
100
AcDbEntity
  8
0
  6
ByBlock
 62
     0
100
AcDbLine
 10
-349.9999999999999
 20
-129.5519723914461
 30
0.0
 11
-349.9999999999999
 21
-197.9242433982734
 31
0.0
  0
LINE
  5
AE
330
AC
100
AcDbEntity
  8
0
  6
ByBlock
 62
     0
100
AcDbLine
 10
-19.99999999999996
 20
-163.9999999999998
 30
0.0
 11
-19.99999999999996
 21
-197.9242433982734
 31
0.0
  0
LINE
  5
AF
330
AC
100
AcDbEntity
  8
0
  6
ByBlock
 62
     0
100
AcDbLine
 10
-345.9999999999999
 20
-194.9242433982734
 30
0.0
 11
-23.99999999999996
 21
-194.9242433982734
 31
0.0
  0
SOLID
  5
B0
330
AC
100
AcDbEntity
  8
0
  6
ByBlock
 62
     0
100
AcDbTrace
 10
-345.9999999999999
 20
-194.2575767316068
 30
0.0
 11
-345.9999999999999
 21
-195.5909100649401
 31
0.0
 12
-349.9999999999999
 22
-194.9242433982734
 32
0.0
 13
-349.9999999999999
 23
-194.9242433982734
 33
0.0
  0
SOLID
  5
B1
330
AC
100
AcDbEntity
  8
0
  6
ByBlock
 62
     0
100
AcDbTrace
 10
-23.99999999999996
 20
-194.2575767316068
 30
0.0
 11
-23.99999999999996
 21
-195.5909100649401
 31
0.0
 12
-19.99999999999996
 22
-194.9242433982734
 32
0.0
 13
-19.99999999999996
 23
-194.9242433982734
 33
0.0
  0
TEXT
  5
B2
330
AC
100
AcDbEntity
  8
0
  6
ByBlock
 62
     0
100
AcDbText
 10
-190.142857142857
 20
-193.1242433982734
 30
0.0
 40
3.6
  1
330
  7
ROMANS
 72
     1
 11
-184.9999999999999
 21
-191.3242433982734
 31
0.0
100
AcDbText
 73
     2
  0
POINT
  5
B3
330
AC
100
AcDbEntity
  8
DEFPOINTS
  6
ByBlock
 62
     0
100
AcDbPoint
 10
-349.9999999999999
 20
-120.5519723914461
 30
0.0
  0
POINT
  5
B4
330
AC
100
AcDbEntity
  8
DEFPOINTS
  6
ByBlock
 62
     0
100
AcDbPoint
 10
-19.99999999999996
 20
-154.9999999999998
 30
0.0
  0
POINT
  5
B5
330
AC
100
AcDbEntity
  8
DEFPOINTS
  6
ByBlock
 62
     0
100
AcDbPoint
 10
-19.99999999999996
 20
-194.9242433982734
 30
0.0
  0
ENDBLK
  5
B7
330
AC
100
AcDbEntity
  8
0
100
AcDbBlockEnd
  0
BLOCK
  5
C7
330
BD
100
AcDbEntity
  8
0
100
AcDbBlockBegin
  2
*D11
 70
     1
 10
0.0
 20
0.0
 30
0.0
  3
*D11
  1

  0
LINE
  5
BE
330
BD
100
AcDbEntity
  8
0
  6
ByBlock
 62
     0
100
AcDbLine
 10
-19.99999999999996
 20
-163.9999999999998
 30
0.0
 11
-19.99999999999996
 21
-197.9242433982734
 31
0.0
  0
LINE
  5
BF
330
BD
100
AcDbEntity
  8
0
  6
ByBlock
 62
     0
100
AcDbLine
 10
0.0000000000000418
 20
-169.0
 30
0.0
 11
0.0000000000000418
 21
-197.9242433982734
 31
0.0
  0
LINE
  5
C0
330
BD
100
AcDbEntity
  8
0
  6
ByBlock
 62
     0
100
AcDbLine
 10
-15.99999999999996
 20
-194.9242433982734
 30
0.0
 11
-3.999999999999958
 21
-194.9242433982734
 31
0.0
  0
SOLID
  5
C1
330
BD
100
AcDbEntity
  8
0
  6
ByBlock
 62
     0
100
AcDbTrace
 10
-15.99999999999996
 20
-194.2575767316068
 30
0.0
 11
-15.99999999999996
 21
-195.5909100649401
 31
0.0
 12
-19.99999999999996
 22
-194.9242433982734
 32
0.0
 13
-19.99999999999996
 23
-194.9242433982734
 33
0.0
  0
SOLID
  5
C2
330
BD
100
AcDbEntity
  8
0
  6
ByBlock
 62
     0
100
AcDbTrace
 10
-3.999999999999958
 20
-194.2575767316068
 30
0.0
 11
-3.999999999999958
 21
-195.5909100649401
 31
0.0
 12
0.0000000000000418
 22
-194.9242433982734
 32
0.0
 13
0.0000000000000418
 23
-194.9242433982734
 33
0.0
  0
TEXT
  5
C3
330
BD
100
AcDbEntity
  8
0
  6
ByBlock
 62
     0
100
AcDbText
 10
-13.42857142857138
 20
-193.1242433982734
 30
0.0
 40
3.6
  1
20
  7
ROMANS
 72
     1
 11
-9.999999999999959
 21
-191.3242433982734
 31
0.0
100
AcDbText
 73
     2
  0
POINT
  5
C4
330
BD
100
AcDbEntity
  8
DEFPOINTS
  6
ByBlock
 62
     0
100
AcDbPoint
 10
-19.99999999999996
 20
-154.9999999999998
 30
0.0
  0
POINT
  5
C5
330
BD
100
AcDbEntity
  8
DEFPOINTS
  6
ByBlock
 62
     0
100
AcDbPoint
 10
0.0000000000000418
 20
-160.0
 30
0.0
  0
POINT
  5
C6
330
BD
100
AcDbEntity
  8
DEFPOINTS
  6
ByBlock
 62
     0
100
AcDbPoint
 10
0.0000000000000418
 20
-194.9242433982734
 30
0.0
  0
ENDBLK
  5
C8
330
BD
100
AcDbEntity
  8
0
100
AcDbBlockEnd
  0
BLOCK
  5
D4
330
CA
100
AcDbEntity
  8
0
100
AcDbBlockBegin
  2
*D12
 70
     1
 10
0.0
 20
0.0
 30
0.0
  3
*D12
  1

  0
LINE
  5
CB
330
CA
100
AcDbEntity
  8
0
  6
ByBlock
 62
     0
100
AcDbLine
 10
-30.0
 20
-163.9999999999998
 30
0.0
 11
-30.0
 21
-182.4974168213519
 31
0.0
  0
LINE
  5
CC
330
CA
100
AcDbEntity
  8
0
  6
ByBlock
 62
     0
100
AcDbLine
 10
-19.99999999999996
 20
-163.9999999999998
 30
0.0
 11
-19.99999999999996
 21
-182.4974168213519
 31
0.0
  0
LINE
  5
CD
330
CA
100
AcDbEntity
  8
0
  6
ByBlock
 62
     0
100
AcDbLine
 10
-25.99999999999999
 20
-179.4974168213519
 30
0.0
 11
-23.99999999999996
 21
-179.4974168213519
 31
0.0
  0
SOLID
  5
CE
330
CA
100
AcDbEntity
  8
0
  6
ByBlock
 62
     0
100
AcDbTrace
 10
-25.99999999999999
 20
-178.8307501546853
 30
0.0
 11
-25.99999999999999
 21
-180.1640834880186
 31
0.0
 12
-30.0
 22
-179.4974168213519
 32
0.0
 13
-30.0
 23
-179.4974168213519
 33
0.0
  0
SOLID
  5
CF
330
CA
100
AcDbEntity
  8
0
  6
ByBlock
 62
     0
100
AcDbTrace
 10
-23.99999999999996
 20
-178.8307501546853
 30
0.0
 11
-23.99999999999996
 21
-180.1640834880186
 31
0.0
 12
-19.99999999999996
 22
-179.4974168213519
 32
0.0
 13
-19.99999999999996
 23
-179.4974168213519
 33
0.0
  0
TEXT
  5
D0
330
CA
100
AcDbEntity
  8
0
  6
ByBlock
 62
     0
100
AcDbText
 10
-28.71972850308839
 20
-177.6974168213519
 30
0.0
 40
3.6
  1
10
  7
ROMANS
 72
     1
 11
-25.0340142173741
 21
-175.8974168213519
 31
0.0
100
AcDbText
 73
     2
  0
POINT
  5
D1
330
CA
100
AcDbEntity
  8
DEFPOINTS
  6
ByBlock
 62
     0
100
AcDbPoint
 10
-30.0
 20
-154.9999999999998
 30
0.0
  0
POINT
  5
D2
330
CA
100
AcDbEntity
  8
DEFPOINTS
  6
ByBlock
 62
     0
100
AcDbPoint
 10
-19.99999999999996
 20
-154.9999999999998
 30
0.0
  0
POINT
  5
D3
330
CA
100
AcDbEntity
  8
DEFPOINTS
  6
ByBlock
 62
     0
100
AcDbPoint
 10
-19.99999999999996
 20
-179.4974168213519
 30
0.0
  0
ENDBLK
  5
D5
330
CA
100
AcDbEntity
  8
0
100
AcDbBlockEnd
  0
BLOCK
  5
A9
330
A0
100
AcDbEntity
  8
0
 62
     1
100
AcDbBlockBegin
  2
A$C6BE937E7
 70
     0
 10
0.0
 20
0.0
 30
0.0
  3
A$C6BE937E7
  1

  0
TEXT
  5
A1
330
A0
100
AcDbEntity
  8
SPECD
 62
     6
100
AcDbText
 10
4.668392196768905
 20
18.71588358345923
 30
0.0
 40
5.0
  1
AND 20mm-JOINT. AND UNFREEZE DESIRED NEW 
  7
ROMANS
 72
     4
 11
102.5255350539117
 21
21.21588358345923
 31
0.0
100
AcDbText
  0
LINE
  5
A2
330
A0
100
AcDbEntity
  8
SPECD
 62
     6
100
AcDbLine
 10
0.0000004097963711
 20
53.03369301694681
 30
0.0
 11
202.4869505164367
 21
53.03369301694681
 31
0.0
  0
LINE
  5
A3
330
A0
100
AcDbEntity
  8
SPECD
 62
     6
100
AcDbLine
 10
0.0000004097963711
 20
0.0000004313964723
 30
0.0
 11
202.4869505164367
 21
0.0000004313964723
 31
0.0
  0
TEXT
  5
A4
330
A0
100
AcDbEntity
  8
SPECD
 62
     6
100
AcDbText
 10
4.207581425801549
 20
28.3361790613278
 30
0.0
 40
5.0
  1
FOR OTHER WIDTHS, FREEZE LAYERS 20mm-DIMS
  7
ROMANS
 72
     4
 11
101.3504385686587
 21
30.35998858513733
 31
0.0
100
AcDbText
  0
TEXT
  5
A5
330
A0
100
AcDbEntity
  8
SPECD
 62
     6
100
AcDbText
 10
4.215424032625506
 20
43.79289347717675
 30
0.0
 40
5.0
  1
DRAWING SHOWS 20mm JOINT.
  7
ROMANS
 72
     4
 11
63.73923355643501
 21
46.29289347717675
 31
0.0
100
AcDbText
  0
TEXT
  5
A6
330
A0
100
AcDbEntity
  8
SPECD
 62
     6
100
AcDbText
 10
4.481432930145061
 20
8.212600757984517
 30
0.0
 40
5.0
  1
JOINT AND DIMS LAYERS.
  7
ROMANS
 72
     4
 11
52.33857578728794
 21
10.71260075798451
 31
0.0
100
AcDbText
  0
LINE
  5
A7
330
A0
100
AcDbEntity
  8
SPECD
 62
     6
100
AcDbLine
 10
0.0000004097963711
 20
53.03369301694681
 30
0.0
 11
0.0000004097963711
 21
0.0000004313964723
 31
0.0
  0
LINE
  5
A8
330
A0
100
AcDbEntity
  8
SPECD
 62
     6
100
AcDbLine
 10
202.4869505164367
 20
53.03369301694681
 30
0.0
 11
202.4869505164367
 21
0.0000004313964723
 31
0.0
  0
ENDBLK
  5
AA
330
A0
100
AcDbEntity
  8
0
 62
     1
100
AcDbBlockEnd
  0
ENDSEC
  0
SECTION
  2
ENTITIES
  0
LINE
  5
2D
330
2
100
AcDbEntity
  8
20MM-JOINT
  6
CENTER2
 62
     1
100
AcDbLine
 10
-359.9999999999998
 20
90.0
 30
0.0
 11
320.0
 21
90.0
 31
0.0
  0
LINE
  5
30
330
2
100
AcDbEntity
  8
20MM-JOINT
  6
CENTER2
 62
     1
100
AcDbLine
 10
-359.9999999999998
 20
-89.99999999999989
 30
0.0
 11
320.0
 21
-89.99999999999989
 31
0.0
  0
LINE
  5
31
330
2
100
AcDbEntity
  8
20MM-JOINT
  6
HIDDEN
 62
     3
100
AcDbLine
 10
0.0000000000000145
 20
57.5
 30
0.0
 11
340.0
 21
57.5
 31
0.0
  0
LINE
  5
33
330
2
100
AcDbEntity
  8
20MM-JOINT
  6
HIDDEN
 62
     3
100
AcDbLine
 10
0.0000000000000064
 20
122.5
 30
0.0
 11
340.0
 21
122.5
 31
0.0
  0
LINE
  5
34
330
2
100
AcDbEntity
  8
20MM-JOINT
  6
HIDDEN
 62
     3
100
AcDbLine
 10
0.0000000000000371
 20
-122.4999999999998
 30
0.0
 11
340.0
 21
-122.4999999999998
 31
0.0
  0
LINE
  5
35
330
2
100
AcDbEntity
  8
20MM-JOINT
  6
HIDDEN
 62
     3
100
AcDbLine
 10
0.000000000000029
 20
-57.49999999999989
 30
0.0
 11
340.0
 21
-57.49999999999988
 31
0.0
  0
DIMENSION
  5
36
330
2
100
AcDbEntity
  8
DIMS
100
AcDbDimension
  2
*D7
 10
150.0
 20
-179.4974168213519
 30
0.0
 11
115.0
 21
-175.8974168213519
 31
0.0
 71
     5
 42
-1.0
  3
1-2
100
AcDbAlignedDimension
 13
80.0
 23
-16.71497389813942
 33
0.0
 14
150.0
 24
-16.71497389813942
 34
0.0
100
AcDbRotatedDimension
  0
DIMENSION
  5
46
330
2
100
AcDbEntity
  8
DIMS
100
AcDbDimension
  2
*D2
 10
390.0
 20
-194.9242433982734
 30
0.0
 11
195.0
 21
-191.3242433982734
 31
0.0
 71
     5
 42
-1.0
  3
1-2
100
AcDbAlignedDimension
 13
0.0
 23
-160.0
 33
0.0
 14
390.0
 24
-125.0
 34
0.0
100
AcDbRotatedDimension
  0
DIMENSION
  5
53
330
2
100
AcDbEntity
  8
DIMS
100
AcDbDimension
  2
*D0
 10
527.3090285603936
 20
160.0
 30
0.0
 11
523.7090285603937
 21
-0.0000000000000142
 31
0.0
 71
     5
 42
-1.0
  3
1-2
100
AcDbAlignedDimension
 13
4.999776852370614
 23
-160.0
 33
0.0
 14
5.0
 24
160.0
 34
0.0
 50
90.0
100
AcDbRotatedDimension
  0
LINE
  5
60
330
2
100
AcDbEntity
  8
ANCON-DSD
 62
     3
100
AcDbLine
 10
390.0
 20
-125.0
 30
0.0
 11
5.000000000000002
 21
-125.0
 31
0.0
  0
LINE
  5
62
330
2
100
AcDbEntity
  8
ANCON-DSD
 62
     3
100
AcDbLine
 10
390.0
 20
-55.0
 30
0.0
 11
5.000000000000002
 21
-55.0
 31
0.0
  0
TEXT
  5
63
330
2
100
AcDbEntity
  8
SPECP
 62
     1
100
AcDbText
 10
34.43253001141769
 20
249.4731333678692
 30
0.0
 40
5.0
  1
SPECIFICATION BY PRODUCT
  7
ROMANS
 72
     4
 11
87.88491096379862
 21
251.9731333678691
 31
0.0
100
AcDbText
  0
TEXT
  5
65
330
2
100
AcDbEntity
  8
SPECD
 62
     1
100
AcDbText
 10
34.57616662104399
 20
219.538678903373
 30
0.0
 40
5.0
  1
SPECIFICATION BY DESCRIPTION
  7
ROMANS
 72
     4
 11
94.21902376390113
 21
222.038678903373
 31
0.0
100
AcDbText
  0
CIRCLE
  5
67
330
2
100
AcDbEntity
  8
ANCON-DSD
 62
     3
100
AcDbCircle
 10
80.0
 20
0.0
 30
0.0
 40
10.0
  0
LINE
  5
68
330
2
100
AcDbEntity
  8
DIMS
  6
CENTER2
100
AcDbLine
 10
96.7149738981393
 20
0.0
 30
0.0
 11
63.28502610186046
 21
0.0
 31
0.0
  0
LINE
  5
69
330
2
100
AcDbEntity
  8
DIMS
  6
CENTER2
100
AcDbLine
 10
405.0
 20
-90.0
 30
0.0
 11
0.0
 21
-90.0
 31
0.0
  0
LINE
  5
6A
330
2
100
AcDbEntity
  8
ANCON-DSD
 62
     3
100
AcDbLine
 10
390.0
 20
124.9999999999999
 30
0.0
 11
5.0
 21
124.9999999999999
 31
0.0
  0
LINE
  5
6B
330
2
100
AcDbEntity
  8
ANCON-DSD
 62
     3
100
AcDbLine
 10
390.0
 20
54.99999999999994
 30
0.0
 11
5.0
 21
54.99999999999994
 31
0.0
  0
LINE
  5
6C
330
2
100
AcDbEntity
  8
DIMS
  6
CENTER2
100
AcDbLine
 10
404.9999999999998
 20
89.99999999999994
 30
0.0
 11
0.0
 21
89.99999999999992
 31
0.0
  0
DIMENSION
  5
6D
330
2
100
AcDbEntity
  8
20MM-DIMS
100
AcDbDimension
  2
*D9
 10
-30.0
 20
-179.4974168213519
 30
0.0
 11
-65.0
 21
-175.8974168213519
 31
0.0
 71
     5
 42
-1.0
  3
1-2
100
AcDbAlignedDimension
 13
-100.0
 23
-14.64592507128554
 33
0.0
 14
-30.0
 24
-154.9999999999998
 34
0.0
100
AcDbRotatedDimension
  0
DIMENSION
  5
7B
330
2
100
AcDbEntity
  8
20MM-DIMS
100
AcDbDimension
  2
*D8
 10
-100.0
 20
-179.4974168213519
 30
0.0
 11
-135.0
 21
-175.8974168213519
 31
0.0
 71
     5
 42
-1.0
  3
1-2
100
AcDbAlignedDimension
 13
-170.0
 23
-14.64592507128543
 33
0.0
 14
-100.0
 24
-14.64592507128554
 34
0.0
100
AcDbRotatedDimension
  0
LINE
  5
88
330
2
100
AcDbEntity
  8
20MM-JOINT
 62
     3
100
AcDbLine
 10
-30.0
 20
49.99999999999977
 30
0.0
 11
-30.0
 21
-50.00000000000006
 31
0.0
  0
LINE
  5
89
330
2
100
AcDbEntity
  8
20MM-JOINT
 62
     3
100
AcDbLine
 10
-199.9999999999999
 20
57.5
 30
0.0
 11
-200.0
 21
-56.95695950126844
 31
0.0
  0
LINE
  5
8A
330
2
100
AcDbEntity
  8
20MM-JOINT
 62
     3
100
AcDbLine
 10
-30.0
 20
155.0
 30
0.0
 11
-30.0
 21
-154.9999999999998
 31
0.0
  0
LINE
  5
8B
330
2
100
AcDbEntity
  8
20MM-JOINT
 62
     3
100
AcDbLine
 10
-19.99999999999999
 20
155.0
 30
0.0
 11
-19.99999999999996
 21
-154.9999999999998
 31
0.0
  0
DIMENSION
  5
8C
330
2
100
AcDbEntity
  8
DIMS
100
AcDbDimension
  2
*D6
 10
80.0
 20
-179.4974168213519
 30
0.0
 11
42.5
 21
-175.8974168213519
 31
0.0
 71
     5
 42
-1.0
  3
1-2
100
AcDbAlignedDimension
 13
5.0
 23
-160.0
 33
0.0
 14
80.0
 24
-16.71497389813942
 34
0.0
100
AcDbRotatedDimension
  0
LINE
  5
99
330
2
100
AcDbEntity
  8
ANCON-DSD
 62
     3
100
AcDbLine
 10
5.0
 20
160.0
 30
0.0
 11
5.0
 21
-160.0
 31
0.0
  0
LINE
  5
9A
330
2
100
AcDbEntity
  8
ANCON-DSD
 62
     3
100
AcDbLine
 10
0.0
 20
160.0
 30
0.0
 11
0.0
 21
-160.0
 31
0.0
  0
LINE
  5
9B
330
2
100
AcDbEntity
  8
ANCON-DSD
 62
     3
100
AcDbLine
 10
5.0
 20
50.0
 30
0.0
 11
5.0
 21
-50.0
 31
0.0
  0
LINE
  5
9C
330
2
100
AcDbEntity
  8
20MM-JOINT
 62
     2
100
AcDbLine
 10
-19.99999999999994
 20
-279.5382443711042
 30
0.0
 11
-20.0
 21
173.2884415238361
 31
0.0
  0
LINE
  5
9D
330
2
100
AcDbEntity
  8
CONCRETE
100
AcDbLine
 10
0.0000000000000568
 20
-279.5291840904512
 30
0.0
 11
0.0
 21
173.297501804489
 31
0.0
  0
DIMENSION
  5
AB
330
2
100
AcDbEntity
  8
20MM-DIMS
100
AcDbDimension
  2
*D10
 10
-19.99999999999996
 20
-194.9242433982734
 30
0.0
 11
-184.9999999999999
 21
-191.3242433982734
 31
0.0
 71
     5
 42
-1.0
  3
1-2
100
AcDbAlignedDimension
 13
-349.9999999999999
 23
-120.5519723914461
 33
0.0
 14
-19.99999999999996
 24
-154.9999999999998
 34
0.0
100
AcDbRotatedDimension
  0
LINE
  5
B8
330
2
100
AcDbEntity
  8
20MM-JOINT
 62
     3
100
AcDbLine
 10
-349.9999999999999
 20
-56.95695950126844
 30
0.0
 11
-30.00000000000001
 21
-56.95695950126844
 31
0.0
  0
LINE
  5
B9
330
2
100
AcDbEntity
  8
20MM-JOINT
 62
     3
100
AcDbLine
 10
-349.9999999999999
 20
-122.4999999999998
 30
0.0
 11
-30.00000000000002
 21
-122.4999999999998
 31
0.0
  0
LINE
  5
BA
330
2
100
AcDbEntity
  8
20MM-JOINT
 62
     3
100
AcDbLine
 10
-349.9999999999999
 20
-56.95695950126844
 30
0.0
 11
-349.9999999999999
 21
-122.4999999999998
 31
0.0
  0
LINE
  5
BB
330
2
100
AcDbEntity
  8
ANCON-DSD
 62
     3
100
AcDbLine
 10
5.0
 20
-110.0
 30
0.0
 11
5.0
 21
-140.0
 31
0.0
  0
DIMENSION
  5
BC
330
2
100
AcDbEntity
  8
20MM-DIMS
100
AcDbDimension
  2
*D11
 10
0.0000000000000418
 20
-194.9242433982734
 30
0.0
 11
-9.999999999999959
 21
-191.3242433982734
 31
0.0
 71
     5
 42
-1.0
  3
1-2
100
AcDbAlignedDimension
 13
-19.99999999999996
 23
-154.9999999999998
 33
0.0
 14
0.0000000000000418
 24
-160.0
 34
0.0
100
AcDbRotatedDimension
  0
DIMENSION
  5
C9
330
2
100
AcDbEntity
  8
20MM-DIMS
100
AcDbDimension
  2
*D12
 10
-19.99999999999996
 20
-179.4974168213519
 30
0.0
 11
-25.0340142173741
 21
-175.8974168213519
 31
0.0
 70
   128
 71
     5
 42
-1.0
  3
1-2
100
AcDbAlignedDimension
 13
-30.0
 23
-154.9999999999998
 33
0.0
 14
-19.99999999999996
 24
-154.9999999999998
 34
0.0
100
AcDbRotatedDimension
  0
DIMENSION
  5
D6
330
2
100
AcDbEntity
  8
DIMS
100
AcDbDimension
  2
*D1
 10
0.0
 20
-179.4974168213519
 30
0.0
 11
-5.898403660426124
 21
-175.8974168213519
 31
0.0
 70
   128
 71
     5
 42
-1.0
  3
1-2
100
AcDbAlignedDimension
 13
5.0
 23
-160.0
 33
0.0
 14
0.0
 24
-160.0
 34
0.0
100
AcDbRotatedDimension
  0
LINE
  5
E4
330
2
100
AcDbEntity
  8
20MM-JOINT
 62
     3
100
AcDbLine
 10
-29.99999999999998
 20
-154.9999999999998
 30
0.0
 11
-19.99999999999998
 21
-154.9999999999998
 31
0.0
  0
LINE
  5
E5
330
2
100
AcDbEntity
  8
ANCON-DSD
 62
     3
100
AcDbLine
 10
5.0
 20
-160.0
 30
0.0
 11
0.0
 21
-160.0
 31
0.0
  0
LINE
  5
E6
330
2
100
AcDbEntity
  8
20MM-JOINT
 62
     3
100
AcDbLine
 10
-20.00000000000001
 20
-122.4999999999998
 30
0.0
 11
0.0000000000000371
 21
-122.4999999999998
 31
0.0
  0
LINE
  5
E7
330
2
100
AcDbEntity
  8
20MM-JOINT
 62
     3
100
AcDbLine
 10
-20.00000000000001
 20
-57.49999999999989
 30
0.0
 11
0.000000000000029
 21
-57.49999999999988
 31
0.0
  0
LINE
  5
E8
330
2
100
AcDbEntity
  8
20MM-JOINT
 62
     3
100
AcDbLine
 10
-349.9999999999999
 20
122.5
 30
0.0
 11
-30.00000000000002
 21
122.5
 31
0.0
  0
LINE
  5
E9
330
2
100
AcDbEntity
  8
20MM-JOINT
 62
     3
100
AcDbLine
 10
-349.9999999999999
 20
57.5
 30
0.0
 11
-30.00000000000002
 21
57.5
 31
0.0
  0
TEXT
  5
EA
330
2
100
AcDbEntity
  8
20MM-JOINT
 62
     6
100
AcDbText
 10
-218.4922365153254
 20
247.8534466023154
 30
0.0
 40
5.0
  1
DSD REF:
  7
ROMANS
 72
     4
 11
-200.516046039135
 21
250.3534466023154
 31
0.0
100
AcDbText
  0
LINE
  5
EB
330
2
100
AcDbEntity
  8
20MM-JOINT
 62
     6
100
AcDbLine
 10
-225.6846206643968
 20
205.0209166277642
 30
0.0
 11
-50.30594297253441
 21
205.0209166277642
 31
0.0
  0
LINE
  5
EC
330
2
100
AcDbEntity
  8
20MM-JOINT
 62
     6
100
AcDbLine
 10
-225.6846206643968
 20
232.0484017028113
 30
0.0
 11
-50.30594297253438
 21
232.0484017028113
 31
0.0
  0
LINE
  5
ED
330
2
100
AcDbEntity
  8
20MM-JOINT
 62
     6
100
AcDbLine
 10
-225.6846206643968
 20
258.119162761857
 30
0.0
 11
-50.30594297253441
 21
258.119162761857
 31
0.0
  0
TEXT
  5
EE
330
2
100
AcDbEntity
  8
20MM-JOINT
 62
     6
100
AcDbText
 10
-216.4420136952253
 20
215.8364737208628
 30
0.0
 40
5.0
  1
DSD450
  7
ROMANS
 72
     4
 11
-201.7991565523681
 21
218.3364737208628
 31
0.0
100
AcDbText
  0
LINE
  5
EF
330
2
100
AcDbEntity
  8
20MM-JOINT
 62
     3
100
AcDbLine
 10
-349.9999999999999
 20
122.5000000000001
 30
0.0
 11
-349.9999999999999
 21
57.50000000000011
 31
0.0
  0
LINE
  5
F0
330
2
100
AcDbEntity
  8
20MM-JOINT
 62
     6
100
AcDbLine
 10
-225.6846206643968
 20
258.119162761857
 30
0.0
 11
-225.6846206643968
 21
205.0209166277642
 31
0.0
  0
LINE
  5
F1
330
2
100
AcDbEntity
  8
20MM-JOINT
  6
CENTER2
 62
     1
100
AcDbLine
 10
-184.6459250712853
 20
0.0
 30
0.0
 11
-155.3540749287144
 21
0.0
 31
0.0
  0
LINE
  5
F2
330
2
100
AcDbEntity
  8
20MM-JOINT
  6
CENTER2
 62
     1
100
AcDbLine
 10
-170.0
 20
14.64592507128531
 30
0.0
 11
-170.0
 21
-14.64592507128543
 31
0.0
  0
CIRCLE
  5
F3
330
2
100
AcDbEntity
  8
20MM-JOINT
 62
     3
100
AcDbCircle
 10
-170.0
 20
0.0
 30
0.0
 40
10.0
  0
LINE
  5
F4
330
2
100
AcDbEntity
  8
20MM-JOINT
  6
CENTER2
 62
     1
100
AcDbLine
 10
-114.6459250712853
 20
0.0
 30
0.0
 11
-85.35407492871446
 21
0.0
 31
0.0
  0
CIRCLE
  5
F5
330
2
100
AcDbEntity
  8
20MM-JOINT
 62
     3
100
AcDbCircle
 10
-100.0
 20
0.0
 30
0.0
 40
10.0
  0
LINE
  5
F6
330
2
100
AcDbEntity
  8
20MM-JOINT
  6
CENTER2
 62
     1
100
AcDbLine
 10
-100.0
 20
14.64592507128531
 30
0.0
 11
-100.0
 21
-14.64592507128554
 31
0.0
  0
LWPOLYLINE
  5
F7
330
2
100
AcDbEntity
  8
DEFPOINTS
100
AcDbPolyline
 90
        5
 70
     0
 43
0.0
 10
-4.641266017983127
 20
-4.534456997470556
 10
-4.641266017983127
 20
4.53445699747067
 10
4.641266017983241
 20
-4.534456997470556
 10
4.641266017983241
 20
4.53445699747067
 10
-4.641266017983127
 20
-4.534456997470556
  0
LINE
  5
F8
330
2
100
AcDbEntity
  8
20MM-JOINT
 62
     3
100
AcDbLine
 10
-20.00000000000001
 20
57.5
 30
0.0
 11
0.0000000000000145
 21
57.5
 31
0.0
  0
LINE
  5
F9
330
2
100
AcDbEntity
  8
DIMS
  6
CENTER2
100
AcDbLine
 10
80.0
 20
16.71497389813936
 30
0.0
 11
80.0
 21
-16.71497389813942
 31
0.0
  0
LINE
  5
FA
330
2
100
AcDbEntity
  8
ANCON-DSD
 62
     3
100
AcDbLine
 10
5.0
 20
140.0
 30
0.0
 11
5.0
 21
110.0
 31
0.0
  0
LINE
  5
FB
330
2
100
AcDbEntity
  8
20MM-JOINT
 62
     3
100
AcDbLine
 10
-20.00000000000001
 20
122.5
 30
0.0
 11
0.0000000000000064
 21
122.4999999999999
 31
0.0
  0
LINE
  5
FC
330
2
100
AcDbEntity
  8
20MM-JOINT
 62
     3
100
AcDbLine
 10
-29.99999999999998
 20
155.0
 30
0.0
 11
-19.99999999999998
 21
155.0
 31
0.0
  0
LINE
  5
FD
330
2
100
AcDbEntity
  8
ANCON-DSD
 62
     3
100
AcDbLine
 10
5.0
 20
160.0
 30
0.0
 11
0.0
 21
160.0
 31
0.0
  0
TEXT
  5
FE
330
2
100
AcDbEntity
  8
20MM-JOINT
 62
     6
100
AcDbText
 10
-170.5809522995079
 20
247.8534466023154
 30
0.0
 40
5.0
  1
DESIGN JOINT
  7
ROMANS
 72
     4
 11
-144.5095237280793
 21
250.3534466023154
 31
0.0
100
AcDbText
  0
LINE
  5
FF
330
2
100
AcDbEntity
  8
20MM-JOINT
 62
     6
100
AcDbLine
 10
-175.6846206643968
 20
258.119162761857
 30
0.0
 11
-175.6846206643968
 21
205.0209166277642
 31
0.0
  0
TEXT
  5
100
330
2
100
AcDbEntity
  8
20MM-JOINT
 62
     6
100
AcDbText
 10
-154.656299409511
 20
215.8364737208628
 30
0.0
 40
5.0
  1
20 MM
  7
ROMANS
 72
     4
 11
-141.7991565523682
 21
218.3364737208628
 31
0.0
100
AcDbText
  0
TEXT
  5
101
330
2
100
AcDbEntity
  8
20MM-JOINT
 62
     6
100
AcDbText
 10
-155.1047618233174
 20
236.9558232146964
 30
0.0
 40
5.0
  1
WIDTH
  7
ROMANS
 72
     4
 11
-144.5095237280793
 21
239.4558232146964
 31
0.0
100
AcDbText
  0
LINE
  5
102
330
2
100
AcDbEntity
  8
20MM-JOINT
 62
     6
100
AcDbLine
 10
-115.176527107334
 20
258.119162761857
 30
0.0
 11
-115.176527107334
 21
205.0209166277642
 31
0.0
  0
TEXT
  5
103
330
2
100
AcDbEntity
  8
20MM-JOINT
 62
     6
100
AcDbText
 10
-92.39439464760629
 20
215.8364737208628
 30
0.0
 40
5.0
  1
427.9
  7
ROMANS
 72
     4
 11
-81.7991565523682
 21
218.3364737208628
 31
0.0
100
AcDbText
  0
TEXT
  5
104
330
2
100
AcDbEntity
  8
20MM-JOINT
 62
     6
100
AcDbText
 10
-109.656299409511
 20
247.8582770994469
 30
0.0
 40
5.0
  1
SERVICEABILITY
  7
ROMANS
 72
     4
 11
-81.7991565523682
 21
250.3582770994469
 31
0.0
100
AcDbText
  0
TEXT
  5
105
330
2
100
AcDbEntity
  8
20MM-JOINT
 62
     6
100
AcDbText
 10
-106.5610613142729
 20
236.9149981608686
 30
0.0
 40
5.0
  1
LOAD ( kN )
  7
ROMANS
 72
     4
 11
-81.7991565523682
 21
239.0578553037257
 31
0.0
100
AcDbText
  0
LINE
  5
106
330
2
100
AcDbEntity
  8
20MM-JOINT
 62
     6
100
AcDbLine
 10
-50.30594297253441
 20
258.119162761857
 30
0.0
 11
-50.30594297253441
 21
205.0209166277642
 31
0.0
  0
DIMENSION
  5
107
330
2
100
AcDbEntity
  8
DIMS
100
AcDbDimension
  2
*D3
 10
493.2567667478872
 20
54.99999999999994
 30
0.0
 11
489.6567667478872
 21
-0.0000000000000284
 31
0.0
 71
     5
 42
-1.0
  3
1-2
100
AcDbAlignedDimension
 13
390.0
 23
-55.0
 33
0.0
 14
390.0
 24
54.99999999999994
 34
0.0
 50
90.0
100
AcDbRotatedDimension
  0
LINE
  5
114
330
2
100
AcDbEntity
  8
ANCON-DSD
 62
     3
100
AcDbLine
 10
170.0
 20
54.99999999999994
 30
0.0
 11
170.0
 21
-55.0
 31
0.0
  0
LINE
  5
115
330
2
100
AcDbEntity
  8
20MM-JOINT
  6
HIDDEN
 62
     3
100
AcDbLine
 10
340.0
 20
-57.49999999999987
 30
0.0
 11
340.0
 21
-122.4999999999998
 31
0.0
  0
DIMENSION
  5
116
330
2
100
AcDbEntity
  8
DIMS
100
AcDbDimension
  2
*D4
 10
493.2567667478872
 20
-90.0
 30
0.0
 11
489.6567667478872
 21
-72.5
 31
0.0
 71
     5
 42
-1.0
  3
1-2
100
AcDbAlignedDimension
 13
390.0
 23
-55.0
 33
0.0
 14
405.0
 24
-90.0
 34
0.0
 50
90.0
100
AcDbRotatedDimension
  0
LINE
  5
123
330
2
100
AcDbEntity
  8
ANCON-DSD
 62
     3
100
AcDbLine
 10
390.0
 20
-125.0
 30
0.0
 11
390.0
 21
-55.0
 31
0.0
  0
LINE
  5
124
330
2
100
AcDbEntity
  8
ANCON-DSD
 62
     3
100
AcDbLine
 10
394.9999999999997
 20
-124.0
 30
0.0
 11
395.0
 21
-56.00000000000005
 31
0.0
  0
LINE
  5
125
330
2
100
AcDbEntity
  8
ANCON-DSD
 62
     3
100
AcDbLine
 10
394.9999999999997
 20
-124.0
 30
0.0
 11
390.0
 21
-124.0
 31
0.0
  0
LINE
  5
126
330
2
100
AcDbEntity
  8
ANCON-DSD
 62
     3
100
AcDbLine
 10
395.0
 20
-56.00000000000005
 30
0.0
 11
390.0
 21
-56.00000000000005
 31
0.0
  0
LINE
  5
127
330
2
100
AcDbEntity
  8
SPECD
 62
     6
100
AcDbLine
 10
162.0049023023305
 20
228.7437298166188
 30
0.0
 11
364.4918524089709
 21
228.7437298166188
 31
0.0
  0
LINE
  5
128
330
2
100
AcDbEntity
  8
SPECD
 62
     6
100
AcDbLine
 10
162.0049023023305
 20
175.7100372310685
 30
0.0
 11
364.4918524089709
 21
175.7100372310685
 31
0.0
  0
LINE
  5
129
330
2
100
AcDbEntity
  8
SPECD
 62
     6
100
AcDbLine
 10
162.0049023023305
 20
228.7437298166188
 30
0.0
 11
162.0049023023305
 21
175.7100372310685
 31
0.0
  0
LINE
  5
12A
330
2
100
AcDbEntity
  8
DIMS
  6
CENTER2
100
AcDbLine
 10
166.7149738981393
 20
0.0
 30
0.0
 11
133.2850261018604
 21
0.0
 31
0.0
  0
CIRCLE
  5
12B
330
2
100
AcDbEntity
  8
ANCON-DSD
 62
     3
100
AcDbCircle
 10
150.0
 20
0.0
 30
0.0
 40
10.0
  0
LINE
  5
12C
330
2
100
AcDbEntity
  8
DIMS
  6
CENTER2
100
AcDbLine
 10
150.0
 20
16.71497389813936
 30
0.0
 11
150.0
 21
-16.71497389813942
 31
0.0
  0
LINE
  5
12D
330
2
100
AcDbEntity
  8
20MM-JOINT
  6
HIDDEN
 62
     3
100
AcDbLine
 10
340.0
 20
122.5
 30
0.0
 11
340.0
 21
57.5
 31
0.0
  0
TEXT
  5
12E
330
2
100
AcDbEntity
  8
SPECP
 62
     6
100
AcDbText
 10
166.4990119757226
 20
249.4731333678692
 30
0.0
 40
5.0
  1
STAIFIX DSD ??
  7
ROMANS
 72
     4
 11
196.0228214995321
 21
251.9731333678691
 31
0.0
100
AcDbText
  0
LINE
  5
12F
330
2
100
AcDbEntity
  8
SPECP
 62
     6
100
AcDbLine
 10
162.0049023023305
 20
246.1922681917114
 30
0.0
 11
229.5947532250925
 21
246.1922681917114
 31
0.0
  0
LINE
  5
130
330
2
100
AcDbEntity
  8
SPECP
 62
     6
100
AcDbLine
 10
162.0049023023305
 20
258.1102434837126
 30
0.0
 11
229.5947532250925
 21
258.1102434837126
 31
0.0
  0
TEXT
  5
131
330
2
100
AcDbEntity
  8
SPECD
 62
     6
100
AcDbText
 10
165.6341478611719
 20
199.4970702413884
 30
0.0
 40
5.0
  1
SUITABLE FOR A DESIGN JOINT WIDTH OF ?? MM
  7
ROMANS
 72
     4
 11
260.5151002421243
 21
201.9970702413885
 31
0.0
100
AcDbText
  0
TEXT
  5
132
330
2
100
AcDbEntity
  8
SPECD
 62
     6
100
AcDbText
 10
166.0885830311221
 20
189.4480128274594
 30
0.0
 40
5.0
  1
AND CAPABLE OF TRANSFERRING A SERVICEABILITY
  7
ROMANS
 72
     4
 11
263.4695354120744
 21
191.9480128274593
 31
0.0
100
AcDbText
  0
TEXT
  5
133
330
2
100
AcDbEntity
  8
SPECD
 62
     6
100
AcDbText
 10
165.5754511011144
 20
209.3982179510582
 30
0.0
 40
5.0
  1
COMPRISING SLEEVE AND DOWEL COMPONENT
  7
ROMANS
 72
     4
 11
253.5516415773049
 21
211.8982179510582
 31
0.0
100
AcDbText
  0
TEXT
  5
134
330
2
100
AcDbEntity
  8
SPECD
 62
     6
100
AcDbText
 10
166.2966355071701
 20
219.5029302768488
 30
0.0
 40
5.0
  1
TWO PART STAINLESS STEEL SHEAR CONNECTOR
  7
ROMANS
 72
     4
 11
258.9156831262179
 21
222.0029302768488
 31
0.0
100
AcDbText
  0
TEXT
  5
135
330
2
100
AcDbEntity
  8
SPECD
 62
     6
100
AcDbText
 10
167.2743637874652
 20
179.4130876624971
 30
0.0
 40
5.0
  1
LOAD OF ??? kN
  7
ROMANS
 72
     4
 11
199.8934114065128
 21
181.9130876624971
 31
0.0
100
AcDbText
  0
LINE
  5
136
330
2
100
AcDbEntity
  8
SPECP
 62
     6
100
AcDbLine
 10
162.0049023023305
 20
258.1102434837126
 30
0.0
 11
162.0049023023305
 21
246.1922681917114
 31
0.0
  0
LINE
  5
137
330
2
100
AcDbEntity
  8
SPECP
 62
     6
100
AcDbLine
 10
229.5947532250925
 20
258.1102434837126
 30
0.0
 11
229.5947532250925
 21
246.1922681917114
 31
0.0
  0
LINE
  5
138
330
2
100
AcDbEntity
  8
SPECD
 62
     6
100
AcDbLine
 10
364.4918524089709
 20
228.7437298166188
 30
0.0
 11
364.4918524089709
 21
175.7100372310685
 31
0.0
  0
DIMENSION
  5
139
330
2
100
AcDbEntity
  8
DIMS
100
AcDbDimension
  2
*D5
 10
493.2567667478872
 20
89.99999999999994
 30
0.0
 11
489.6567667478872
 21
72.49999999999994
 31
0.0
 71
     5
 42
-1.0
  3
1-2
100
AcDbAlignedDimension
 13
390.0
 23
54.99999999999994
 33
0.0
 14
404.9999999999998
 24
89.99999999999994
 34
0.0
 50
90.0
100
AcDbRotatedDimension
  0
LINE
  5
146
330
2
100
AcDbEntity
  8
ANCON-DSD
 62
     3
100
AcDbLine
 10
394.9999999999997
 20
55.99999999999988
 30
0.0
 11
395.0
 21
123.9999999999998
 31
0.0
  0
LINE
  5
147
330
2
100
AcDbEntity
  8
ANCON-DSD
 62
     3
100
AcDbLine
 10
390.0
 20
54.99999999999994
 30
0.0
 11
390.0
 21
124.9999999999999
 31
0.0
  0
LINE
  5
148
330
2
100
AcDbEntity
  8
ANCON-DSD
 62
     3
100
AcDbLine
 10
394.9999999999997
 20
55.99999999999988
 30
0.0
 11
390.0
 21
55.99999999999988
 31
0.0
  0
LINE
  5
149
330
2
100
AcDbEntity
  8
ANCON-DSD
 62
     3
100
AcDbLine
 10
395.0
 20
123.9999999999998
 30
0.0
 11
390.0
 21
123.9999999999998
 31
0.0
  0
ENDSEC
  0
SECTION
  2
OBJECTS
  0
DICTIONARY
  5
26
330
0
100
AcDbDictionary
281
     1
  3
ACAD_GROUP
350
22
  3
ACAD_LAYOUT
350
14D
  3
ACAD_MLINESTYLE
350
23
  3
ACAD_PLOTSETTINGS
350
14E
  3
ACAD_PLOTSTYLENAME
350
14B
  0
DICTIONARY
  5
3
330
2
100
AcDbDictionary
280
     1
281
     1
  0
DICTIONARY
  5
B
330
A
100
AcDbDictionary
280
     1
281
     1
  0
DICTIONARY
  5
22
102
{ACAD_REACTORS
330
26
102
}
330
26
100
AcDbDictionary
281
     1
  0
DICTIONARY
  5
14D
102
{ACAD_REACTORS
330
26
102
}
330
26
100
AcDbDictionary
281
     1
  3
Layout1
350
150
  3
Model
350
14F
  0
DICTIONARY
  5
23
102
{ACAD_REACTORS
330
26
102
}
330
26
100
AcDbDictionary
281
     1
  3
Standard
350
29
  0
DICTIONARY
  5
14E
102
{ACAD_REACTORS
330
26
102
}
330
26
100
AcDbDictionary
281
     1
  0
ACDBDICTIONARYWDFLT
  5
14B
102
{ACAD_REACTORS
330
26
102
}
330
26
100
AcDbDictionary
281
     1
  3
Normal
350
14C
100
AcDbDictionaryWithDefault
340
14C
  0
LAYOUT
  5
150
102
{ACAD_REACTORS
330
14D
102
}
330
14D
100
AcDbPlotSettings
  1

  2
None
  4

  6

 40
0.0
 41
0.0
 42
0.0
 43
0.0
 44
0.0
 45
0.0
 46
0.0
 47
0.0
 48
0.0
 49
0.0
140
0.0
141
0.0
142
1.0
143
1.0
 70
   688
 72
     0
 73
     0
 74
     5
  7
Std pen settings.ctb
 75
    16
147
1.0
148
0.0
149
0.0
100
AcDbLayout
  1
Layout1
 70
     1
 71
     1
 10
-0.1979161059762549
 20
-0.1979166691697489
 11
16.34375024029589
 21
11.49541603298637
 12
0.0
 22
0.0
 32
0.0
 14
1.614583349603368
 24
1.129749872553066
 34
0.0
 15
14.5312501464303
 25
10.1677488529776
 35
0.0
146
0.0
 13
0.0
 23
0.0
 33
0.0
 16
1.0
 26
0.0
 36
0.0
 17
0.0
 27
1.0
 37
0.0
 76
     0
330
A
  0
LAYOUT
  5
14F
102
{ACAD_REACTORS
330
14D
102
}
330
14D
100
AcDbPlotSettings
  1

  2
None
  4

  6

 40
0.0
 41
0.0
 42
0.0
 43
0.0
 44
0.0
 45
0.0
 46
0.0
 47
0.0
 48
0.0
 49
0.0
140
0.0
141
0.0
142
1.0
143
1.0
 70
  1712
 72
     0
 73
     0
 74
     0
  7
Std pen settings.ctb
 75
     0
147
1.0
148
0.0
149
0.0
100
AcDbLayout
  1
Model
 70
     1
 71
     0
 10
0.0
 20
0.0
 11
12.0
 21
9.0
 12
0.0
 22
0.0
 32
0.0
 14
0.0
 24
0.0
 34
0.0
 15
0.0
 25
0.0
 35
0.0
146
0.0
 13
0.0
 23
0.0
 33
0.0
 16
1.0
 26
0.0
 36
0.0
 17
0.0
 27
1.0
 37
0.0
 76
     0
330
2
  0
MLINESTYLE
  5
29
102
{ACAD_REACTORS
330
23
102
}
330
23
100
AcDbMlineStyle
  2
STANDARD
 70
     0
  3

 62
   256
 51
90.0
 52
90.0
 71
     2
 49
0.5
 62
   256
  6
BYLAYER
 49
-0.5
 62
   256
  6
BYLAYER
  0
ACDBPLACEHOLDER
  5
14C
102
{ACAD_REACTORS
330
14B
102
}
330
14B
  0
ENDSEC
  0
EOF
