  0
SECTION
  2
HEADER
  9
$ACADVER
  1
AC1015
  9
$ACADMAINTVER
 70
    10
  9
$DWGCODEPAGE
  3
ANSI_1252
  9
$INSBASE
 10
102.1822232336127
 20
265.3555890501052
 30
0.0
  9
$EXTMIN
 10
18.78942920309555
 20
68.76011662239978
 30
0.0
  9
$EXTMAX
 10
349.0141444921471
 20
331.9512494883344
 30
0.0
  9
$LIMMIN
 10
0.0
 20
0.0
  9
$LIMMAX
 10
420.0
 20
297.0
  9
$ORTHOMODE
 70
     1
  9
$REGENMODE
 70
     1
  9
$FILLMODE
 70
     1
  9
$QTEXTMODE
 70
     0
  9
$MIRRTEXT
 70
     1
  9
$LTSCALE
 40
0.25
  9
$ATTMODE
 70
     1
  9
$TEXTSIZE
 40
5.0
  9
$TRACEWID
 40
10.0
  9
$TEXTSTYLE
  7
ROMANS
  9
$CLAYER
  8
DIMS
  9
$CELTYPE
  6
BYLAYER
  9
$CECOLOR
 62
   256
  9
$CELTSCALE
 40
1.0
  9
$DISPSILH
 70
     0
  9
$DIMSCALE
 40
0.0
  9
$DIMASZ
 40
4.0
  9
$DIMEXO
 40
3.0
  9
$DIMDLI
 40
10.0
  9
$DIMRND
 40
0.0
  9
$DIMDLE
 40
1.25
  9
$DIMEXE
 40
3.0
  9
$DIMTP
 40
0.0
  9
$DIMTM
 40
0.0
  9
$DIMTXT
 40
3.0
  9
$DIMCEN
 40
-3.0
  9
$DIMTSZ
 40
0.0
  9
$DIMTOL
 70
     0
  9
$DIMLIM
 70
     0
  9
$DIMTIH
 70
     0
  9
$DIMTOH
 70
     0
  9
$DIMSE1
 70
     0
  9
$DIMSE2
 70
     0
  9
$DIMTAD
 70
     1
  9
$DIMZIN
 70
    12
  9
$DIMBLK
  1

  9
$DIMASO
 70
     1
  9
$DIMSHO
 70
     0
  9
$DIMPOST
  1

  9
$DIMAPOST
  1

  9
$DIMALT
 70
     0
  9
$DIMALTD
 70
     2
  9
$DIMALTF
 40
0.039
  9
$DIMLFAC
 40
1.0
  9
$DIMTOFL
 70
     0
  9
$DIMTVP
 40
1.5
  9
$DIMTIX
 70
     0
  9
$DIMSOXD
 70
     0
  9
$DIMSAH
 70
     0
  9
$DIMBLK1
  1

  9
$DIMBLK2
  1

  9
$DIMSTYLE
  2
1-2
  9
$DIMCLRD
 70
     0
  9
$DIMCLRE
 70
     0
  9
$DIMCLRT
 70
     0
  9
$DIMTFAC
 40
0.75
  9
$DIMGAP
 40
1.5
  9
$DIMJUST
 70
     0
  9
$DIMSD1
 70
     0
  9
$DIMSD2
 70
     0
  9
$DIMTOLJ
 70
     1
  9
$DIMTZIN
 70
    12
  9
$DIMALTZ
 70
    12
  9
$DIMALTTZ
 70
    12
  9
$DIMUPT
 70
     0
  9
$DIMDEC
 70
     2
  9
$DIMTDEC
 70
     2
  9
$DIMALTU
 70
     2
  9
$DIMALTTD
 70
     2
  9
$DIMTXSTY
  7
ROMANS
  9
$DIMAUNIT
 70
     0
  9
$DIMADEC
 70
     0
  9
$DIMALTRND
 40
0.0
  9
$DIMAZIN
 70
     0
  9
$DIMDSEP
 70
    46
  9
$DIMATFIT
 70
     3
  9
$DIMFRAC
 70
     0
  9
$DIMLDRBLK
  1

  9
$DIMLUNIT
 70
     2
  9
$DIMLWD
 70
    -2
  9
$DIMLWE
 70
    -2
  9
$DIMTMOVE
 70
     2
  9
$LUNITS
 70
     2
  9
$LUPREC
 70
     2
  9
$SKETCHINC
 40
1.0
  9
$FILLETRAD
 40
0.0
  9
$AUNITS
 70
     0
  9
$AUPREC
 70
     4
  9
$MENU
  1
acad
  9
$ELEVATION
 40
0.0
  9
$PELEVATION
 40
0.0
  9
$THICKNESS
 40
0.0
  9
$LIMCHECK
 70
     0
  9
$CHAMFERA
 40
0.0
  9
$CHAMFERB
 40
0.0
  9
$CHAMFERC
 40
0.0
  9
$CHAMFERD
 40
0.0
  9
$SKPOLY
 70
     0
  9
$TDCREATE
 40
2449527.571155092
  9
$TDUCREATE
 40
2449527.529488425
  9
$TDUPDATE
 40
2452498.557816666
  9
$TDUUPDATE
 40
2452498.516150000
  9
$TDINDWG
 40
0.2862564815
  9
$TDUSRTIMER
 40
0.2862564815
  9
$USRTIMER
 70
     1
  9
$ANGBASE
 50
0.0
  9
$ANGDIR
 70
     0
  9
$PDMODE
 70
     0
  9
$PDSIZE
 40
0.0
  9
$PLINEWID
 40
0.0
  9
$SPLFRAME
 70
     0
  9
$SPLINETYPE
 70
     6
  9
$SPLINESEGS
 70
     8
  9
$HANDSEED
  5
99
  9
$SURFTAB1
 70
    18
  9
$SURFTAB2
 70
    18
  9
$SURFTYPE
 70
     6
  9
$SURFU
 70
    18
  9
$SURFV
 70
    18
  9
$UCSBASE
  2

  9
$UCSNAME
  2

  9
$UCSORG
 10
0.0
 20
0.0
 30
0.0
  9
$UCSXDIR
 10
1.0
 20
0.0
 30
0.0
  9
$UCSYDIR
 10
0.0
 20
1.0
 30
0.0
  9
$UCSORTHOREF
  2

  9
$UCSORTHOVIEW
 70
     0
  9
$UCSORGTOP
 10
0.0
 20
0.0
 30
0.0
  9
$UCSORGBOTTOM
 10
0.0
 20
0.0
 30
0.0
  9
$UCSORGLEFT
 10
0.0
 20
0.0
 30
0.0
  9
$UCSORGRIGHT
 10
0.0
 20
0.0
 30
0.0
  9
$UCSORGFRONT
 10
0.0
 20
0.0
 30
0.0
  9
$UCSORGBACK
 10
0.0
 20
0.0
 30
0.0
  9
$PUCSBASE
  2

  9
$PUCSNAME
  2

  9
$PUCSORG
 10
0.0
 20
0.0
 30
0.0
  9
$PUCSXDIR
 10
1.0
 20
0.0
 30
0.0
  9
$PUCSYDIR
 10
0.0
 20
1.0
 30
0.0
  9
$PUCSORTHOREF
  2

  9
$PUCSORTHOVIEW
 70
     0
  9
$PUCSORGTOP
 10
0.0
 20
0.0
 30
0.0
  9
$PUCSORGBOTTOM
 10
0.0
 20
0.0
 30
0.0
  9
$PUCSORGLEFT
 10
0.0
 20
0.0
 30
0.0
  9
$PUCSORGRIGHT
 10
0.0
 20
0.0
 30
0.0
  9
$PUCSORGFRONT
 10
0.0
 20
0.0
 30
0.0
  9
$PUCSORGBACK
 10
0.0
 20
0.0
 30
0.0
  9
$USERI1
 70
     0
  9
$USERI2
 70
     0
  9
$USERI3
 70
     0
  9
$USERI4
 70
     0
  9
$USERI5
 70
     0
  9
$USERR1
 40
0.0
  9
$USERR2
 40
0.0
  9
$USERR3
 40
0.0
  9
$USERR4
 40
0.0
  9
$USERR5
 40
0.0
  9
$WORLDVIEW
 70
     1
  9
$SHADEDGE
 70
     3
  9
$SHADEDIF
 70
    70
  9
$TILEMODE
 70
     1
  9
$MAXACTVP
 70
    16
  9
$PINSBASE
 10
0.0
 20
0.0
 30
0.0
  9
$PLIMCHECK
 70
     0
  9
$PEXTMIN
 10
1.000000000000000E+20
 20
1.000000000000000E+20
 30
1.000000000000000E+20
  9
$PEXTMAX
 10
-1.000000000000000E+20
 20
-1.000000000000000E+20
 30
-1.000000000000000E+20
  9
$PLIMMIN
 10
0.0
 20
0.0
  9
$PLIMMAX
 10
420.0
 20
297.0
  9
$UNITMODE
 70
     0
  9
$VISRETAIN
 70
     0
  9
$PLINEGEN
 70
     0
  9
$PSLTSCALE
 70
     1
  9
$TREEDEPTH
 70
  3020
  9
$CMLSTYLE
  2
STANDARD
  9
$CMLJUST
 70
     0
  9
$CMLSCALE
 40
1.0
  9
$PROXYGRAPHICS
 70
     1
  9
$MEASUREMENT
 70
     0
  9
$CELWEIGHT
370
    -1
  9
$ENDCAPS
280
     0
  9
$JOINSTYLE
280
     0
  9
$LWDISPLAY
290
     0
  9
$INSUNITS
 70
     0
  9
$HYPERLINKBASE
  1

  9
$STYLESHEET
  1

  9
$XEDIT
290
     1
  9
$CEPSNTYPE
380
     0
  9
$PSTYLEMODE
290
     1
  9
$FINGERPRINTGUID
  2
{627E294E-AD1D-11D6-AAC6-0010A4A25215}
  9
$VERSIONGUID
  2
{627E2952-AD1D-11D6-AAC6-0010A4A25215}
  9
$EXTNAMES
290
     1
  9
$PSVPSCALE
 40
0.0
  9
$OLESTARTUP
290
     0
  0
ENDSEC
  0
SECTION
  2
CLASSES
  0
CLASS
  1
DICTIONARYVAR
  2
AcDbDictionaryVar
  3
AutoCAD 2000
 90
    32768
280
     0
281
     0
  0
CLASS
  1
LWPOLYLINE
  2
AcDbPolyline
  3
AutoCAD 2000
 90
    32768
280
     0
281
     1
  0
CLASS
  1
ACDBDICTIONARYWDFLT
  2
AcDbDictionaryWithDefault
  3
AutoCAD 2000
 90
        0
280
     0
281
     0
  0
CLASS
  1
ACDBPLACEHOLDER
  2
AcDbPlaceHolder
  3
AutoCAD 2000
 90
        0
280
     0
281
     0
  0
CLASS
  1
LAYOUT
  2
AcDbLayout
  3
AutoCAD 2000
 90
        0
280
     0
281
     0
  0
ENDSEC
  0
SECTION
  2
TABLES
  0
TABLE
  2
VPORT
  5
12
330
0
100
AcDbSymbolTable
 70
     2
  0
VPORT
  5
98
330
12
100
AcDbSymbolTableRecord
100
AcDbViewportTableRecord
  2
*Active
 70
     0
 10
0.0
 20
0.0
 11
1.0
 21
1.0
 12
251.6968799953582
 22
186.5040910929799
 13
0.0
 23
0.0
 14
5.0
 24
5.0
 15
10.0
 25
10.0
 16
0.0
 26
0.0
 36
1.0
 17
0.0
 27
0.0
 37
0.0
 40
339.0594200352691
 41
1.760948905109489
 42
50.0
 43
0.0
 44
0.0
 50
0.0
 51
0.0
 71
     0
 72
   100
 73
     1
 74
     1
 75
     0
 76
     0
 77
     0
 78
     0
281
     0
 65
     1
110
0.0
120
0.0
130
0.0
111
1.0
121
0.0
131
0.0
112
0.0
122
1.0
132
0.0
 79
     0
146
0.0
  0
ENDTAB
  0
TABLE
  2
LTYPE
  5
D
330
0
100
AcDbSymbolTable
 70
     2
  0
LTYPE
  5
E
330
D
100
AcDbSymbolTableRecord
100
AcDbLinetypeTableRecord
  2
BYBLOCK
 70
     0
  3

 72
    65
 73
     0
 40
0.0
  0
LTYPE
  5
F
330
D
100
AcDbSymbolTableRecord
100
AcDbLinetypeTableRecord
  2
BYLAYER
 70
     0
  3

 72
    65
 73
     0
 40
0.0
  0
LTYPE
  5
5
330
D
100
AcDbSymbolTableRecord
100
AcDbLinetypeTableRecord
  2
CONTINUOUS
 70
     0
  3
Solid line
 72
    65
 73
     0
 40
0.0
  0
LTYPE
  5
4D
330
D
100
AcDbSymbolTableRecord
100
AcDbLinetypeTableRecord
  2
CENTER2
 70
     0
  3
___ _ ___ _ ___ _ ___ _ ___ _ ___ _ ___ _ ___ _
 72
    65
 73
     4
 40
28.57499999999999
 49
19.05
 74
     0
 49
-3.174999999999999
 74
     0
 49
3.174999999999999
 74
     0
 49
-3.174999999999999
 74
     0
  0
ENDTAB
  0
TABLE
  2
LAYER
  5
A
330
0
100
AcDbSymbolTable
 70
     8
  0
LAYER
  5
4
330
A
100
AcDbSymbolTableRecord
100
AcDbLayerTableRecord
  2
0
 70
     0
 62
     7
  6
CONTINUOUS
370
    -3
390
90
  0
LAYER
  5
1B
330
A
100
AcDbSymbolTableRecord
100
AcDbLayerTableRecord
  2
DIMS
 70
     0
 62
     1
  6
CONTINUOUS
370
    -3
390
90
  0
LAYER
  5
44
330
A
100
AcDbSymbolTableRecord
100
AcDbLayerTableRecord
  2
ANCON-DSD
 70
     0
 62
     3
  6
CONTINUOUS
370
    -3
390
90
  0
LAYER
  5
3E
330
A
100
AcDbSymbolTableRecord
100
AcDbLayerTableRecord
  2
DEFPOINTS
 70
     0
 62
     7
  6
CONTINUOUS
290
     0
370
    -3
390
90
  0
LAYER
  5
71
330
A
100
AcDbSymbolTableRecord
100
AcDbLayerTableRecord
  2
ORIGIN
 70
     0
 62
     7
  6
CONTINUOUS
370
    -3
390
90
  0
LAYER
  5
2B
330
A
100
AcDbSymbolTableRecord
100
AcDbLayerTableRecord
  2
ANCON-TEXT
 70
     0
 62
     6
  6
CONTINUOUS
370
    -3
390
90
  0
LAYER
  5
28
330
A
100
AcDbSymbolTableRecord
100
AcDbLayerTableRecord
  2
SPECP
 70
     0
 62
     6
  6
CONTINUOUS
370
    -3
390
90
  0
LAYER
  5
20
330
A
100
AcDbSymbolTableRecord
100
AcDbLayerTableRecord
  2
SPECD
 70
     0
 62
     6
  6
CONTINUOUS
370
    -3
390
90
  0
ENDTAB
  0
TABLE
  2
STYLE
  5
B
330
0
100
AcDbSymbolTable
 70
     2
  0
STYLE
  5
C
330
B
100
AcDbSymbolTableRecord
100
AcDbTextStyleTableRecord
  2
STANDARD
 70
     0
 40
0.0
 41
1.0
 50
0.0
 71
     0
 42
6.0
  3
txt.shx
  4

  0
STYLE
  5
1C
330
B
100
AcDbSymbolTableRecord
100
AcDbTextStyleTableRecord
  2
ROMANS
 70
     0
 40
0.0
 41
1.0
 50
0.0
 71
     0
 42
5.0
  3
romans
  4

  0
ENDTAB
  0
TABLE
  2
VIEW
  5
10
330
0
100
AcDbSymbolTable
 70
     0
  0
ENDTAB
  0
TABLE
  2
UCS
  5
11
330
0
100
AcDbSymbolTable
 70
     0
  0
ENDTAB
  0
TABLE
  2
APPID
  5
14
330
0
100
AcDbSymbolTable
 70
     1
  0
APPID
  5
15
330
14
100
AcDbSymbolTableRecord
100
AcDbRegAppTableRecord
  2
ACAD
 70
     0
  0
ENDTAB
  0
TABLE
  2
DIMSTYLE
  5
16
330
0
100
AcDbSymbolTable
 70
     1
100
AcDbDimStyleTable
 71
     0
  0
DIMSTYLE
105
1E
102
{ACAD_REACTORS
330
4E
330
35
102
}
330
16
100
AcDbSymbolTableRecord
100
AcDbDimStyleTableRecord
  2
1-2
 70
     0
 40
0.0
 41
4.0
 42
3.0
 43
10.0
 44
3.0
 46
1.25
 73
     0
 74
     0
 77
     1
 78
    12
140
3.0
141
-3.0
143
0.039
145
1.5
146
0.75
147
1.5
271
     2
272
     2
279
     2
284
    12
285
    12
286
    12
340
1C
  0
ENDTAB
  0
TABLE
  2
BLOCK_RECORD
  5
1
330
0
100
AcDbSymbolTable
 70
     2
  0
BLOCK_RECORD
  5
2
330
1
100
AcDbSymbolTableRecord
100
AcDbBlockTableRecord
  2
*MODEL_SPACE
340
93
  0
BLOCK_RECORD
  5
7
330
1
100
AcDbSymbolTableRecord
100
AcDbBlockTableRecord
  2
*PAPER_SPACE
340
94
  0
BLOCK_RECORD
  5
4F
330
1
100
AcDbSymbolTableRecord
100
AcDbBlockTableRecord
  2
*D0
340
0
  0
BLOCK_RECORD
  5
36
330
1
100
AcDbSymbolTableRecord
100
AcDbBlockTableRecord
  2
*D1
340
0
  0
ENDTAB
  0
ENDSEC
  0
SECTION
  2
BLOCKS
  0
BLOCK
  5
3
330
2
100
AcDbEntity
  8
0
100
AcDbBlockBegin
  2
*MODEL_SPACE
 70
     0
 10
0.0
 20
0.0
 30
0.0
  3
*MODEL_SPACE
  1

  0
ENDBLK
  5
6
330
2
100
AcDbEntity
  8
0
100
AcDbBlockEnd
  0
BLOCK
  5
8
330
7
100
AcDbEntity
 67
     1
  8
0
100
AcDbBlockBegin
  2
*PAPER_SPACE
 70
     0
 10
0.0
 20
0.0
 30
0.0
  3
*PAPER_SPACE
  1

  0
ENDBLK
  5
9
330
7
100
AcDbEntity
 67
     1
  8
0
100
AcDbBlockEnd
  0
BLOCK
  5
59
330
4F
100
AcDbEntity
  8
0
100
AcDbBlockBegin
  2
*D0
 70
     1
 10
0.0
 20
0.0
 30
0.0
  3
*D0
  1

  0
LINE
  5
50
330
4F
100
AcDbEntity
  8
0
  6
ByBlock
 62
     0
100
AcDbLine
 10
64.68222323361279
 20
212.3555890501053
 30
0.0
 11
64.68222323361279
 21
195.7811889986986
 31
0.0
  0
LINE
  5
51
330
4F
100
AcDbEntity
  8
0
  6
ByBlock
 62
     0
100
AcDbLine
 10
139.6822232336127
 20
212.3555890501053
 30
0.0
 11
139.6822232336127
 21
195.7811889986986
 31
0.0
  0
LINE
  5
52
330
4F
100
AcDbEntity
  8
0
  6
ByBlock
 62
     0
100
AcDbLine
 10
68.68222323361279
 20
198.7811889986986
 30
0.0
 11
135.6822232336127
 21
198.7811889986986
 31
0.0
  0
SOLID
  5
53
330
4F
100
AcDbEntity
  8
0
  6
ByBlock
 62
     0
100
AcDbTrace
 10
68.68222323361279
 20
199.4478556653652
 30
0.0
 11
68.68222323361279
 21
198.1145223320319
 31
0.0
 12
64.68222323361279
 22
198.7811889986986
 32
0.0
 13
64.68222323361279
 23
198.7811889986986
 33
0.0
  0
SOLID
  5
54
330
4F
100
AcDbEntity
  8
0
  6
ByBlock
 62
     0
100
AcDbTrace
 10
135.6822232336127
 20
199.4478556653652
 30
0.0
 11
135.6822232336127
 21
198.1145223320319
 31
0.0
 12
139.6822232336127
 22
198.7811889986986
 32
0.0
 13
139.6822232336127
 23
198.7811889986986
 33
0.0
  0
TEXT
  5
55
330
4F
100
AcDbEntity
  8
0
  6
ByBlock
 62
     0
100
AcDbText
 10
99.32508037646991
 20
200.2811889986986
 30
0.0
 40
3.0
  1
75
  7
ROMANS
 72
     1
 11
102.1822232336127
 21
201.7811889986986
 31
0.0
100
AcDbText
 73
     2
  0
POINT
  5
56
330
4F
100
AcDbEntity
  8
DEFPOINTS
  6
ByBlock
 62
     0
100
AcDbPoint
 10
64.68222323361279
 20
215.3555890501053
 30
0.0
  0
POINT
  5
57
330
4F
100
AcDbEntity
  8
DEFPOINTS
  6
ByBlock
 62
     0
100
AcDbPoint
 10
139.6822232336127
 20
215.3555890501053
 30
0.0
  0
POINT
  5
58
330
4F
100
AcDbEntity
  8
DEFPOINTS
  6
ByBlock
 62
     0
100
AcDbPoint
 10
139.6822232336127
 20
198.7811889986986
 30
0.0
  0
ENDBLK
  5
5A
330
4F
100
AcDbEntity
  8
0
100
AcDbBlockEnd
  0
BLOCK
  5
41
330
36
100
AcDbEntity
  8
0
100
AcDbBlockBegin
  2
*D1
 70
     1
 10
0.0
 20
0.0
 30
0.0
  3
*D1
  1

  0
LINE
  5
37
330
36
100
AcDbEntity
  8
0
  6
ByBlock
 62
     0
100
AcDbLine
 10
52.18222323361273
 20
256.3555890501052
 30
0.0
 11
52.18222323361273
 21
172.1738157937758
 31
0.0
  0
LINE
  5
38
330
36
100
AcDbEntity
  8
0
  6
ByBlock
 62
     0
100
AcDbLine
 10
152.1822232336127
 20
256.3555890501052
 30
0.0
 11
152.1822232336127
 21
172.1738157937758
 31
0.0
  0
LINE
  5
39
330
36
100
AcDbEntity
  8
0
  6
ByBlock
 62
     0
100
AcDbLine
 10
56.18222323361273
 20
175.1738157937758
 30
0.0
 11
148.1822232336127
 21
175.1738157937758
 31
0.0
  0
SOLID
  5
3A
330
36
100
AcDbEntity
  8
0
  6
ByBlock
 62
     0
100
AcDbTrace
 10
56.18222323361273
 20
175.8404824604424
 30
0.0
 11
56.18222323361273
 21
174.5071491271091
 31
0.0
 12
52.18222323361273
 22
175.1738157937758
 32
0.0
 13
52.18222323361273
 23
175.1738157937758
 33
0.0
  0
SOLID
  5
3B
330
36
100
AcDbEntity
  8
0
  6
ByBlock
 62
     0
100
AcDbTrace
 10
148.1822232336127
 20
175.8404824604424
 30
0.0
 11
148.1822232336127
 21
174.5071491271091
 31
0.0
 12
152.1822232336127
 22
175.1738157937758
 32
0.0
 13
152.1822232336127
 23
175.1738157937758
 33
0.0
  0
TEXT
  5
3C
330
36
100
AcDbEntity
  8
0
  6
ByBlock
 62
     0
100
AcDbText
 10
97.68222323361271
 20
176.6738157937757
 30
0.0
 40
3.0
  1
100
  7
ROMANS
 72
     1
 11
102.1822232336127
 21
178.1738157937757
 31
0.0
100
AcDbText
 73
     2
  0
POINT
  5
3D
330
36
100
AcDbEntity
  8
DEFPOINTS
  6
ByBlock
 62
     0
100
AcDbPoint
 10
52.18222323361273
 20
259.3555890501052
 30
0.0
  0
POINT
  5
3F
330
36
100
AcDbEntity
  8
DEFPOINTS
  6
ByBlock
 62
     0
100
AcDbPoint
 10
152.1822232336127
 20
259.3555890501052
 30
0.0
  0
POINT
  5
40
330
36
100
AcDbEntity
  8
DEFPOINTS
  6
ByBlock
 62
     0
100
AcDbPoint
 10
152.1822232336127
 20
175.1738157937758
 30
0.0
  0
ENDBLK
  5
42
330
36
100
AcDbEntity
  8
0
100
AcDbBlockEnd
  0
ENDSEC
  0
SECTION
  2
ENTITIES
  0
TEXT
  5
1F
330
2
100
AcDbEntity
  8
SPECD
 62
     6
100
AcDbText
 10
150.9169772648573
 20
72.46316705382835
 30
0.0
 40
5.0
  1
LOAD OF ??? kN
  7
ROMANS
 72
     4
 11
183.5360248839049
 21
74.96316705382835
 31
0.0
100
AcDbText
  0
TEXT
  5
21
330
2
100
AcDbEntity
  8
SPECD
 62
     6
100
AcDbText
 10
149.9392489845623
 20
112.55300966818
 30
0.0
 40
5.0
  1
TWO PART STAINLESS STEEL SHEAR CONNECTOR
  7
ROMANS
 72
     4
 11
242.55829660361
 21
115.05300966818
 31
0.0
100
AcDbText
  0
TEXT
  5
22
330
2
100
AcDbEntity
  8
SPECD
 62
     6
100
AcDbText
 10
149.2180645785065
 20
102.4482973423894
 30
0.0
 40
5.0
  1
COMPRISING SLEEVE AND DOWEL COMPONENT
  7
ROMANS
 72
     4
 11
237.194255054697
 21
104.9482973423894
 31
0.0
100
AcDbText
  0
TEXT
  5
23
330
2
100
AcDbEntity
  8
SPECD
 62
     6
100
AcDbText
 10
149.7311965085142
 20
82.49809221879061
 30
0.0
 40
5.0
  1
AND CAPABLE OF TRANSFERRING A SERVICEABILITY
  7
ROMANS
 72
     4
 11
247.1121488894666
 21
84.99809221879061
 31
0.0
100
AcDbText
  0
LINE
  5
24
330
2
100
AcDbEntity
  8
SPECD
 62
     6
100
AcDbLine
 10
145.6475157797227
 20
68.76011662239978
 30
0.0
 11
348.134465886363
 21
68.76011662239978
 31
0.0
  0
LINE
  5
25
330
2
100
AcDbEntity
  8
SPECD
 62
     6
100
AcDbLine
 10
145.6475157797227
 20
121.7938092079501
 30
0.0
 11
348.134465886363
 21
121.7938092079501
 31
0.0
  0
TEXT
  5
26
330
2
100
AcDbEntity
  8
SPECD
 62
     6
100
AcDbText
 10
149.2767613385641
 20
92.5471496327197
 30
0.0
 40
5.0
  1
SUITABLE FOR A DESIGN JOINT WIDTH OF ?? MM
  7
ROMANS
 72
     4
 11
244.1577137195165
 21
95.0471496327197
 31
0.0
100
AcDbText
  0
LINE
  5
27
330
2
100
AcDbEntity
  8
SPECP
 62
     6
100
AcDbLine
 10
145.6475157797227
 20
151.1603228750439
 30
0.0
 11
213.2373667024846
 21
151.1603228750439
 31
0.0
  0
LINE
  5
29
330
2
100
AcDbEntity
  8
SPECP
 62
     6
100
AcDbLine
 10
145.6475157797227
 20
139.2423475830426
 30
0.0
 11
213.2373667024846
 21
139.2423475830426
 31
0.0
  0
LINE
  5
2A
330
2
100
AcDbEntity
  8
ANCON-TEXT
 62
     6
100
AcDbLine
 10
173.6354668002847
 20
278.8530033542416
 30
0.0
 11
349.0141444921471
 21
278.8530033542415
 31
0.0
  0
LINE
  5
2C
330
2
100
AcDbEntity
  8
ANCON-TEXT
 62
     6
100
AcDbLine
 10
173.6354668002847
 20
305.8804884292886
 30
0.0
 11
349.0141444921471
 21
305.8804884292886
 31
0.0
  0
LINE
  5
2D
330
2
100
AcDbEntity
  8
ANCON-TEXT
 62
     6
100
AcDbLine
 10
173.6354668002847
 20
331.9512494883344
 30
0.0
 11
349.0141444921471
 21
331.9512494883343
 31
0.0
  0
TEXT
  5
2E
330
2
100
AcDbEntity
  8
ANCON-TEXT
 62
     6
100
AcDbText
 10
182.639978531361
 20
289.9066556854353
 30
0.0
 40
5.0
  1
DSDQ50
  7
ROMANS
 72
     4
 11
197.5209309123133
 21
292.1685604473401
 31
0.0
100
AcDbText
  0
TEXT
  5
2F
330
2
100
AcDbEntity
  8
ANCON-TEXT
 62
     6
100
AcDbText
 10
180.827850949356
 20
321.6855333287927
 30
0.0
 40
5.0
  1
DSD REF:
  7
ROMANS
 72
     4
 11
198.8040414255465
 21
324.1855333287927
 31
0.0
100
AcDbText
  0
TEXT
  5
30
330
2
100
AcDbEntity
  8
SPECD
 62
     1
100
AcDbText
 10
18.21878009843612
 20
112.5887582947043
 30
0.0
 40
5.0
  1
SPECIFICATION BY DESCRIPTION
  7
ROMANS
 72
     4
 11
77.86163724129327
 21
115.0887582947043
 31
0.0
100
AcDbText
  0
TEXT
  5
31
330
2
100
AcDbEntity
  8
SPECP
 62
     1
100
AcDbText
 10
18.07514348880984
 20
142.5232127592004
 30
0.0
 40
5.0
  1
SPECIFICATION BY PRODUCT
  7
ROMANS
 72
     4
 11
71.52752444119077
 21
145.0232127592004
 31
0.0
100
AcDbText
  0
LINE
  5
32
330
2
100
AcDbEntity
  8
SPECD
 62
     6
100
AcDbLine
 10
145.6475157797227
 20
121.7938092079501
 30
0.0
 11
145.6475157797227
 21
68.76011662239978
 31
0.0
  0
TEXT
  5
33
330
2
100
AcDbEntity
  8
SPECP
 62
     6
100
AcDbText
 10
150.1416254531147
 20
142.5232127592004
 30
0.0
 40
5.0
  1
STAIFIX DSD ??
  7
ROMANS
 72
     4
 11
179.6654349769243
 21
145.0232127592004
 31
0.0
100
AcDbText
  0
LINE
  5
34
330
2
100
AcDbEntity
  8
SPECP
 62
     6
100
AcDbLine
 10
145.6475157797227
 20
151.1603228750439
 30
0.0
 11
145.6475157797227
 21
139.2423475830426
 31
0.0
  0
DIMENSION
  5
35
330
2
100
AcDbEntity
  8
DIMS
100
AcDbDimension
  2
*D1
 10
152.1822232336127
 20
175.1738157937758
 30
0.0
 11
102.1822232336127
 21
178.1738157937757
 31
0.0
 71
     5
 42
-1.0
  3
1-2
100
AcDbAlignedDimension
 13
52.18222323361273
 23
259.3555890501052
 33
0.0
 14
152.1822232336127
 24
259.3555890501052
 34
0.0
100
AcDbRotatedDimension
  0
LINE
  5
43
330
2
100
AcDbEntity
  8
ANCON-DSD
  6
Continuous
100
AcDbLine
 10
78.43222323361278
 20
301.6055890501052
 30
0.0
 11
125.9322232336127
 21
301.6055890501052
 31
0.0
  0
LINE
  5
45
330
2
100
AcDbEntity
  8
ANCON-DSD
  6
Continuous
100
AcDbLine
 10
78.43222323361278
 20
279.1055890501052
 30
0.0
 11
125.9322232336127
 21
279.1055890501052
 31
0.0
  0
LINE
  5
46
330
2
100
AcDbEntity
  8
ANCON-DSD
  6
Continuous
100
AcDbLine
 10
78.43222323361278
 20
229.1055890501053
 30
0.0
 11
125.9322232336127
 21
229.1055890501054
 31
0.0
  0
LINE
  5
47
330
2
100
AcDbEntity
  8
ANCON-DSD
  6
Continuous
100
AcDbLine
 10
78.43222323361278
 20
251.6055890501053
 30
0.0
 11
125.9322232336127
 21
251.6055890501053
 31
0.0
  0
LINE
  5
48
330
2
100
AcDbEntity
  8
ANCON-DSD
  6
Continuous
100
AcDbLine
 10
77.18222323361278
 20
227.8555890501053
 30
0.0
 11
127.1822232336128
 21
227.8555890501053
 31
0.0
  0
LINE
  5
49
330
2
100
AcDbEntity
  8
ANCON-DSD
  6
Continuous
100
AcDbLine
 10
77.18222323361279
 20
252.8555890501053
 30
0.0
 11
127.1822232336128
 21
252.8555890501054
 31
0.0
  0
LINE
  5
4A
330
2
100
AcDbEntity
  8
ANCON-DSD
  6
Continuous
100
AcDbLine
 10
77.18222323361278
 20
302.8555890501052
 30
0.0
 11
127.1822232336128
 21
302.8555890501052
 31
0.0
  0
LINE
  5
4B
330
2
100
AcDbEntity
  8
ANCON-DSD
  6
Continuous
100
AcDbLine
 10
77.18222323361278
 20
277.8555890501052
 30
0.0
 11
127.1822232336128
 21
277.8555890501052
 31
0.0
  0
LINE
  5
4C
330
2
100
AcDbEntity
  8
DIMS
  6
CENTER2
100
AcDbLine
 10
72.18222323361278
 20
290.3555890501052
 30
0.0
 11
132.1822232336127
 21
290.3555890501052
 31
0.0
  0
DIMENSION
  5
4E
330
2
100
AcDbEntity
  8
DIMS
100
AcDbDimension
  2
*D0
 10
139.6822232336127
 20
188.7811889986986
 30
0.0
 11
102.1822232336127
 21
201.7811889986986
 31
0.0
 12
0.0
 22
-10.0
 32
0.0
 71
     5
 42
-1.0
  3
1-2
100
AcDbAlignedDimension
 13
64.68222323361279
 23
205.3555890501054
 33
0.0
 14
139.6822232336127
 24
205.3555890501054
 34
0.0
100
AcDbRotatedDimension
  0
LINE
  5
5B
330
2
100
AcDbEntity
  8
DIMS
  6
CENTER2
100
AcDbLine
 10
72.18222323361278
 20
240.3555890501053
 30
0.0
 11
132.1822232336127
 21
240.3555890501054
 31
0.0
  0
LINE
  5
5C
330
2
100
AcDbEntity
  8
ANCON-DSD
100
AcDbLine
 10
64.68222323361279
 20
205.3555890501054
 30
0.0
 11
139.6822232336127
 21
205.3555890501054
 31
0.0
  0
LINE
  5
5D
330
2
100
AcDbEntity
  8
ANCON-DSD
100
AcDbLine
 10
64.68222323361279
 20
325.3555890501052
 30
0.0
 11
139.6822232336127
 21
325.3555890501052
 31
0.0
  0
LINE
  5
5E
330
2
100
AcDbEntity
  8
DIMS
  6
CENTER2
100
AcDbLine
 10
47.18222323361273
 20
265.3555890501052
 30
0.0
 11
157.1822232336127
 21
265.3555890501052
 31
0.0
  0
LINE
  5
5F
330
2
100
AcDbEntity
  8
ANCON-DSD
  6
Continuous
100
AcDbLine
 10
52.18222323361273
 20
271.3555890501052
 30
0.0
 11
52.18222323361273
 21
259.3555890501052
 31
0.0
  0
LINE
  5
60
330
2
100
AcDbEntity
  8
ANCON-DSD
100
AcDbLine
 10
64.68222323361279
 20
325.3555890501052
 30
0.0
 11
64.68222323361279
 21
205.3555890501054
 31
0.0
  0
LINE
  5
61
330
2
100
AcDbEntity
  8
DIMS
  6
CENTER2
100
AcDbLine
 10
67.18222323361279
 20
212.3555890501053
 30
0.0
 11
76.18222323361279
 21
212.3555890501053
 31
0.0
  0
CIRCLE
  5
62
330
2
100
AcDbEntity
  8
ANCON-DSD
100
AcDbCircle
 10
71.68222323361279
 20
212.3555890501053
 30
0.0
 40
2.5
  0
LINE
  5
63
330
2
100
AcDbEntity
  8
DIMS
  6
CENTER2
100
AcDbLine
 10
71.68222323361279
 20
216.8555890501053
 30
0.0
 11
71.68222323361279
 21
207.8555890501053
 31
0.0
  0
LINE
  5
64
330
2
100
AcDbEntity
  8
ANCON-DSD
  6
Continuous
100
AcDbLine
 10
78.43222323361278
 20
251.6055890501053
 30
0.0
 11
78.43222323361278
 21
229.1055890501053
 31
0.0
  0
LINE
  5
65
330
2
100
AcDbEntity
  8
ANCON-DSD
  6
Continuous
100
AcDbLine
 10
77.18222323361278
 20
252.8555890501053
 30
0.0
 11
77.18222323361278
 21
227.8555890501053
 31
0.0
  0
LINE
  5
66
330
2
100
AcDbEntity
  8
ANCON-DSD
  6
Continuous
100
AcDbLine
 10
52.18222323361274
 20
259.3555890501052
 30
0.0
 11
64.68222323361279
 21
259.3555890501052
 31
0.0
  0
LINE
  5
67
330
2
100
AcDbEntity
  8
DIMS
  6
CENTER2
100
AcDbLine
 10
71.68222323361279
 20
322.8555890501053
 30
0.0
 11
71.68222323361279
 21
313.8555890501053
 31
0.0
  0
LINE
  5
68
330
2
100
AcDbEntity
  8
ANCON-DSD
  6
Continuous
100
AcDbLine
 10
78.43222323361278
 20
301.6055890501052
 30
0.0
 11
78.43222323361278
 21
279.1055890501052
 31
0.0
  0
LINE
  5
69
330
2
100
AcDbEntity
  8
ANCON-DSD
  6
Continuous
100
AcDbLine
 10
77.18222323361278
 20
302.8555890501052
 30
0.0
 11
77.18222323361278
 21
277.8555890501052
 31
0.0
  0
LINE
  5
6A
330
2
100
AcDbEntity
  8
ANCON-DSD
  6
Continuous
100
AcDbLine
 10
52.18222323361274
 20
271.3555890501052
 30
0.0
 11
64.68222323361279
 21
271.3555890501052
 31
0.0
  0
CIRCLE
  5
6B
330
2
100
AcDbEntity
  8
ANCON-DSD
100
AcDbCircle
 10
71.68222323361279
 20
318.3555890501053
 30
0.0
 40
2.5
  0
LINE
  5
6C
330
2
100
AcDbEntity
  8
DIMS
  6
CENTER2
100
AcDbLine
 10
67.18222323361279
 20
318.3555890501053
 30
0.0
 11
76.18222323361279
 21
318.3555890501053
 31
0.0
  0
LINE
  5
6D
330
2
100
AcDbEntity
  8
ANCON-DSD
  6
Continuous
100
AcDbLine
 10
152.1822232336127
 20
271.3555890501052
 30
0.0
 11
152.1822232336127
 21
259.3555890501052
 31
0.0
  0
LINE
  5
6E
330
2
100
AcDbEntity
  8
ANCON-DSD
100
AcDbLine
 10
139.6822232336127
 20
325.3555890501052
 30
0.0
 11
139.6822232336127
 21
205.3555890501054
 31
0.0
  0
LINE
  5
6F
330
2
100
AcDbEntity
  8
DIMS
  6
CENTER2
100
AcDbLine
 10
102.1822232336127
 20
330.3555890501052
 30
0.0
 11
102.1822232336127
 21
200.3555890501053
 31
0.0
  0
LINE
  5
72
330
2
100
AcDbEntity
  8
ANCON-DSD
  6
Continuous
100
AcDbLine
 10
139.6822232336127
 20
259.3555890501052
 30
0.0
 11
152.1822232336127
 21
259.3555890501052
 31
0.0
  0
LINE
  5
73
330
2
100
AcDbEntity
  8
DIMS
  6
CENTER2
100
AcDbLine
 10
128.1822232336127
 20
212.3555890501053
 30
0.0
 11
137.3380740843986
 21
212.3555890501053
 31
0.0
  0
LINE
  5
74
330
2
100
AcDbEntity
  8
DIMS
  6
CENTER2
100
AcDbLine
 10
132.6822232336127
 20
216.8555890501053
 30
0.0
 11
132.6822232336127
 21
207.8555890501053
 31
0.0
  0
CIRCLE
  5
75
330
2
100
AcDbEntity
  8
ANCON-DSD
100
AcDbCircle
 10
132.6822232336127
 20
212.3555890501053
 30
0.0
 40
2.5
  0
CIRCLE
  5
76
330
2
100
AcDbEntity
  8
ANCON-DSD
100
AcDbCircle
 10
102.1822232336127
 20
240.3555890501053
 30
0.0
 40
9.5
  0
CIRCLE
  5
77
330
2
100
AcDbEntity
  8
ANCON-DSD
100
AcDbCircle
 10
102.1822232336127
 20
240.3555890501053
 30
0.0
 40
11.0
  0
LINE
  5
78
330
2
100
AcDbEntity
  8
ANCON-DSD
  6
Continuous
100
AcDbLine
 10
125.9322232336127
 20
251.6055890501053
 30
0.0
 11
125.9322232336127
 21
229.1055890501053
 31
0.0
  0
LINE
  5
79
330
2
100
AcDbEntity
  8
ANCON-DSD
  6
Continuous
100
AcDbLine
 10
127.1822232336127
 20
252.8555890501054
 30
0.0
 11
127.1822232336127
 21
227.8555890501053
 31
0.0
  0
LINE
  5
7A
330
2
100
AcDbEntity
  8
ANCON-DSD
  6
Continuous
100
AcDbLine
 10
139.6822232336127
 20
271.3555890501052
 30
0.0
 11
152.1822232336127
 21
271.3555890501052
 31
0.0
  0
LINE
  5
7B
330
2
100
AcDbEntity
  8
DIMS
  6
CENTER2
100
AcDbLine
 10
132.6822232336127
 20
322.8555890501053
 30
0.0
 11
132.6822232336127
 21
313.8555890501053
 31
0.0
  0
CIRCLE
  5
7C
330
2
100
AcDbEntity
  8
ANCON-DSD
100
AcDbCircle
 10
102.1822232336127
 20
290.3555890501053
 30
0.0
 40
9.5
  0
CIRCLE
  5
7D
330
2
100
AcDbEntity
  8
ANCON-DSD
100
AcDbCircle
 10
102.1822232336127
 20
290.3555890501053
 30
0.0
 40
11.0
  0
LINE
  5
7E
330
2
100
AcDbEntity
  8
ANCON-DSD
  6
Continuous
100
AcDbLine
 10
125.9322232336127
 20
301.6055890501052
 30
0.0
 11
125.9322232336127
 21
279.1055890501052
 31
0.0
  0
LINE
  5
7F
330
2
100
AcDbEntity
  8
ANCON-DSD
  6
Continuous
100
AcDbLine
 10
127.1822232336128
 20
302.8555890501052
 30
0.0
 11
127.1822232336127
 21
277.8555890501052
 31
0.0
  0
LINE
  5
80
330
2
100
AcDbEntity
  8
DIMS
  6
CENTER2
100
AcDbLine
 10
128.1822232336127
 20
318.3555890501053
 30
0.0
 11
137.3380733701429
 21
318.3555890501053
 31
0.0
  0
CIRCLE
  5
81
330
2
100
AcDbEntity
  8
ANCON-DSD
100
AcDbCircle
 10
132.6822232336127
 20
318.3555890501053
 30
0.0
 40
2.5
  0
LINE
  5
82
330
2
100
AcDbEntity
  8
ANCON-TEXT
 62
     6
100
AcDbLine
 10
173.6354668002847
 20
331.9512494883343
 30
0.0
 11
173.6354668002847
 21
278.8530033542415
 31
0.0
  0
LINE
  5
83
330
2
100
AcDbEntity
  8
SPECP
 62
     6
100
AcDbLine
 10
213.2373667024846
 20
151.1603228750439
 30
0.0
 11
213.2373667024846
 21
139.2423475830426
 31
0.0
  0
LINE
  5
84
330
2
100
AcDbEntity
  8
SPECD
 62
     6
100
AcDbLine
 10
348.134465886363
 20
121.7938092079501
 30
0.0
 11
348.134465886363
 21
68.76011662239978
 31
0.0
  0
TEXT
  5
85
330
2
100
AcDbEntity
  8
ANCON-TEXT
 62
     6
100
AcDbText
 10
289.6637880551705
 20
321.6903638259243
 30
0.0
 40
5.0
  1
SERVICEABILITY
  7
ROMANS
 72
     4
 11
317.5209309123133
 21
324.1903638259242
 31
0.0
100
AcDbText
  0
TEXT
  5
86
330
2
100
AcDbEntity
  8
ANCON-TEXT
 62
     6
100
AcDbText
 10
292.7590261504085
 20
310.7470848873459
 30
0.0
 40
5.0
  1
LOAD ( kN )
  7
ROMANS
 72
     4
 11
317.5209309123133
 21
312.8899420302031
 31
0.0
100
AcDbText
  0
TEXT
  5
87
330
2
100
AcDbEntity
  8
ANCON-TEXT
 62
     6
100
AcDbText
 10
228.7391351651736
 20
321.6855333287927
 30
0.0
 40
5.0
  1
DESIGN JOINT
  7
ROMANS
 72
     4
 11
254.8105637366021
 21
324.1855333287927
 31
0.0
100
AcDbText
  0
LINE
  5
88
330
2
100
AcDbEntity
  8
ANCON-TEXT
 62
     6
100
AcDbLine
 10
223.6354668002847
 20
331.9512494883343
 30
0.0
 11
223.6354668002847
 21
278.8530033542415
 31
0.0
  0
TEXT
  5
89
330
2
100
AcDbEntity
  8
ANCON-TEXT
 62
     6
100
AcDbText
 10
245.139978531361
 20
289.66856044734
 30
0.0
 40
5.0
  1
?? MM
  7
ROMANS
 72
     4
 11
257.5209309123133
 21
292.1685604473401
 31
0.0
100
AcDbText
  0
TEXT
  5
8A
330
2
100
AcDbEntity
  8
ANCON-TEXT
 62
     6
100
AcDbText
 10
244.215325641364
 20
310.7879099411738
 30
0.0
 40
5.0
  1
WIDTH
  7
ROMANS
 72
     4
 11
254.8105637366021
 21
313.2879099411737
 31
0.0
100
AcDbText
  0
LINE
  5
8B
330
2
100
AcDbEntity
  8
ANCON-TEXT
 62
     6
100
AcDbLine
 10
284.1435603573474
 20
331.9512494883343
 30
0.0
 11
284.1435603573474
 21
278.8530033542415
 31
0.0
  0
TEXT
  5
8C
330
2
100
AcDbEntity
  8
ANCON-TEXT
 62
     6
100
AcDbText
 10
311.0923594837419
 20
289.66856044734
 30
0.0
 40
5.0
  1
???
  7
ROMANS
 72
     4
 11
317.5209309123133
 21
292.1685604473401
 31
0.0
100
AcDbText
  0
LINE
  5
8D
330
2
100
AcDbEntity
  8
ANCON-TEXT
 62
     6
100
AcDbLine
 10
349.0141444921471
 20
331.9512494883343
 30
0.0
 11
349.0141444921471
 21
278.8530033542415
 31
0.0
  0
ENDSEC
  0
SECTION
  2
OBJECTS
  0
DICTIONARY
  5
1A
330
0
100
AcDbDictionary
281
     1
  3
ACAD_GROUP
350
18
  3
ACAD_LAYOUT
350
91
  3
ACAD_MLINESTYLE
350
19
  3
ACAD_PLOTSETTINGS
350
92
  3
ACAD_PLOTSTYLENAME
350
8F
  0
DICTIONARY
  5
18
102
{ACAD_REACTORS
330
1A
102
}
330
1A
100
AcDbDictionary
281
     1
  0
DICTIONARY
  5
91
102
{ACAD_REACTORS
330
1A
102
}
330
1A
100
AcDbDictionary
281
     1
  3
Layout1
350
94
  3
Model
350
93
  0
DICTIONARY
  5
19
102
{ACAD_REACTORS
330
1A
102
}
330
1A
100
AcDbDictionary
281
     1
  3
STANDARD
350
1D
  0
DICTIONARY
  5
92
102
{ACAD_REACTORS
330
1A
102
}
330
1A
100
AcDbDictionary
281
     1
  0
ACDBDICTIONARYWDFLT
  5
8F
102
{ACAD_REACTORS
330
1A
102
}
330
1A
100
AcDbDictionary
281
     1
  3
Normal
350
90
100
AcDbDictionaryWithDefault
340
90
  0
LAYOUT
  5
94
102
{ACAD_REACTORS
330
91
102
}
330
91
100
AcDbPlotSettings
  1

  2
Ancon 2
  4

  6

 40
0.0
 41
0.0
 42
0.0
 43
0.0
 44
0.0
 45
0.0
 46
0.0
 47
0.0
 48
0.0
 49
0.0
140
0.0
141
0.0
142
1.0
143
1.0
 70
   688
 72
     0
 73
     0
 74
     5
  7

 75
    16
147
1.0
148
0.0
149
0.0
100
AcDbLayout
  1
Layout1
 70
     1
 71
     1
 10
0.0
 20
0.0
 11
420.0
 21
297.0
 12
0.0
 22
0.0
 32
0.0
 14
1.000000000000000E+20
 24
1.000000000000000E+20
 34
1.000000000000000E+20
 15
-1.000000000000000E+20
 25
-1.000000000000000E+20
 35
-1.000000000000000E+20
146
0.0
 13
0.0
 23
0.0
 33
0.0
 16
1.0
 26
0.0
 36
0.0
 17
0.0
 27
1.0
 37
0.0
 76
     0
330
7
  0
LAYOUT
  5
93
102
{ACAD_REACTORS
330
91
102
}
330
91
100
AcDbPlotSettings
  1

  2
Ancon 2
  4

  6

 40
0.0
 41
0.0
 42
0.0
 43
0.0
 44
0.0
 45
0.0
 46
0.0
 47
0.0
 48
0.0
 49
0.0
140
0.0
141
0.0
142
1.0
143
1.0
 70
  1712
 72
     0
 73
     0
 74
     0
  7

 75
     0
147
1.0
148
0.0
149
0.0
100
AcDbLayout
  1
Model
 70
     1
 71
     0
 10
0.0
 20
0.0
 11
12.0
 21
9.0
 12
0.0
 22
0.0
 32
0.0
 14
0.0
 24
0.0
 34
0.0
 15
0.0
 25
0.0
 35
0.0
146
0.0
 13
0.0
 23
0.0
 33
0.0
 16
1.0
 26
0.0
 36
0.0
 17
0.0
 27
1.0
 37
0.0
 76
     0
330
2
  0
MLINESTYLE
  5
1D
102
{ACAD_REACTORS
330
19
102
}
330
19
100
AcDbMlineStyle
  2
STANDARD
 70
     0
  3

 62
   256
 51
90.0
 52
90.0
 71
     2
 49
0.5
 62
   256
  6
BYLAYER
 49
-0.5
 62
   256
  6
BYLAYER
  0
ACDBPLACEHOLDER
  5
90
102
{ACAD_REACTORS
330
8F
102
}
330
8F
  0
ENDSEC
  0
EOF
