  0
SECTION
  2
HEADER
  9
$ACADVER
  1
AC1015
  9
$ACADMAINTVER
 70
    10
  9
$DWGCODEPAGE
  3
ANSI_1252
  9
$INSBASE
 10
0.0
 20
0.0
 30
0.0
  9
$EXTMIN
 10
-226.3251890346568
 20
-144.7600580133052
 30
-0.0000000349181948
  9
$EXTMAX
 10
339.4978113782233
 20
164.6634138689398
 30
0.0000000814935746
  9
$LIMMIN
 10
0.0
 20
0.0
  9
$LIMMAX
 10
420.0
 20
297.0
  9
$ORTHOMODE
 70
     1
  9
$REGENMODE
 70
     1
  9
$FILLMODE
 70
     1
  9
$QTEXTMODE
 70
     0
  9
$MIRRTEXT
 70
     1
  9
$LTSCALE
 40
0.25
  9
$ATTMODE
 70
     1
  9
$TEXTSIZE
 40
5.0
  9
$TRACEWID
 40
10.0
  9
$TEXTSTYLE
  7
ROMANS
  9
$CLAYER
  8
ANCON-TEXT
  9
$CELTYPE
  6
ByLayer
  9
$CECOLOR
 62
   256
  9
$CELTSCALE
 40
1.0
  9
$DISPSILH
 70
     0
  9
$DIMSCALE
 40
0.0
  9
$DIMASZ
 40
4.0
  9
$DIMEXO
 40
3.0
  9
$DIMDLI
 40
10.0
  9
$DIMRND
 40
0.0
  9
$DIMDLE
 40
1.25
  9
$DIMEXE
 40
3.0
  9
$DIMTP
 40
0.0
  9
$DIMTM
 40
0.0
  9
$DIMTXT
 40
3.0
  9
$DIMCEN
 40
-3.0
  9
$DIMTSZ
 40
0.0
  9
$DIMTOL
 70
     0
  9
$DIMLIM
 70
     0
  9
$DIMTIH
 70
     0
  9
$DIMTOH
 70
     0
  9
$DIMSE1
 70
     0
  9
$DIMSE2
 70
     0
  9
$DIMTAD
 70
     1
  9
$DIMZIN
 70
    12
  9
$DIMBLK
  1

  9
$DIMASO
 70
     1
  9
$DIMSHO
 70
     0
  9
$DIMPOST
  1

  9
$DIMAPOST
  1

  9
$DIMALT
 70
     0
  9
$DIMALTD
 70
     2
  9
$DIMALTF
 40
0.039
  9
$DIMLFAC
 40
1.0
  9
$DIMTOFL
 70
     0
  9
$DIMTVP
 40
1.5
  9
$DIMTIX
 70
     0
  9
$DIMSOXD
 70
     0
  9
$DIMSAH
 70
     0
  9
$DIMBLK1
  1

  9
$DIMBLK2
  1

  9
$DIMSTYLE
  2
1-2
  9
$DIMCLRD
 70
     0
  9
$DIMCLRE
 70
     0
  9
$DIMCLRT
 70
     0
  9
$DIMTFAC
 40
0.75
  9
$DIMGAP
 40
1.5
  9
$DIMJUST
 70
     0
  9
$DIMSD1
 70
     0
  9
$DIMSD2
 70
     0
  9
$DIMTOLJ
 70
     1
  9
$DIMTZIN
 70
    12
  9
$DIMALTZ
 70
    12
  9
$DIMALTTZ
 70
    12
  9
$DIMUPT
 70
     0
  9
$DIMDEC
 70
     2
  9
$DIMTDEC
 70
     2
  9
$DIMALTU
 70
     2
  9
$DIMALTTD
 70
     2
  9
$DIMTXSTY
  7
STANDARD
  9
$DIMAUNIT
 70
     0
  9
$DIMADEC
 70
     0
  9
$DIMALTRND
 40
0.0
  9
$DIMAZIN
 70
     0
  9
$DIMDSEP
 70
    46
  9
$DIMATFIT
 70
     3
  9
$DIMFRAC
 70
     0
  9
$DIMLDRBLK
  1

  9
$DIMLUNIT
 70
     2
  9
$DIMLWD
 70
    -2
  9
$DIMLWE
 70
    -2
  9
$DIMTMOVE
 70
     2
  9
$LUNITS
 70
     2
  9
$LUPREC
 70
     2
  9
$SKETCHINC
 40
1.0
  9
$FILLETRAD
 40
0.0
  9
$AUNITS
 70
     0
  9
$AUPREC
 70
     4
  9
$MENU
  1
acad
  9
$ELEVATION
 40
0.0
  9
$PELEVATION
 40
0.0
  9
$THICKNESS
 40
0.0
  9
$LIMCHECK
 70
     0
  9
$CHAMFERA
 40
0.0
  9
$CHAMFERB
 40
0.0
  9
$CHAMFERC
 40
0.0
  9
$CHAMFERD
 40
0.0
  9
$SKPOLY
 70
     0
  9
$TDCREATE
 40
2449527.571155092
  9
$TDUCREATE
 40
2449527.529488425
  9
$TDUPDATE
 40
2452498.559093171
  9
$TDUUPDATE
 40
2452498.517426505
  9
$TDINDWG
 40
0.3720132986
  9
$TDUSRTIMER
 40
0.3720132986
  9
$USRTIMER
 70
     1
  9
$ANGBASE
 50
0.0
  9
$ANGDIR
 70
     0
  9
$PDMODE
 70
     0
  9
$PDSIZE
 40
0.0
  9
$PLINEWID
 40
0.0
  9
$SPLFRAME
 70
     0
  9
$SPLINETYPE
 70
     6
  9
$SPLINESEGS
 70
     8
  9
$HANDSEED
  5
16A
  9
$SURFTAB1
 70
    18
  9
$SURFTAB2
 70
    18
  9
$SURFTYPE
 70
     6
  9
$SURFU
 70
    18
  9
$SURFV
 70
    18
  9
$UCSBASE
  2

  9
$UCSNAME
  2

  9
$UCSORG
 10
0.0
 20
0.0
 30
0.0
  9
$UCSXDIR
 10
1.0
 20
0.0
 30
0.0
  9
$UCSYDIR
 10
0.0
 20
1.0
 30
0.0
  9
$UCSORTHOREF
  2

  9
$UCSORTHOVIEW
 70
     0
  9
$UCSORGTOP
 10
0.0
 20
0.0
 30
0.0
  9
$UCSORGBOTTOM
 10
0.0
 20
0.0
 30
0.0
  9
$UCSORGLEFT
 10
0.0
 20
0.0
 30
0.0
  9
$UCSORGRIGHT
 10
0.0
 20
0.0
 30
0.0
  9
$UCSORGFRONT
 10
0.0
 20
0.0
 30
0.0
  9
$UCSORGBACK
 10
0.0
 20
0.0
 30
0.0
  9
$PUCSBASE
  2

  9
$PUCSNAME
  2

  9
$PUCSORG
 10
0.0
 20
0.0
 30
0.0
  9
$PUCSXDIR
 10
1.0
 20
0.0
 30
0.0
  9
$PUCSYDIR
 10
0.0
 20
1.0
 30
0.0
  9
$PUCSORTHOREF
  2

  9
$PUCSORTHOVIEW
 70
     0
  9
$PUCSORGTOP
 10
0.0
 20
0.0
 30
0.0
  9
$PUCSORGBOTTOM
 10
0.0
 20
0.0
 30
0.0
  9
$PUCSORGLEFT
 10
0.0
 20
0.0
 30
0.0
  9
$PUCSORGRIGHT
 10
0.0
 20
0.0
 30
0.0
  9
$PUCSORGFRONT
 10
0.0
 20
0.0
 30
0.0
  9
$PUCSORGBACK
 10
0.0
 20
0.0
 30
0.0
  9
$USERI1
 70
     0
  9
$USERI2
 70
     0
  9
$USERI3
 70
     0
  9
$USERI4
 70
     0
  9
$USERI5
 70
     0
  9
$USERR1
 40
0.0
  9
$USERR2
 40
0.0
  9
$USERR3
 40
0.0
  9
$USERR4
 40
0.0
  9
$USERR5
 40
0.0
  9
$WORLDVIEW
 70
     1
  9
$SHADEDGE
 70
     3
  9
$SHADEDIF
 70
    70
  9
$TILEMODE
 70
     1
  9
$MAXACTVP
 70
    16
  9
$PINSBASE
 10
0.0
 20
0.0
 30
0.0
  9
$PLIMCHECK
 70
     0
  9
$PEXTMIN
 10
1.614583349603368
 20
1.129749872553066
 30
0.0
  9
$PEXTMAX
 10
14.5312501464303
 20
10.1677488529776
 30
0.0
  9
$PLIMMIN
 10
-0.1979161059762549
 20
-0.1979166691697489
  9
$PLIMMAX
 10
16.34375024029589
 20
11.49541603298637
  9
$UNITMODE
 70
     0
  9
$VISRETAIN
 70
     0
  9
$PLINEGEN
 70
     0
  9
$PSLTSCALE
 70
     1
  9
$TREEDEPTH
 70
  3020
  9
$CMLSTYLE
  2
Standard
  9
$CMLJUST
 70
     0
  9
$CMLSCALE
 40
1.0
  9
$PROXYGRAPHICS
 70
     1
  9
$MEASUREMENT
 70
     0
  9
$CELWEIGHT
370
    -1
  9
$ENDCAPS
280
     0
  9
$JOINSTYLE
280
     0
  9
$LWDISPLAY
290
     0
  9
$INSUNITS
 70
     0
  9
$HYPERLINKBASE
  1

  9
$STYLESHEET
  1

  9
$XEDIT
290
     1
  9
$CEPSNTYPE
380
     0
  9
$PSTYLEMODE
290
     1
  9
$FINGERPRINTGUID
  2
{01754E04-0562-49B3-B316-F5AE95684B67}
  9
$VERSIONGUID
  2
{627E2962-AD1D-11D6-AAC6-0010A4A25215}
  9
$EXTNAMES
290
     1
  9
$PSVPSCALE
 40
0.0
  9
$OLESTARTUP
290
     0
  0
ENDSEC
  0
SECTION
  2
CLASSES
  0
CLASS
  1
ACDBDICTIONARYWDFLT
  2
AcDbDictionaryWithDefault
  3
AutoCAD 2000
 90
        0
280
     1
281
     0
  0
CLASS
  1
ACDBPLACEHOLDER
  2
AcDbPlaceHolder
  3
AutoCAD 2000
 90
        0
280
     1
281
     0
  0
CLASS
  1
LAYOUT
  2
AcDbLayout
  3
AutoCAD 2000
 90
        0
280
     1
281
     0
  0
CLASS
  1
LONG_TRANSACTION
  2
AcDbLongTransaction
  3
AutoCAD 2000
 90
    32768
280
     1
281
     0
  0
CLASS
  1
LWPOLYLINE
  2
AcDbPolyline
  3
AutoCAD 2000
 90
    32768
280
     0
281
     1
  0
CLASS
  1
HATCH
  2
AcDbHatch
  3
AutoCAD 2000
 90
    32768
280
     0
281
     1
  0
CLASS
  1
XRECORD
  2
AcDbXrecord
  3
AutoCAD 2000
 90
    32768
280
     0
281
     0
  0
CLASS
  1
LONG_TRANSACTION
  2
AcDbLongTransaction
  3
AutoCAD 2000
 90
    32768
280
     0
281
     0
  0
CLASS
  1
LWPOLYLINE
  2
AcDbPolyline
  3
AutoCAD 2000
 90
    32768
280
     0
281
     1
  0
CLASS
  1
HATCH
  2
AcDbHatch
  3
AutoCAD 2000
 90
    32768
280
     0
281
     1
  0
CLASS
  1
XRECORD
  2
AcDbXrecord
  3
AutoCAD 2000
 90
    32768
280
     0
281
     0
  0
ENDSEC
  0
SECTION
  2
TABLES
  0
TABLE
  2
VPORT
  5
1C
330
0
100
AcDbSymbolTable
 70
     3
  0
VPORT
  5
169
330
1C
100
AcDbSymbolTableRecord
100
AcDbViewportTableRecord
  2
*Active
 70
     0
 10
0.0
 20
0.0
 11
1.0
 21
1.0
 12
56.58631117178322
 22
9.951677927817286
 13
0.0
 23
0.0
 14
5.0
 24
5.0
 15
10.0
 25
10.0
 16
0.0
 26
0.0
 36
1.0
 17
0.0
 27
0.0
 37
0.0
 40
323.3112903428841
 41
1.760948905109489
 42
50.0
 43
0.0
 44
0.0
 50
0.0
 51
0.0
 71
     0
 72
   100
 73
     1
 74
     1
 75
     0
 76
     0
 77
     0
 78
     0
281
     0
 65
     1
110
0.0
120
0.0
130
0.0
111
1.0
121
0.0
131
0.0
112
0.0
122
1.0
132
0.0
 79
     0
146
0.0
  0
ENDTAB
  0
TABLE
  2
LTYPE
  5
13
330
0
100
AcDbSymbolTable
 70
     3
  0
LTYPE
  5
14
330
13
100
AcDbSymbolTableRecord
100
AcDbLinetypeTableRecord
  2
ByBlock
 70
     0
  3

 72
    65
 73
     0
 40
0.0
  0
LTYPE
  5
17
330
13
100
AcDbSymbolTableRecord
100
AcDbLinetypeTableRecord
  2
ByLayer
 70
     0
  3

 72
    65
 73
     0
 40
0.0
  0
LTYPE
  5
8
330
13
100
AcDbSymbolTableRecord
100
AcDbLinetypeTableRecord
  2
CONTINUOUS
 70
     0
  3
Solid line
 72
    65
 73
     0
 40
0.0
  0
LTYPE
  5
53
330
13
100
AcDbSymbolTableRecord
100
AcDbLinetypeTableRecord
  2
CENTER2
 70
     0
  3
___ _ ___ _ ___ _ ___ _ ___ _ ___ _ ___ _ ___ _
 72
    65
 73
     4
 40
28.57499999999999
 49
19.05
 74
     0
 49
-3.174999999999999
 74
     0
 49
3.174999999999999
 74
     0
 49
-3.174999999999999
 74
     0
  0
LTYPE
  5
50
330
13
100
AcDbSymbolTableRecord
100
AcDbLinetypeTableRecord
  2
HIDDEN
 70
     0
  3
__ __ __ __ __ __ __ __ __ __ __ __ __ __ __ __
 72
    65
 73
     2
 40
9.524999999999998
 49
6.349999999999999
 74
     0
 49
-3.174999999999999
 74
     0
  0
ENDTAB
  0
TABLE
  2
LAYER
  5
10
330
0
100
AcDbSymbolTable
 70
    11
  0
LAYER
  5
7
330
10
100
AcDbSymbolTableRecord
100
AcDbLayerTableRecord
  2
0
 70
     0
 62
     7
  6
CONTINUOUS
370
    -3
390
128
  0
LAYER
  5
2E
330
10
100
AcDbSymbolTableRecord
100
AcDbLayerTableRecord
  2
DIMS
 70
     0
 62
     1
  6
CONTINUOUS
370
    -3
390
128
  0
LAYER
  5
4C
330
10
100
AcDbSymbolTableRecord
100
AcDbLayerTableRecord
  2
ANCON-DSD
 70
     0
 62
     3
  6
CONTINUOUS
370
    -3
390
128
  0
LAYER
  5
37
330
10
100
AcDbSymbolTableRecord
100
AcDbLayerTableRecord
  2
DEFPOINTS
 70
     0
 62
     7
  6
CONTINUOUS
290
     0
370
    -3
390
128
  0
LAYER
  5
63
330
10
100
AcDbSymbolTableRecord
100
AcDbLayerTableRecord
  2
CONCRETE
 70
     0
 62
     2
  6
CONTINUOUS
370
    -3
390
128
  0
LAYER
  5
A4
330
10
100
AcDbSymbolTableRecord
100
AcDbLayerTableRecord
  2
ORIGIN
 70
     0
 62
     7
  6
CONTINUOUS
370
    -3
390
128
  0
LAYER
  5
4F
330
10
100
AcDbSymbolTableRecord
100
AcDbLayerTableRecord
  2
20MM-JOINT
 70
     0
 62
     7
  6
CONTINUOUS
370
    -3
390
128
  0
LAYER
  5
27
330
10
100
AcDbSymbolTableRecord
100
AcDbLayerTableRecord
  2
ANCON-TEXT
 70
     0
 62
     6
  6
CONTINUOUS
370
    -3
390
128
  0
LAYER
  5
72
330
10
100
AcDbSymbolTableRecord
100
AcDbLayerTableRecord
  2
20MM-DIMS
 70
     0
 62
     1
  6
CONTINUOUS
370
    -3
390
128
  0
LAYER
  5
11F
330
10
100
AcDbSymbolTableRecord
100
AcDbLayerTableRecord
  2
SPECP
 70
     0
 62
     6
  6
CONTINUOUS
370
    -3
390
128
  0
LAYER
  5
67
330
10
100
AcDbSymbolTableRecord
100
AcDbLayerTableRecord
  2
SPECD
 70
     0
 62
     6
  6
CONTINUOUS
370
    -3
390
128
  0
ENDTAB
  0
TABLE
  2
STYLE
  5
11
330
0
100
AcDbSymbolTable
 70
     2
  0
STYLE
  5
12
330
11
100
AcDbSymbolTableRecord
100
AcDbTextStyleTableRecord
  2
STANDARD
 70
     0
 40
0.0
 41
1.0
 50
0.0
 71
     0
 42
6.0
  3
txt.shx
  4

  0
STYLE
  5
28
330
11
100
AcDbSymbolTableRecord
100
AcDbTextStyleTableRecord
  2
ROMANS
 70
     0
 40
0.0
 41
1.0
 50
0.0
 71
     0
 42
5.0
  3
romans
  4

  0
ENDTAB
  0
TABLE
  2
VIEW
  5
1A
330
0
100
AcDbSymbolTable
 70
     0
  0
ENDTAB
  0
TABLE
  2
UCS
  5
1B
330
0
100
AcDbSymbolTable
 70
     0
  0
ENDTAB
  0
TABLE
  2
APPID
  5
1E
330
0
100
AcDbSymbolTable
 70
     1
  0
APPID
  5
1F
330
1E
100
AcDbSymbolTableRecord
100
AcDbRegAppTableRecord
  2
ACAD
 70
     0
  0
ENDTAB
  0
TABLE
  2
DIMSTYLE
  5
20
330
0
100
AcDbSymbolTable
 70
     1
100
AcDbDimStyleTable
 71
     0
  0
DIMSTYLE
105
2A
102
{ACAD_REACTORS
330
C2
330
B3
330
A5
330
71
330
94
330
D7
330
86
330
3E
330
2D
330
108
102
}
330
20
100
AcDbSymbolTableRecord
100
AcDbDimStyleTableRecord
  2
1-2
 70
     0
 40
0.0
 41
4.0
 42
3.0
 43
10.0
 44
3.0
 46
1.25
 73
     0
 74
     0
 77
     1
 78
    12
140
3.0
141
-3.0
143
0.039
145
1.5
146
0.75
147
1.5
271
     2
272
     2
279
     2
284
    12
285
    12
286
    12
340
12
  0
ENDTAB
  0
TABLE
  2
BLOCK_RECORD
  5
1
330
0
100
AcDbSymbolTable
 70
    11
  0
BLOCK_RECORD
  5
2
102
{ACAD_XDICTIONARY
360
3
102
}
330
1
100
AcDbSymbolTableRecord
100
AcDbBlockTableRecord
  2
*Model_Space
340
12B
  0
BLOCK_RECORD
  5
A
102
{ACAD_XDICTIONARY
360
B
102
}
330
1
100
AcDbSymbolTableRecord
100
AcDbBlockTableRecord
  2
*Paper_Space
340
12C
  0
BLOCK_RECORD
  5
C3
330
1
100
AcDbSymbolTableRecord
100
AcDbBlockTableRecord
  2
*D0
340
0
  0
BLOCK_RECORD
  5
B4
330
1
100
AcDbSymbolTableRecord
100
AcDbBlockTableRecord
  2
*D1
340
0
  0
BLOCK_RECORD
  5
A6
330
1
100
AcDbSymbolTableRecord
100
AcDbBlockTableRecord
  2
*D2
340
0
  0
BLOCK_RECORD
  5
109
330
1
100
AcDbSymbolTableRecord
100
AcDbBlockTableRecord
  2
*D3
340
0
  0
BLOCK_RECORD
  5
D8
330
1
100
AcDbSymbolTableRecord
100
AcDbBlockTableRecord
  2
*D4
340
0
  0
BLOCK_RECORD
  5
87
330
1
100
AcDbSymbolTableRecord
100
AcDbBlockTableRecord
  2
*D5
340
0
  0
BLOCK_RECORD
  5
3F
330
1
100
AcDbSymbolTableRecord
100
AcDbBlockTableRecord
  2
*D6
340
0
  0
BLOCK_RECORD
  5
2F
330
1
100
AcDbSymbolTableRecord
100
AcDbBlockTableRecord
  2
*D7
340
0
  0
BLOCK_RECORD
  5
73
330
1
100
AcDbSymbolTableRecord
100
AcDbBlockTableRecord
  2
*D8
340
0
  0
BLOCK_RECORD
  5
95
330
1
100
AcDbSymbolTableRecord
100
AcDbBlockTableRecord
  2
*D9
340
0
  0
BLOCK_RECORD
  5
65
330
1
100
AcDbSymbolTableRecord
100
AcDbBlockTableRecord
  2
A$C6BE937E7
340
0
  0
ENDTAB
  0
ENDSEC
  0
SECTION
  2
BLOCKS
  0
BLOCK
  5
6
330
2
100
AcDbEntity
  8
0
100
AcDbBlockBegin
  2
*Model_Space
 70
     0
 10
0.0
 20
0.0
 30
0.0
  3
*Model_Space
  1

  0
ENDBLK
  5
9
330
2
100
AcDbEntity
  8
0
100
AcDbBlockEnd
  0
BLOCK
  5
E
330
A
100
AcDbEntity
 67
     1
  8
0
100
AcDbBlockBegin
  2
*Paper_Space
 70
     0
 10
0.0
 20
0.0
 30
0.0
  3
*Paper_Space
  1

  0
ENDBLK
  5
F
330
A
100
AcDbEntity
 67
     1
  8
0
100
AcDbBlockEnd
  0
BLOCK
  5
CD
330
C3
100
AcDbEntity
  8
0
100
AcDbBlockBegin
  2
*D0
 70
     1
 10
0.0
 20
0.0
 30
0.0
  3
*D0
  1

  0
LINE
  5
C4
330
C3
100
AcDbEntity
  8
0
  6
ByBlock
 62
     0
100
AcDbLine
 10
-81.00000000000006
 20
-88.0
 30
0.0
 11
-81.00000000000006
 21
-99.23972621613948
 31
0.0
  0
LINE
  5
C5
330
C3
100
AcDbEntity
  8
0
  6
ByBlock
 62
     0
100
AcDbLine
 10
-51.00000000000034
 20
-48.00000000000001
 30
0.0
 11
-51.00000000000034
 21
-99.23972621613948
 31
0.0
  0
LINE
  5
C6
330
C3
100
AcDbEntity
  8
0
  6
ByBlock
 62
     0
100
AcDbLine
 10
-77.00000000000006
 20
-96.23972621613949
 30
0.0
 11
-55.00000000000034
 21
-96.23972621613949
 31
0.0
  0
SOLID
  5
C7
330
C3
100
AcDbEntity
  8
0
  6
ByBlock
 62
     0
100
AcDbTrace
 10
-77.00000000000006
 20
-95.57305954947281
 30
0.0
 11
-77.00000000000006
 21
-96.90639288280616
 31
0.0
 12
-81.00000000000006
 22
-96.23972621613949
 32
0.0
 13
-81.00000000000006
 23
-96.23972621613949
 33
0.0
  0
SOLID
  5
C8
330
C3
100
AcDbEntity
  8
0
  6
ByBlock
 62
     0
100
AcDbTrace
 10
-55.00000000000034
 20
-95.57305954947281
 30
0.0
 11
-55.00000000000034
 21
-96.90639288280616
 31
0.0
 12
-51.00000000000034
 22
-96.23972621613949
 32
0.0
 13
-51.00000000000034
 23
-96.23972621613949
 33
0.0
  0
TEXT
  5
C9
330
C3
100
AcDbEntity
  8
0
  6
ByBlock
 62
     0
100
AcDbText
 10
-68.85714285714306
 20
-94.73972621613949
 30
0.0
 40
3.0
  1
30
  7
ROMANS
 72
     1
 11
-66.0000000000002
 21
-93.23972621613949
 31
0.0
100
AcDbText
 73
     2
  0
POINT
  5
CA
330
C3
100
AcDbEntity
  8
DEFPOINTS
  6
ByBlock
 62
     0
100
AcDbPoint
 10
-81.00000000000006
 20
-85.0
 30
0.0
  0
POINT
  5
CB
330
C3
100
AcDbEntity
  8
DEFPOINTS
  6
ByBlock
 62
     0
100
AcDbPoint
 10
-51.00000000000034
 20
-45.00000000000001
 30
0.0
  0
POINT
  5
CC
330
C3
100
AcDbEntity
  8
DEFPOINTS
  6
ByBlock
 62
     0
100
AcDbPoint
 10
-51.00000000000034
 20
-96.23972621613949
 30
0.0
  0
ENDBLK
  5
CE
330
C3
100
AcDbEntity
  8
0
100
AcDbBlockEnd
  0
BLOCK
  5
BE
330
B4
100
AcDbEntity
  8
0
100
AcDbBlockBegin
  2
*D1
 70
     1
 10
0.0
 20
0.0
 30
0.0
  3
*D1
  1

  0
LINE
  5
B5
330
B4
100
AcDbEntity
  8
0
  6
ByBlock
 62
     0
100
AcDbLine
 10
-51.00000000000034
 20
-48.00000000000001
 30
0.0
 11
-51.00000000000034
 21
-99.23972621613948
 31
0.0
  0
LINE
  5
B6
330
B4
100
AcDbEntity
  8
0
  6
ByBlock
 62
     0
100
AcDbLine
 10
-25.00000000000005
 20
-17.99999999999988
 30
0.0
 11
-25.00000000000005
 21
-99.23972621613948
 31
0.0
  0
LINE
  5
B7
330
B4
100
AcDbEntity
  8
0
  6
ByBlock
 62
     0
100
AcDbLine
 10
-47.00000000000033
 20
-96.23972621613949
 30
0.0
 11
-29.00000000000005
 21
-96.23972621613949
 31
0.0
  0
SOLID
  5
B8
330
B4
100
AcDbEntity
  8
0
  6
ByBlock
 62
     0
100
AcDbTrace
 10
-47.00000000000033
 20
-95.57305954947281
 30
0.0
 11
-47.00000000000033
 21
-96.90639288280616
 31
0.0
 12
-51.00000000000034
 22
-96.23972621613949
 32
0.0
 13
-51.00000000000034
 23
-96.23972621613949
 33
0.0
  0
SOLID
  5
B9
330
B4
100
AcDbEntity
  8
0
  6
ByBlock
 62
     0
100
AcDbTrace
 10
-29.00000000000005
 20
-95.57305954947281
 30
0.0
 11
-29.00000000000005
 21
-96.90639288280616
 31
0.0
 12
-25.00000000000005
 22
-96.23972621613949
 32
0.0
 13
-25.00000000000005
 23
-96.23972621613949
 33
0.0
  0
TEXT
  5
BA
330
B4
100
AcDbEntity
  8
0
  6
ByBlock
 62
     0
100
AcDbText
 10
-40.85714285714305
 20
-94.73972621613949
 30
0.0
 40
3.0
  1
26
  7
ROMANS
 72
     1
 11
-38.0000000000002
 21
-93.23972621613949
 31
0.0
100
AcDbText
 73
     2
  0
POINT
  5
BB
330
B4
100
AcDbEntity
  8
DEFPOINTS
  6
ByBlock
 62
     0
100
AcDbPoint
 10
-51.00000000000034
 20
-45.00000000000001
 30
0.0
  0
POINT
  5
BC
330
B4
100
AcDbEntity
  8
DEFPOINTS
  6
ByBlock
 62
     0
100
AcDbPoint
 10
-25.00000000000005
 20
-14.99999999999988
 30
0.0
  0
POINT
  5
BD
330
B4
100
AcDbEntity
  8
DEFPOINTS
  6
ByBlock
 62
     0
100
AcDbPoint
 10
-25.00000000000005
 20
-96.23972621613949
 30
0.0
  0
ENDBLK
  5
BF
330
B4
100
AcDbEntity
  8
0
100
AcDbBlockEnd
  0
BLOCK
  5
B1
330
A6
100
AcDbEntity
  8
0
100
AcDbBlockBegin
  2
*D2
 70
     1
 10
0.0
 20
0.0
 30
0.0
  3
*D2
  1

  0
LINE
  5
A7
330
A6
100
AcDbEntity
  8
0
  6
ByBlock
 62
     0
100
AcDbLine
 10
-25.00000000000005
 20
-17.99999999999988
 30
0.0
 11
-25.00000000000005
 21
-99.23972621613948
 31
0.0
  0
LINE
  5
A8
330
A6
100
AcDbEntity
  8
0
  6
ByBlock
 62
     0
100
AcDbLine
 10
-19.99999999999996
 20
-17.99999999999988
 30
0.0
 11
-19.99999999999996
 21
-99.23972621613948
 31
0.0
  0
LINE
  5
A9
330
A6
100
AcDbEntity
  8
0
  6
ByBlock
 62
     0
100
AcDbLine
 10
-29.00000000000005
 20
-96.23972621613949
 30
0.0
 11
-33.00000000000006
 21
-96.23972621613949
 31
0.0
  0
LINE
  5
AA
330
A6
100
AcDbEntity
  8
0
  6
ByBlock
 62
     0
100
AcDbLine
 10
-15.99999999999996
 20
-96.23972621613949
 30
0.0
 11
-11.99999999999996
 21
-96.23972621613949
 31
0.0
  0
SOLID
  5
AB
330
A6
100
AcDbEntity
  8
0
  6
ByBlock
 62
     0
100
AcDbTrace
 10
-29.00000000000005
 20
-95.57305954947281
 30
0.0
 11
-29.00000000000005
 21
-96.90639288280616
 31
0.0
 12
-25.00000000000005
 22
-96.23972621613949
 32
0.0
 13
-25.00000000000005
 23
-96.23972621613949
 33
0.0
  0
SOLID
  5
AC
330
A6
100
AcDbEntity
  8
0
  6
ByBlock
 62
     0
100
AcDbTrace
 10
-15.99999999999996
 20
-95.57305954947281
 30
0.0
 11
-15.99999999999996
 21
-96.90639288280616
 31
0.0
 12
-19.99999999999996
 22
-96.23972621613949
 32
0.0
 13
-19.99999999999996
 23
-96.23972621613949
 33
0.0
  0
TEXT
  5
AD
330
A6
100
AcDbEntity
  8
0
  6
ByBlock
 62
     0
100
AcDbText
 10
-15.44462446026098
 20
-94.73972621613949
 30
0.0
 40
3.0
  1
5
  7
ROMANS
 72
     1
 11
-14.01605303168956
 21
-93.23972621613949
 31
0.0
100
AcDbText
 73
     2
  0
POINT
  5
AE
330
A6
100
AcDbEntity
  8
DEFPOINTS
  6
ByBlock
 62
     0
100
AcDbPoint
 10
-25.00000000000005
 20
-14.99999999999988
 30
0.0
  0
POINT
  5
AF
330
A6
100
AcDbEntity
  8
DEFPOINTS
  6
ByBlock
 62
     0
100
AcDbPoint
 10
-19.99999999999996
 20
-14.99999999999988
 30
0.0
  0
POINT
  5
B0
330
A6
100
AcDbEntity
  8
DEFPOINTS
  6
ByBlock
 62
     0
100
AcDbPoint
 10
-19.99999999999996
 20
-96.23972621613949
 30
0.0
  0
ENDBLK
  5
B2
330
A6
100
AcDbEntity
  8
0
100
AcDbBlockEnd
  0
BLOCK
  5
112
330
109
100
AcDbEntity
  8
0
100
AcDbBlockBegin
  2
*D3
 70
     1
 10
0.0
 20
0.0
 30
0.0
  3
*D3
  1

  0
LINE
  5
10A
330
109
100
AcDbEntity
  8
0
  6
ByBlock
 62
     0
100
AcDbLine
 10
163.0
 20
-24.99999999999994
 30
0.0
 11
178.8635534650485
 21
-24.99999999999994
 31
0.0
  0
LINE
  5
10B
330
109
100
AcDbEntity
  8
0
  6
ByBlock
 62
     0
100
AcDbLine
 10
163.0
 20
25.00000000000005
 30
0.0
 11
178.8635534650485
 21
25.00000000000005
 31
0.0
  0
LINE
  5
10C
330
109
100
AcDbEntity
  8
0
  6
ByBlock
 62
     0
100
AcDbLine
 10
175.8635534650485
 20
-20.99999999999994
 30
0.0
 11
175.8635534650485
 21
21.00000000000005
 31
0.0
  0
SOLID
  5
10D
330
109
100
AcDbEntity
  8
0
  6
ByBlock
 62
     0
100
AcDbTrace
 10
175.1968867983818
 20
-20.99999999999994
 30
0.0
 11
176.5302201317151
 21
-20.99999999999994
 31
0.0
 12
175.8635534650485
 22
-24.99999999999994
 32
0.0
 13
175.8635534650485
 23
-24.99999999999994
 33
0.0
  0
SOLID
  5
10E
330
109
100
AcDbEntity
  8
0
  6
ByBlock
 62
     0
100
AcDbTrace
 10
175.1968867983818
 20
21.00000000000005
 30
0.0
 11
176.5302201317151
 21
21.00000000000005
 31
0.0
 12
175.8635534650485
 22
25.00000000000005
 32
0.0
 13
175.8635534650485
 23
25.00000000000005
 33
0.0
  0
POINT
  5
10F
330
109
100
AcDbEntity
  8
DEFPOINTS
  6
ByBlock
 62
     0
100
AcDbPoint
 10
160.0
 20
-24.99999999999994
 30
0.0
  0
POINT
  5
110
330
109
100
AcDbEntity
  8
DEFPOINTS
  6
ByBlock
 62
     0
100
AcDbPoint
 10
160.0
 20
25.00000000000005
 30
0.0
  0
POINT
  5
111
330
109
100
AcDbEntity
  8
DEFPOINTS
  6
ByBlock
 62
     0
100
AcDbPoint
 10
175.8635534650485
 20
25.00000000000005
 30
0.0
  0
ENDBLK
  5
113
330
109
100
AcDbEntity
  8
0
100
AcDbBlockEnd
  0
BLOCK
  5
E2
330
D8
100
AcDbEntity
  8
0
100
AcDbBlockBegin
  2
*D4
 70
     1
 10
0.0
 20
0.0
 30
0.0
  3
*D4
  1

  0
LINE
  5
D9
330
D8
100
AcDbEntity
  8
0
  6
ByBlock
 62
     0
100
AcDbLine
 10
3.000000000000116
 20
-40.49999999999999
 30
0.0
 11
3.000000000000116
 21
-87.2435992519639
 31
0.0
  0
LINE
  5
DA
330
D8
100
AcDbEntity
  8
0
  6
ByBlock
 62
     0
100
AcDbLine
 10
32.99999999999985
 20
-57.99999999999999
 30
0.0
 11
32.99999999999985
 21
-87.2435992519639
 31
0.0
  0
LINE
  5
DB
330
D8
100
AcDbEntity
  8
0
  6
ByBlock
 62
     0
100
AcDbLine
 10
7.000000000000117
 20
-84.24359925196389
 30
0.0
 11
28.99999999999985
 21
-84.24359925196389
 31
0.0
  0
SOLID
  5
DC
330
D8
100
AcDbEntity
  8
0
  6
ByBlock
 62
     0
100
AcDbTrace
 10
7.000000000000117
 20
-83.57693258529723
 30
0.0
 11
7.000000000000117
 21
-84.91026591863057
 31
0.0
 12
3.000000000000116
 22
-84.24359925196389
 32
0.0
 13
3.000000000000116
 23
-84.24359925196389
 33
0.0
  0
SOLID
  5
DD
330
D8
100
AcDbEntity
  8
0
  6
ByBlock
 62
     0
100
AcDbTrace
 10
28.99999999999985
 20
-83.57693258529723
 30
0.0
 11
28.99999999999985
 21
-84.91026591863057
 31
0.0
 12
32.99999999999985
 22
-84.24359925196389
 32
0.0
 13
32.99999999999985
 23
-84.24359925196389
 33
0.0
  0
TEXT
  5
DE
330
D8
100
AcDbEntity
  8
0
  6
ByBlock
 62
     0
100
AcDbText
 10
15.14285714285712
 20
-82.74359925196391
 30
0.0
 40
3.0
  1
30
  7
ROMANS
 72
     1
 11
17.99999999999998
 21
-81.2435992519639
 31
0.0
100
AcDbText
 73
     2
  0
POINT
  5
DF
330
D8
100
AcDbEntity
  8
DEFPOINTS
  6
ByBlock
 62
     0
100
AcDbPoint
 10
3.000000000000116
 20
-37.5
 30
0.0
  0
POINT
  5
E0
330
D8
100
AcDbEntity
  8
DEFPOINTS
  6
ByBlock
 62
     0
100
AcDbPoint
 10
32.99999999999985
 20
-55.0
 30
0.0
  0
POINT
  5
E1
330
D8
100
AcDbEntity
  8
DEFPOINTS
  6
ByBlock
 62
     0
100
AcDbPoint
 10
32.99999999999985
 20
-84.24359925196389
 30
0.0
  0
ENDBLK
  5
E3
330
D8
100
AcDbEntity
  8
0
100
AcDbBlockEnd
  0
BLOCK
  5
92
330
87
100
AcDbEntity
  8
0
100
AcDbBlockBegin
  2
*D5
 70
     1
 10
0.0
 20
0.0
 30
0.0
  3
*D5
  1

  0
LINE
  5
88
330
87
100
AcDbEntity
  8
0
  6
ByBlock
 62
     0
100
AcDbLine
 10
3.000000000000116
 20
-40.49999999999999
 30
0.0
 11
3.000000000000116
 21
-87.2435992519639
 31
0.0
  0
LINE
  5
89
330
87
100
AcDbEntity
  8
0
  6
ByBlock
 62
     0
100
AcDbLine
 10
0.0000000000001168
 20
-40.49999999999999
 30
0.0
 11
0.0000000000001168
 21
-87.2435992519639
 31
0.0
  0
LINE
  5
8A
330
87
100
AcDbEntity
  8
0
  6
ByBlock
 62
     0
100
AcDbLine
 10
7.000000000000117
 20
-84.24359925196389
 30
0.0
 11
11.00000000000011
 21
-84.24359925196389
 31
0.0
  0
LINE
  5
8B
330
87
100
AcDbEntity
  8
0
  6
ByBlock
 62
     0
100
AcDbLine
 10
-3.999999999999883
 20
-84.24359925196389
 30
0.0
 11
-7.999999999999882
 21
-84.24359925196389
 31
0.0
  0
SOLID
  5
8C
330
87
100
AcDbEntity
  8
0
  6
ByBlock
 62
     0
100
AcDbTrace
 10
7.000000000000117
 20
-83.57693258529723
 30
0.0
 11
7.000000000000117
 21
-84.91026591863057
 31
0.0
 12
3.000000000000116
 22
-84.24359925196389
 32
0.0
 13
3.000000000000116
 23
-84.24359925196389
 33
0.0
  0
SOLID
  5
8D
330
87
100
AcDbEntity
  8
0
  6
ByBlock
 62
     0
100
AcDbTrace
 10
-3.999999999999883
 20
-83.57693258529723
 30
0.0
 11
-3.999999999999883
 21
-84.91026591863057
 31
0.0
 12
0.0000000000001168
 22
-84.24359925196389
 32
0.0
 13
0.0000000000001168
 23
-84.24359925196389
 33
0.0
  0
TEXT
  5
8E
330
87
100
AcDbEntity
  8
0
  6
ByBlock
 62
     0
100
AcDbText
 10
-7.422560950870416
 20
-82.85575087496374
 30
0.0
 40
3.0
  1
3
  7
ROMANS
 72
     1
 11
-5.993989522298988
 21
-81.35575087496375
 31
0.0
100
AcDbText
 73
     2
  0
POINT
  5
8F
330
87
100
AcDbEntity
  8
DEFPOINTS
  6
ByBlock
 62
     0
100
AcDbPoint
 10
3.000000000000116
 20
-37.5
 30
0.0
  0
POINT
  5
90
330
87
100
AcDbEntity
  8
DEFPOINTS
  6
ByBlock
 62
     0
100
AcDbPoint
 10
0.0000000000001168
 20
-37.5
 30
0.0
  0
POINT
  5
91
330
87
100
AcDbEntity
  8
DEFPOINTS
  6
ByBlock
 62
     0
100
AcDbPoint
 10
0.0000000000001168
 20
-84.24359925196389
 30
0.0
  0
ENDBLK
  5
93
330
87
100
AcDbEntity
  8
0
100
AcDbBlockEnd
  0
BLOCK
  5
49
330
3F
100
AcDbEntity
  8
0
100
AcDbBlockBegin
  2
*D6
 70
     1
 10
0.0
 20
0.0
 30
0.0
  3
*D6
  1

  0
LINE
  5
40
330
3F
100
AcDbEntity
  8
0
  6
ByBlock
 62
     0
100
AcDbLine
 10
0.0000000000001168
 20
-40.49999999999999
 30
0.0
 11
0.0000000000001168
 21
-99.23972621613948
 31
0.0
  0
LINE
  5
41
330
3F
100
AcDbEntity
  8
0
  6
ByBlock
 62
     0
100
AcDbLine
 10
135.0000000000001
 20
-13.99999999999994
 30
0.0
 11
135.0000000000001
 21
-99.23972621613948
 31
0.0
  0
LINE
  5
42
330
3F
100
AcDbEntity
  8
0
  6
ByBlock
 62
     0
100
AcDbLine
 10
4.000000000000117
 20
-96.23972621613949
 30
0.0
 11
131.0000000000001
 21
-96.23972621613949
 31
0.0
  0
SOLID
  5
43
330
3F
100
AcDbEntity
  8
0
  6
ByBlock
 62
     0
100
AcDbTrace
 10
4.000000000000117
 20
-95.57305954947281
 30
0.0
 11
4.000000000000117
 21
-96.90639288280616
 31
0.0
 12
0.0000000000001168
 22
-96.23972621613949
 32
0.0
 13
0.0000000000001168
 23
-96.23972621613949
 33
0.0
  0
SOLID
  5
44
330
3F
100
AcDbEntity
  8
0
  6
ByBlock
 62
     0
100
AcDbTrace
 10
131.0000000000001
 20
-95.57305954947281
 30
0.0
 11
131.0000000000001
 21
-96.90639288280616
 31
0.0
 12
135.0000000000001
 22
-96.23972621613949
 32
0.0
 13
135.0000000000001
 23
-96.23972621613949
 33
0.0
  0
TEXT
  5
45
330
3F
100
AcDbEntity
  8
0
  6
ByBlock
 62
     0
100
AcDbText
 10
63.00000000000011
 20
-94.73972621613949
 30
0.0
 40
3.0
  1
135
  7
ROMANS
 72
     1
 11
67.50000000000011
 21
-93.23972621613949
 31
0.0
100
AcDbText
 73
     2
  0
POINT
  5
46
330
3F
100
AcDbEntity
  8
DEFPOINTS
  6
ByBlock
 62
     0
100
AcDbPoint
 10
0.0000000000001168
 20
-37.5
 30
0.0
  0
POINT
  5
47
330
3F
100
AcDbEntity
  8
DEFPOINTS
  6
ByBlock
 62
     0
100
AcDbPoint
 10
135.0000000000001
 20
-10.99999999999994
 30
0.0
  0
POINT
  5
48
330
3F
100
AcDbEntity
  8
DEFPOINTS
  6
ByBlock
 62
     0
100
AcDbPoint
 10
135.0000000000001
 20
-96.23972621613949
 30
0.0
  0
ENDBLK
  5
4A
330
3F
100
AcDbEntity
  8
0
100
AcDbBlockEnd
  0
BLOCK
  5
3C
330
2F
100
AcDbEntity
  8
0
100
AcDbBlockBegin
  2
*D7
 70
     1
 10
0.0
 20
0.0
 30
0.0
  3
*D7
  1

  0
LINE
  5
30
330
2F
100
AcDbEntity
  8
0
  6
ByBlock
 62
     0
100
AcDbLine
 10
0.0000000000001168
 20
-40.49999999999999
 30
0.0
 11
0.0000000000001168
 21
-111.2435992519638
 31
0.0
  0
LINE
  5
31
330
2F
100
AcDbEntity
  8
0
  6
ByBlock
 62
     0
100
AcDbLine
 10
155.0
 20
-27.99999999999994
 30
0.0
 11
155.0
 21
-111.2435992519638
 31
0.0
  0
LINE
  5
32
330
2F
100
AcDbEntity
  8
0
  6
ByBlock
 62
     0
100
AcDbLine
 10
4.000000000000117
 20
-108.2435992519638
 30
0.0
 11
151.0
 21
-108.2435992519638
 31
0.0
  0
SOLID
  5
33
330
2F
100
AcDbEntity
  8
0
  6
ByBlock
 62
     0
100
AcDbTrace
 10
4.000000000000117
 20
-107.5769325852972
 30
0.0
 11
4.000000000000117
 21
-108.9102659186305
 31
0.0
 12
0.0000000000001168
 22
-108.2435992519638
 32
0.0
 13
0.0000000000001168
 23
-108.2435992519638
 33
0.0
  0
SOLID
  5
34
330
2F
100
AcDbEntity
  8
0
  6
ByBlock
 62
     0
100
AcDbTrace
 10
151.0
 20
-107.5769325852972
 30
0.0
 11
151.0
 21
-108.9102659186305
 31
0.0
 12
155.0
 22
-108.2435992519638
 32
0.0
 13
155.0
 23
-108.2435992519638
 33
0.0
  0
TEXT
  5
35
330
2F
100
AcDbEntity
  8
0
  6
ByBlock
 62
     0
100
AcDbText
 10
73.00000000000007
 20
-106.7435992519639
 30
0.0
 40
3.0
  1
155
  7
ROMANS
 72
     1
 11
77.50000000000007
 21
-105.2435992519638
 31
0.0
100
AcDbText
 73
     2
  0
POINT
  5
36
330
2F
100
AcDbEntity
  8
DEFPOINTS
  6
ByBlock
 62
     0
100
AcDbPoint
 10
0.0000000000001168
 20
-37.5
 30
0.0
  0
POINT
  5
3A
330
2F
100
AcDbEntity
  8
DEFPOINTS
  6
ByBlock
 62
     0
100
AcDbPoint
 10
155.0
 20
-24.99999999999994
 30
0.0
  0
POINT
  5
3B
330
2F
100
AcDbEntity
  8
DEFPOINTS
  6
ByBlock
 62
     0
100
AcDbPoint
 10
155.0
 20
-108.2435992519638
 30
0.0
  0
ENDBLK
  5
3D
330
2F
100
AcDbEntity
  8
0
100
AcDbBlockEnd
  0
BLOCK
  5
7D
330
73
100
AcDbEntity
  8
0
100
AcDbBlockBegin
  2
*D8
 70
     1
 10
0.0
 20
0.0
 30
0.0
  3
*D8
  1

  0
LINE
  5
74
330
73
100
AcDbEntity
  8
0
  6
ByBlock
 62
     0
100
AcDbLine
 10
-170.0
 20
-9.999999999999886
 30
0.0
 11
-170.0
 21
-111.2435992519638
 31
0.0
  0
LINE
  5
75
330
73
100
AcDbEntity
  8
0
  6
ByBlock
 62
     0
100
AcDbLine
 10
-20.0
 20
-17.99999999999988
 30
0.0
 11
-20.0
 21
-111.2435992519638
 31
0.0
  0
LINE
  5
76
330
73
100
AcDbEntity
  8
0
  6
ByBlock
 62
     0
100
AcDbLine
 10
-166.0
 20
-108.2435992519638
 30
0.0
 11
-24.0
 21
-108.2435992519638
 31
0.0
  0
SOLID
  5
77
330
73
100
AcDbEntity
  8
0
  6
ByBlock
 62
     0
100
AcDbTrace
 10
-166.0
 20
-107.5769325852972
 30
0.0
 11
-166.0
 21
-108.9102659186305
 31
0.0
 12
-170.0
 22
-108.2435992519638
 32
0.0
 13
-170.0
 23
-108.2435992519638
 33
0.0
  0
SOLID
  5
78
330
73
100
AcDbEntity
  8
0
  6
ByBlock
 62
     0
100
AcDbTrace
 10
-24.0
 20
-107.5769325852972
 30
0.0
 11
-24.0
 21
-108.9102659186305
 31
0.0
 12
-20.0
 22
-108.2435992519638
 32
0.0
 13
-20.0
 23
-108.2435992519638
 33
0.0
  0
TEXT
  5
79
330
73
100
AcDbEntity
  8
0
  6
ByBlock
 62
     0
100
AcDbText
 10
-99.50000000000002
 20
-106.7435992519639
 30
0.0
 40
3.0
  1
150
  7
ROMANS
 72
     1
 11
-95.00000000000001
 21
-105.2435992519638
 31
0.0
100
AcDbText
 73
     2
  0
POINT
  5
7A
330
73
100
AcDbEntity
  8
DEFPOINTS
  6
ByBlock
 62
     0
100
AcDbPoint
 10
-170.0
 20
-6.999999999999886
 30
0.0
  0
POINT
  5
7B
330
73
100
AcDbEntity
  8
DEFPOINTS
  6
ByBlock
 62
     0
100
AcDbPoint
 10
-20.0
 20
-14.99999999999988
 30
0.0
  0
POINT
  5
7C
330
73
100
AcDbEntity
  8
DEFPOINTS
  6
ByBlock
 62
     0
100
AcDbPoint
 10
-20.0
 20
-108.2435992519638
 30
0.0
  0
ENDBLK
  5
7E
330
73
100
AcDbEntity
  8
0
100
AcDbBlockEnd
  0
BLOCK
  5
9F
330
95
100
AcDbEntity
  8
0
100
AcDbBlockBegin
  2
*D9
 70
     1
 10
0.0
 20
0.0
 30
0.0
  3
*D9
  1

  0
LINE
  5
96
330
95
100
AcDbEntity
  8
0
  6
ByBlock
 62
     0
100
AcDbLine
 10
-20.0
 20
-17.99999999999988
 30
0.0
 11
-20.0
 21
-111.2435992519638
 31
0.0
  0
LINE
  5
97
330
95
100
AcDbEntity
  8
0
  6
ByBlock
 62
     0
100
AcDbLine
 10
0.0000000000000343
 20
-33.00000000000003
 30
0.0
 11
0.0000000000000343
 21
-111.2435992519638
 31
0.0
  0
LINE
  5
98
330
95
100
AcDbEntity
  8
0
  6
ByBlock
 62
     0
100
AcDbLine
 10
-16.0
 20
-108.2435992519638
 30
0.0
 11
-3.999999999999965
 21
-108.2435992519638
 31
0.0
  0
SOLID
  5
99
330
95
100
AcDbEntity
  8
0
  6
ByBlock
 62
     0
100
AcDbTrace
 10
-16.0
 20
-107.5769325852972
 30
0.0
 11
-16.0
 21
-108.9102659186305
 31
0.0
 12
-20.0
 22
-108.2435992519638
 32
0.0
 13
-20.0
 23
-108.2435992519638
 33
0.0
  0
SOLID
  5
9A
330
95
100
AcDbEntity
  8
0
  6
ByBlock
 62
     0
100
AcDbTrace
 10
-3.999999999999965
 20
-107.5769325852972
 30
0.0
 11
-3.999999999999965
 21
-108.9102659186305
 31
0.0
 12
0.0000000000000343
 22
-108.2435992519638
 32
0.0
 13
0.0000000000000343
 23
-108.2435992519638
 33
0.0
  0
TEXT
  5
9B
330
95
100
AcDbEntity
  8
0
  6
ByBlock
 62
     0
100
AcDbText
 10
-12.85714285714284
 20
-106.7435992519639
 30
0.0
 40
3.0
  1
20
  7
ROMANS
 72
     1
 11
-9.999999999999982
 21
-105.2435992519638
 31
0.0
100
AcDbText
 73
     2
  0
POINT
  5
9C
330
95
100
AcDbEntity
  8
DEFPOINTS
  6
ByBlock
 62
     0
100
AcDbPoint
 10
-20.0
 20
-14.99999999999988
 30
0.0
  0
POINT
  5
9D
330
95
100
AcDbEntity
  8
DEFPOINTS
  6
ByBlock
 62
     0
100
AcDbPoint
 10
0.0000000000000343
 20
-30.00000000000003
 30
0.0
  0
POINT
  5
9E
330
95
100
AcDbEntity
  8
DEFPOINTS
  6
ByBlock
 62
     0
100
AcDbPoint
 10
0.0000000000000343
 20
-108.2435992519638
 30
0.0
  0
ENDBLK
  5
A0
330
95
100
AcDbEntity
  8
0
100
AcDbBlockEnd
  0
BLOCK
  5
6F
330
65
100
AcDbEntity
  8
0
 62
     1
100
AcDbBlockBegin
  2
A$C6BE937E7
 70
     0
 10
0.0
 20
0.0
 30
0.0
  3
A$C6BE937E7
  1

  0
TEXT
  5
66
330
65
100
AcDbEntity
  8
SPECD
 62
     6
100
AcDbText
 10
4.668392196768905
 20
18.71588358345923
 30
0.0
 40
5.0
  1
AND 20mm-JOINT. AND UNFREEZE DESIRED NEW 
  7
ROMANS
 72
     4
 11
102.5255350539117
 21
21.21588358345923
 31
0.0
100
AcDbText
  0
LINE
  5
68
330
65
100
AcDbEntity
  8
SPECD
 62
     6
100
AcDbLine
 10
0.0000004097963711
 20
53.03369301694681
 30
0.0
 11
202.4869505164367
 21
53.03369301694681
 31
0.0
  0
LINE
  5
69
330
65
100
AcDbEntity
  8
SPECD
 62
     6
100
AcDbLine
 10
0.0000004097963711
 20
0.0000004313964723
 30
0.0
 11
202.4869505164367
 21
0.0000004313964723
 31
0.0
  0
TEXT
  5
6A
330
65
100
AcDbEntity
  8
SPECD
 62
     6
100
AcDbText
 10
4.207581425801549
 20
28.3361790613278
 30
0.0
 40
5.0
  1
FOR OTHER WIDTHS, FREEZE LAYERS 20mm-DIMS
  7
ROMANS
 72
     4
 11
101.3504385686587
 21
30.35998858513733
 31
0.0
100
AcDbText
  0
TEXT
  5
6B
330
65
100
AcDbEntity
  8
SPECD
 62
     6
100
AcDbText
 10
4.215424032625506
 20
43.79289347717675
 30
0.0
 40
5.0
  1
DRAWING SHOWS 20mm JOINT.
  7
ROMANS
 72
     4
 11
63.73923355643501
 21
46.29289347717675
 31
0.0
100
AcDbText
  0
TEXT
  5
6C
330
65
100
AcDbEntity
  8
SPECD
 62
     6
100
AcDbText
 10
4.481432930145061
 20
8.212600757984517
 30
0.0
 40
5.0
  1
JOINT AND DIMS LAYERS.
  7
ROMANS
 72
     4
 11
52.33857578728794
 21
10.71260075798451
 31
0.0
100
AcDbText
  0
LINE
  5
6D
330
65
100
AcDbEntity
  8
SPECD
 62
     6
100
AcDbLine
 10
0.0000004097963711
 20
53.03369301694681
 30
0.0
 11
0.0000004097963711
 21
0.0000004313964723
 31
0.0
  0
LINE
  5
6E
330
65
100
AcDbEntity
  8
SPECD
 62
     6
100
AcDbLine
 10
202.4869505164367
 20
53.03369301694681
 30
0.0
 11
202.4869505164367
 21
0.0000004313964723
 31
0.0
  0
ENDBLK
  5
70
330
65
100
AcDbEntity
  8
0
 62
     1
100
AcDbBlockEnd
  0
ENDSEC
  0
SECTION
  2
ENTITIES
  0
DIMENSION
  5
2D
330
2
100
AcDbEntity
  8
DIMS
100
AcDbDimension
  2
*D7
 10
155.0
 20
-108.2435992519638
 30
0.0
 11
77.50000000000007
 21
-105.2435992519638
 31
0.0
 71
     5
 42
-1.0
  3
1-2
100
AcDbAlignedDimension
 13
0.0000000000001168
 23
-37.5
 33
0.0
 14
155.0
 24
-24.99999999999994
 34
0.0
100
AcDbRotatedDimension
  0
DIMENSION
  5
3E
330
2
100
AcDbEntity
  8
DIMS
100
AcDbDimension
  2
*D6
 10
135.0000000000001
 20
-96.23972621613949
 30
0.0
 11
67.50000000000011
 21
-93.23972621613949
 31
0.0
 71
     5
 42
-1.0
  3
1-2
100
AcDbAlignedDimension
 13
0.0000000000001168
 23
-37.5
 33
0.0
 14
135.0000000000001
 24
-10.99999999999994
 34
0.0
100
AcDbRotatedDimension
  0
LINE
  5
4B
330
2
100
AcDbEntity
  8
ANCON-DSD
  6
Continuous
100
AcDbLine
 10
3.000000000000113
 20
-25.0
 30
0.0
 11
160.0
 21
-24.99999999999994
 31
0.0
  0
LINE
  5
4D
330
2
100
AcDbEntity
  8
ANCON-DSD
  6
Continuous
100
AcDbLine
 10
3.000000000000113
 20
25.0
 30
0.0
 11
160.0
 21
25.00000000000005
 31
0.0
  0
LINE
  5
4E
330
2
100
AcDbEntity
  8
20MM-JOINT
  6
HIDDEN
 62
     3
100
AcDbLine
 10
-10.0
 20
9.000000000000113
 30
0.0
 11
108.0
 21
9.000000000000085
 31
0.0
  0
LINE
  5
51
330
2
100
AcDbEntity
  8
20MM-JOINT
  6
HIDDEN
 62
     3
100
AcDbLine
 10
-10.0
 20
-8.999999999999857
 30
0.0
 11
108.0
 21
-8.999999999999886
 31
0.0
  0
LINE
  5
52
330
2
100
AcDbEntity
  8
ANCON-DSD
  6
CENTER2
 62
     1
100
AcDbLine
 10
0.0000000000000064
 20
0.0
 30
0.0
 11
165.0
 21
0.0000000000000613
 31
0.0
  0
TEXT
  5
54
330
2
100
AcDbEntity
  8
DIMS
 62
     1
100
AcDbText
 10
9.568193832461375
 20
125.8219377013082
 30
0.0
 40
5.0
  1
SPECIFICATION BY DESCRIPTION
  7
ROMANS
 72
     4
 11
69.21105097531851
 21
128.3219377013082
 31
0.0
100
AcDbText
  0
TEXT
  5
55
330
2
100
AcDbEntity
  8
DIMS
 62
     1
100
AcDbText
 10
9.42455722283509
 20
155.7563921658043
 30
0.0
 40
5.0
  1
SPECIFICATION BY PRODUCT
  7
ROMANS
 72
     4
 11
62.87693817521603
 21
158.2563921658043
 31
0.0
100
AcDbText
  0
LINE
  5
56
330
2
100
AcDbEntity
  8
ANCON-DSD
  6
HIDDEN
100
AcDbLine
 10
3.000000000000113
 20
-10.99999999999994
 30
0.0
 11
135.0000000000001
 21
-10.99999999999994
 31
0.0
  0
LINE
  5
57
330
2
100
AcDbEntity
  8
ANCON-DSD
  6
HIDDEN
100
AcDbLine
 10
3.000000000000113
 20
11.00000000000005
 30
0.0
 11
135.0000000000001
 21
11.00000000000005
 31
0.0
  0
LINE
  5
58
330
2
100
AcDbEntity
  8
20MM-JOINT
  6
CENTER2
 62
     1
100
AcDbLine
 10
-81.00000000000006
 20
84.99999999999998
 30
0.0
 11
-81.00000000000006
 21
-85.0
 31
0.0
  0
LINE
  5
59
330
2
100
AcDbEntity
  8
20MM-JOINT
  6
Continuous
 62
     3
100
AcDbLine
 10
-56.99999999999983
 20
39.99999999999998
 30
0.0
 11
-57.0
 21
9.000000000000113
 31
0.0
  0
LINE
  5
5A
330
2
100
AcDbEntity
  8
20MM-JOINT
  6
Continuous
 62
     3
100
AcDbLine
 10
-44.99999999999983
 20
39.99999999999999
 30
0.0
 11
-45.0
 21
9.000000000000113
 31
0.0
  0
LINE
  5
5B
330
2
100
AcDbEntity
  8
20MM-JOINT
  6
CENTER2
 62
     1
100
AcDbLine
 10
-50.99999999999977
 20
44.99999999999999
 30
0.0
 11
-51.00000000000034
 21
-45.00000000000001
 31
0.0
  0
LINE
  5
5C
330
2
100
AcDbEntity
  8
20MM-JOINT
  6
Continuous
 62
     3
100
AcDbLine
 10
-75.00000000000006
 20
80.0
 30
0.0
 11
-75.00000000000006
 21
9.000000000000106
 31
0.0
  0
LINE
  5
5D
330
2
100
AcDbEntity
  8
20MM-JOINT
  6
Continuous
 62
     3
100
AcDbLine
 10
-87.00000000000006
 20
80.0
 30
0.0
 11
-87.00000000000006
 21
9.000000000000106
 31
0.0
  0
LINE
  5
5E
330
2
100
AcDbEntity
  8
ANCON-DSD
  6
Continuous
100
AcDbLine
 10
27.00000000000034
 20
50.0
 30
0.0
 11
27.00000000000023
 21
25.0
 31
0.0
  0
LINE
  5
5F
330
2
100
AcDbEntity
  8
ANCON-DSD
  6
Continuous
100
AcDbLine
 10
39.00000000000033
 20
50.00000000000001
 30
0.0
 11
39.00000000000023
 21
25.00000000000001
 31
0.0
  0
LINE
  5
60
330
2
100
AcDbEntity
  8
ANCON-DSD
  6
CENTER2
 62
     1
100
AcDbLine
 10
33.00000000000037
 20
55.00000000000001
 30
0.0
 11
32.99999999999985
 21
-55.0
 31
0.0
  0
LINE
  5
61
330
2
100
AcDbEntity
  8
20MM-JOINT
 62
     2
100
AcDbLine
 10
-19.99999999999994
 20
-144.7460648130115
 30
0.0
 11
-20.0
 21
144.7279442517058
 31
0.0
  0
LINE
  5
62
330
2
100
AcDbEntity
  8
CONCRETE
100
AcDbLine
 10
0.0000000000000568
 20
-144.7370045323585
 30
0.0
 11
0.0
 21
144.7370045323586
 31
0.0
  0
DIMENSION
  5
71
330
2
100
AcDbEntity
  8
20MM-DIMS
100
AcDbDimension
  2
*D8
 10
-20.0
 20
-108.2435992519638
 30
0.0
 11
-95.00000000000001
 21
-105.2435992519638
 31
0.0
 71
     5
 42
-1.0
  3
1-2
100
AcDbAlignedDimension
 13
-170.0
 23
-6.999999999999886
 33
0.0
 14
-20.0
 24
-14.99999999999988
 34
0.0
100
AcDbRotatedDimension
  0
LINE
  5
7F
330
2
100
AcDbEntity
  8
20MM-JOINT
 62
     3
100
AcDbLine
 10
-168.0
 20
9.000000000000113
 30
0.0
 11
-25.00000000000005
 21
9.000000000000113
 31
0.0
  0
LINE
  5
80
330
2
100
AcDbEntity
  8
20MM-JOINT
 62
     3
100
AcDbLine
 10
-168.0
 20
-8.999999999999886
 30
0.0
 11
-25.00000000000005
 21
-8.999999999999857
 31
0.0
  0
LINE
  5
81
330
2
100
AcDbEntity
  8
20MM-JOINT
  6
CENTER2
 62
     1
100
AcDbLine
 10
-175.0
 20
-0.0000000000000639
 30
0.0
 11
0.0
 21
0.0
 31
0.0
  0
LINE
  5
82
330
2
100
AcDbEntity
  8
20MM-JOINT
 62
     3
100
AcDbLine
 10
-170.0
 20
7.000000000000113
 30
0.0
 11
-170.0
 21
-6.999999999999886
 31
0.0
  0
LINE
  5
83
330
2
100
AcDbEntity
  8
20MM-JOINT
 62
     3
100
AcDbLine
 10
-168.0
 20
9.000000000000113
 30
0.0
 11
-168.0
 21
-8.999999999999886
 31
0.0
  0
LINE
  5
84
330
2
100
AcDbEntity
  8
20MM-JOINT
 62
     3
100
AcDbLine
 10
-170.0
 20
-6.999999999999886
 30
0.0
 11
-168.0
 21
-8.999999999999886
 31
0.0
  0
LINE
  5
85
330
2
100
AcDbEntity
  8
20MM-JOINT
 62
     3
100
AcDbLine
 10
-168.0
 20
9.000000000000113
 30
0.0
 11
-170.0
 21
7.000000000000113
 31
0.0
  0
DIMENSION
  5
86
330
2
100
AcDbEntity
  8
DIMS
100
AcDbDimension
  2
*D5
 10
0.0000000000001168
 20
-84.24359925196389
 30
0.0
 11
-5.993989522298988
 21
-81.35575087496375
 31
0.0
 70
   128
 71
     5
 42
-1.0
  3
1-2
100
AcDbAlignedDimension
 13
3.000000000000116
 23
-37.5
 33
0.0
 14
0.0000000000001168
 24
-37.5
 34
0.0
100
AcDbRotatedDimension
  0
DIMENSION
  5
94
330
2
100
AcDbEntity
  8
20MM-DIMS
100
AcDbDimension
  2
*D9
 10
0.0000000000000343
 20
-108.2435992519638
 30
0.0
 11
-9.999999999999982
 21
-105.2435992519638
 31
0.0
 71
     5
 42
-1.0
  3
1-2
100
AcDbAlignedDimension
 13
-20.0
 23
-14.99999999999988
 33
0.0
 14
0.0000000000000343
 24
-30.00000000000003
 34
0.0
100
AcDbRotatedDimension
  0
LINE
  5
A1
330
2
100
AcDbEntity
  8
20MM-JOINT
 62
     3
100
AcDbLine
 10
-20.00000000000005
 20
-8.999999999999857
 30
0.0
 11
0.0000000000000302
 21
-8.999999999999857
 31
0.0
  0
LINE
  5
A2
330
2
100
AcDbEntity
  8
20MM-JOINT
 62
     3
100
AcDbLine
 10
-20.00000000000005
 20
9.000000000000113
 30
0.0
 11
0.0000000000000267
 21
9.000000000000113
 31
0.0
  0
DIMENSION
  5
A5
330
2
100
AcDbEntity
  8
20MM-DIMS
100
AcDbDimension
  2
*D2
 10
-19.99999999999996
 20
-96.23972621613949
 30
0.0
 11
-14.01605303168956
 21
-93.23972621613949
 31
0.0
 70
   128
 71
     5
 42
-1.0
  3
1-2
100
AcDbAlignedDimension
 13
-25.00000000000005
 23
-14.99999999999988
 33
0.0
 14
-19.99999999999996
 24
-14.99999999999988
 34
0.0
100
AcDbRotatedDimension
  0
DIMENSION
  5
B3
330
2
100
AcDbEntity
  8
20MM-DIMS
100
AcDbDimension
  2
*D1
 10
-25.00000000000005
 20
-96.23972621613949
 30
0.0
 11
-38.0000000000002
 21
-93.23972621613949
 31
0.0
 71
     5
 42
-1.0
  3
1-2
100
AcDbAlignedDimension
 13
-51.00000000000034
 23
-45.00000000000001
 33
0.0
 14
-25.00000000000005
 24
-14.99999999999988
 34
0.0
100
AcDbRotatedDimension
  0
LINE
  5
C0
330
2
100
AcDbEntity
  8
20MM-JOINT
  6
Continuous
 62
     3
100
AcDbLine
 10
-87.00000000000006
 20
-8.999999999999872
 30
0.0
 11
-87.00000000000006
 21
-80.0
 31
0.0
  0
LINE
  5
C1
330
2
100
AcDbEntity
  8
20MM-JOINT
  6
Continuous
 62
     3
100
AcDbLine
 10
-75.00000000000006
 20
-8.999999999999872
 30
0.0
 11
-75.00000000000006
 21
-80.0
 31
0.0
  0
DIMENSION
  5
C2
330
2
100
AcDbEntity
  8
20MM-DIMS
100
AcDbDimension
  2
*D0
 10
-51.00000000000034
 20
-96.23972621613949
 30
0.0
 11
-66.0000000000002
 21
-93.23972621613949
 31
0.0
 71
     5
 42
-1.0
  3
1-2
100
AcDbAlignedDimension
 13
-81.00000000000006
 23
-85.0
 33
0.0
 14
-51.00000000000034
 24
-45.00000000000001
 34
0.0
100
AcDbRotatedDimension
  0
LINE
  5
CF
330
2
100
AcDbEntity
  8
20MM-JOINT
  6
Continuous
 62
     3
100
AcDbLine
 10
-87.00000000000006
 20
-80.0
 30
0.0
 11
-75.00000000000006
 21
-80.0
 31
0.0
  0
LINE
  5
D0
330
2
100
AcDbEntity
  8
20MM-JOINT
  6
Continuous
 62
     3
100
AcDbLine
 10
-57.00000000000028
 20
-40.00000000000001
 30
0.0
 11
-45.00000000000028
 21
-40.0
 31
0.0
  0
LINE
  5
D1
330
2
100
AcDbEntity
  8
20MM-JOINT
  6
Continuous
 62
     3
100
AcDbLine
 10
-57.00000000000011
 20
-8.999999999999872
 30
0.0
 11
-57.00000000000028
 21
-40.00000000000001
 31
0.0
  0
LINE
  5
D2
330
2
100
AcDbEntity
  8
20MM-JOINT
 62
     3
100
AcDbLine
 10
-20.0
 20
15.00000000000011
 30
0.0
 11
-20.0
 21
-14.99999999999988
 31
0.0
  0
LINE
  5
D3
330
2
100
AcDbEntity
  8
20MM-JOINT
 62
     3
100
AcDbLine
 10
-25.00000000000005
 20
15.00000000000011
 30
0.0
 11
-25.00000000000005
 21
-14.99999999999988
 31
0.0
  0
LINE
  5
D4
330
2
100
AcDbEntity
  8
20MM-JOINT
  6
Continuous
 62
     3
100
AcDbLine
 10
-45.00000000000011
 20
-8.999999999999857
 30
0.0
 11
-45.00000000000028
 21
-40.0
 31
0.0
  0
LINE
  5
D5
330
2
100
AcDbEntity
  8
20MM-JOINT
 62
     3
100
AcDbLine
 10
-25.00000000000005
 20
-14.99999999999988
 30
0.0
 11
-20.0
 21
-14.99999999999988
 31
0.0
  0
LINE
  5
D6
330
2
100
AcDbEntity
  8
20MM-JOINT
 62
     3
100
AcDbLine
 10
-25.0
 20
15.00000000000011
 30
0.0
 11
-20.0
 21
15.00000000000011
 31
0.0
  0
DIMENSION
  5
D7
330
2
100
AcDbEntity
  8
DIMS
100
AcDbDimension
  2
*D4
 10
32.99999999999985
 20
-84.24359925196389
 30
0.0
 11
17.99999999999998
 21
-81.2435992519639
 31
0.0
 71
     5
 42
-1.0
  3
1-2
100
AcDbAlignedDimension
 13
3.000000000000116
 23
-37.5
 33
0.0
 14
32.99999999999985
 24
-55.0
 34
0.0
100
AcDbRotatedDimension
  0
LINE
  5
E4
330
2
100
AcDbEntity
  8
ANCON-DSD
  6
Continuous
100
AcDbLine
 10
26.99999999999998
 20
-24.99999999999999
 30
0.0
 11
26.99999999999988
 21
-50.0
 31
0.0
  0
LINE
  5
E5
330
2
100
AcDbEntity
  8
ANCON-DSD
  6
Continuous
100
AcDbLine
 10
38.99999999999999
 20
-24.99999999999998
 30
0.0
 11
38.99999999999988
 21
-49.99999999999999
 31
0.0
  0
LINE
  5
E6
330
2
100
AcDbEntity
  8
ANCON-DSD
  6
Continuous
100
AcDbLine
 10
26.99999999999988
 20
-50.0
 30
0.0
 11
38.99999999999988
 21
-49.99999999999999
 31
0.0
  0
LINE
  5
E7
330
2
100
AcDbEntity
  8
ANCON-DSD
100
AcDbLine
 10
3.00000000000011
 20
37.5
 30
0.0
 11
3.000000000000116
 21
-37.5
 31
0.0
  0
LINE
  5
E8
330
2
100
AcDbEntity
  8
20MM-JOINT
 62
     3
100
AcDbLine
 10
0.0
 20
15.00000000000011
 30
0.0
 11
0.0
 21
-14.99999999999988
 31
0.0
  0
LINE
  5
E9
330
2
100
AcDbEntity
  8
ANCON-DSD
100
AcDbLine
 10
0.0000000000001106
 20
37.51812056130586
 30
0.0
 11
0.0000000000001168
 21
-37.5
 31
0.0
  0
LINE
  5
EA
330
2
100
AcDbEntity
  8
ANCON-DSD
100
AcDbLine
 10
0.0000000000001168
 20
-37.5
 30
0.0
 11
3.000000000000116
 21
-37.5
 31
0.0
  0
LINE
  5
EB
330
2
100
AcDbEntity
  8
DIMS
  6
CENTER2
100
AcDbLine
 10
20.00000000000022
 20
-0.0000000000000568
 30
0.0
 11
36.00000000000022
 21
-0.0000000000000568
 31
0.0
  0
LINE
  5
EC
330
2
100
AcDbEntity
  8
ANCON-DSD
100
AcDbLine
 10
0.0000000000001106
 20
37.5
 30
0.0
 11
3.00000000000011
 21
37.5
 31
0.0
  0
LINE
  5
ED
330
2
100
AcDbEntity
  8
ANCON-DSD
100
AcDbLine
 10
0.0000000000001106
 20
37.5
 30
0.0
 11
0.0000000000001106
 21
37.51812056130586
 31
0.0
  0
LINE
  5
EE
330
2
100
AcDbEntity
  8
DIMS
  6
CENTER2
100
AcDbLine
 10
50.00000000000023
 20
-0.0000000000000568
 30
0.0
 11
66.00000000000022
 21
-0.0000000000000568
 31
0.0
  0
TEXT
  5
EF
330
2
100
AcDbEntity
  8
20MM-JOINT
 62
     6
100
AcDbText
 10
-107.1621859407346
 20
143.4459548564972
 30
0.0
 40
5.0
  1
LOAD ( kN )
  7
ROMANS
 72
     4
 11
-82.40028117882994
 21
145.5888119993544
 31
0.0
100
AcDbText
  0
LINE
  5
F0
330
2
100
AcDbEntity
  8
20MM-JOINT
 62
     6
100
AcDbLine
 10
-226.2857452908586
 20
111.5518733233929
 30
0.0
 11
-50.90706759899616
 21
111.5518733233928
 31
0.0
  0
LINE
  5
F1
330
2
100
AcDbEntity
  8
20MM-JOINT
 62
     6
100
AcDbLine
 10
-226.2857452908586
 20
138.57935839844
 30
0.0
 11
-50.90706759899613
 21
138.57935839844
 31
0.0
  0
LINE
  5
F2
330
2
100
AcDbEntity
  8
20MM-JOINT
 62
     6
100
AcDbLine
 10
-226.2857452908586
 20
164.6501194574857
 30
0.0
 11
-50.90706759899616
 21
164.6501194574856
 31
0.0
  0
TEXT
  5
F3
330
2
100
AcDbEntity
  8
20MM-JOINT
 62
     6
100
AcDbText
 10
-110.2574240359727
 20
154.3892337950756
 30
0.0
 40
5.0
  1
SERVICEABILITY
  7
ROMANS
 72
     4
 11
-82.40028117882994
 21
156.8892337950756
 31
0.0
100
AcDbText
  0
TEXT
  5
F4
330
2
100
AcDbEntity
  8
20MM-JOINT
 62
     6
100
AcDbText
 10
-219.0933611417873
 20
154.384403297944
 30
0.0
 40
5.0
  1
DSD REF:
  7
ROMANS
 72
     4
 11
-201.1171706655968
 21
156.884403297944
 31
0.0
100
AcDbText
  0
TEXT
  5
F5
330
2
100
AcDbEntity
  8
20MM-JOINT
 62
     6
100
AcDbText
 10
-217.2812335597823
 20
122.6055256545866
 30
0.0
 40
5.0
  1
DSDQ50
  7
ROMANS
 72
     4
 11
-202.4002811788299
 21
124.8674304164914
 31
0.0
100
AcDbText
  0
LINE
  5
F6
330
2
100
AcDbEntity
  8
20MM-JOINT
 62
     6
100
AcDbLine
 10
-226.2857452908586
 20
164.6501194574856
 30
0.0
 11
-226.2857452908586
 21
111.5518733233928
 31
0.0
  0
LINE
  5
F7
330
2
100
AcDbEntity
  8
20MM-JOINT
 62
     6
100
AcDbLine
 10
-115.7776517337957
 20
164.6501194574856
 30
0.0
 11
-115.7776517337957
 21
111.5518733233928
 31
0.0
  0
LINE
  5
F8
330
2
100
AcDbEntity
  8
20MM-JOINT
 62
     6
100
AcDbLine
 10
-176.2857452908586
 20
164.6501194574856
 30
0.0
 11
-176.2857452908586
 21
111.5518733233928
 31
0.0
  0
TEXT
  5
F9
330
2
100
AcDbEntity
  8
20MM-JOINT
 62
     6
100
AcDbText
 10
-171.1820769259696
 20
154.384403297944
 30
0.0
 40
5.0
  1
DESIGN JOINT
  7
ROMANS
 72
     4
 11
-145.1106483545411
 21
156.884403297944
 31
0.0
100
AcDbText
  0
TEXT
  5
FA
330
2
100
AcDbEntity
  8
20MM-JOINT
 62
     6
100
AcDbText
 10
-155.2574240359728
 20
122.3674304164914
 30
0.0
 40
5.0
  1
20 MM
  7
ROMANS
 72
     4
 11
-142.4002811788299
 21
124.8674304164914
 31
0.0
100
AcDbText
  0
TEXT
  5
FB
330
2
100
AcDbEntity
  8
20MM-JOINT
 62
     6
100
AcDbText
 10
-155.7058864497792
 20
143.4867799103251
 30
0.0
 40
5.0
  1
WIDTH
  7
ROMANS
 72
     4
 11
-145.1106483545411
 21
145.9867799103251
 31
0.0
100
AcDbText
  0
LINE
  5
FC
330
2
100
AcDbEntity
  8
20MM-JOINT
 62
     6
100
AcDbLine
 10
-50.90706759899616
 20
164.6501194574856
 30
0.0
 11
-50.90706759899616
 21
111.5518733233928
 31
0.0
  0
LINE
  5
FD
330
2
100
AcDbEntity
  8
20MM-JOINT
  6
Continuous
 62
     3
100
AcDbLine
 10
-56.99999999999983
 20
39.99999999999998
 30
0.0
 11
-44.99999999999983
 21
39.99999999999999
 31
0.0
  0
LINE
  5
FE
330
2
100
AcDbEntity
  8
20MM-JOINT
  6
Continuous
 62
     3
100
AcDbLine
 10
-87.00000000000006
 20
80.0
 30
0.0
 11
-75.00000000000006
 21
80.0
 31
0.0
  0
TEXT
  5
FF
330
2
100
AcDbEntity
  8
20MM-JOINT
 62
     6
100
AcDbText
 10
-90.73361451216326
 20
122.3674304164914
 30
0.0
 40
5.0
  1
40.5
  7
ROMANS
 72
     4
 11
-82.40028117882994
 21
124.8674304164914
 31
0.0
100
AcDbText
  0
LINE
  5
100
330
2
100
AcDbEntity
  8
ANCON-DSD
  6
Continuous
100
AcDbLine
 10
27.00000000000034
 20
50.0
 30
0.0
 11
39.00000000000033
 21
50.00000000000001
 31
0.0
  0
TEXT
  5
101
330
2
100
AcDbEntity
  8
ANCON-TEXT
 62
     6
100
AcDbText
 10
182.6467954220674
 20
1.610253418112549
 30
0.0
 40
3.0
  1
MAX. LATERAL MOVEMENT
  7
ROMANS
 72
     4
 11
211.7182239934959
 21
3.11025341811255
 31
0.0
100
AcDbText
  0
LINE
  5
102
330
2
100
AcDbEntity
  8
ANCON-DSD
  6
HIDDEN
100
AcDbLine
 10
135.0000000000001
 20
11.00000000000005
 30
0.0
 11
135.0000000000001
 21
-10.99999999999994
 31
0.0
  0
LINE
  5
103
330
2
100
AcDbEntity
  8
20MM-JOINT
  6
HIDDEN
 62
     3
100
AcDbLine
 10
110.0
 20
7.000000000000085
 30
0.0
 11
110.0
 21
-6.999999999999886
 31
0.0
  0
LINE
  5
104
330
2
100
AcDbEntity
  8
20MM-JOINT
  6
HIDDEN
 62
     3
100
AcDbLine
 10
110.0
 20
7.000000000000113
 30
0.0
 11
110.0
 21
-6.999999999999857
 31
0.0
  0
LINE
  5
105
330
2
100
AcDbEntity
  8
20MM-JOINT
  6
HIDDEN
 62
     3
100
AcDbLine
 10
108.0
 20
9.000000000000113
 30
0.0
 11
108.0
 21
-8.999999999999886
 31
0.0
  0
LINE
  5
106
330
2
100
AcDbEntity
  8
20MM-JOINT
  6
HIDDEN
 62
     3
100
AcDbLine
 10
108.0
 20
-8.999999999999886
 30
0.0
 11
110.0
 21
-6.999999999999886
 31
0.0
  0
LINE
  5
107
330
2
100
AcDbEntity
  8
20MM-JOINT
  6
HIDDEN
 62
     3
100
AcDbLine
 10
108.0
 20
9.000000000000085
 30
0.0
 11
110.0
 21
7.000000000000085
 31
0.0
  0
DIMENSION
  5
108
330
2
100
AcDbEntity
  8
ANCON-TEXT
 62
     6
100
AcDbDimension
  2
*D3
 10
175.8635534650485
 20
25.00000000000005
 30
0.0
 11
77.50000000000007
 21
-111.6837904335896
 31
0.0
  1
 
 71
     5
 42
-1.0
  3
1-2
100
AcDbAlignedDimension
 13
160.0
 23
-24.99999999999994
 33
0.0
 14
160.0
 24
25.00000000000005
 34
0.0
 50
90.0
100
AcDbRotatedDimension
  0
LINE
  5
114
330
2
100
AcDbEntity
  8
ANCON-DSD
  6
Continuous
100
AcDbLine
 10
160.0
 20
-24.99999999999994
 30
0.0
 11
160.0
 21
25.00000000000006
 31
0.0
  0
LINE
  5
115
330
2
100
AcDbEntity
  8
ANCON-DSD
  6
Continuous
100
AcDbLine
 10
155.0
 20
-24.99999999999994
 30
0.0
 11
155.0
 21
25.00000000000005
 31
0.0
  0
TEXT
  5
116
330
2
100
AcDbEntity
  8
ANCON-TEXT
 62
     6
100
AcDbText
 10
204.0039382792102
 20
-5.982741566578011
 30
0.0
 40
3.0
  1
25 MM
  7
ROMANS
 72
     4
 11
211.7182239934959
 21
-4.482741566578011
 31
0.0
100
AcDbText
  0
TEXT
  5
117
330
2
100
AcDbEntity
  8
SPECD
 62
     6
100
AcDbText
 10
141.2886627185875
 20
125.786189074784
 30
0.0
 40
5.0
  1
TWO PART STAINLESS STEEL SHEAR CONNECTOR
  7
ROMANS
 72
     4
 11
233.9077103376353
 21
128.286189074784
 31
0.0
100
AcDbText
  0
TEXT
  5
118
330
2
100
AcDbEntity
  8
SPECD
 62
     6
100
AcDbText
 10
140.5674783125317
 20
115.6814767489934
 30
0.0
 40
5.0
  1
COMPRISING SLEEVE AND DOWEL COMPONENT
  7
ROMANS
 72
     4
 11
228.5436687887222
 21
118.1814767489933
 31
0.0
100
AcDbText
  0
TEXT
  5
119
330
2
100
AcDbEntity
  8
SPECD
 62
     6
100
AcDbText
 10
141.0806102425394
 20
95.73127162539455
 30
0.0
 40
5.0
  1
AND CAPABLE OF TRANSFERRING A SERVICEABILITY
  7
ROMANS
 72
     4
 11
238.4615626234918
 21
98.23127162539456
 31
0.0
100
AcDbText
  0
LINE
  5
11A
330
2
100
AcDbEntity
  8
SPECD
 62
     6
100
AcDbLine
 10
136.9969295137479
 20
81.9932960290037
 30
0.0
 11
339.4838796203882
 21
81.9932960290037
 31
0.0
  0
LINE
  5
11B
330
2
100
AcDbEntity
  8
SPECD
 62
     6
100
AcDbLine
 10
136.9969295137479
 20
135.026988614554
 30
0.0
 11
339.4838796203882
 21
135.026988614554
 31
0.0
  0
TEXT
  5
11C
330
2
100
AcDbEntity
  8
SPECD
 62
     6
100
AcDbText
 10
140.6261750725893
 20
105.7803290393236
 30
0.0
 40
5.0
  1
SUITABLE FOR A DESIGN JOINT WIDTH OF ?? MM
  7
ROMANS
 72
     4
 11
235.5071274535418
 21
108.2803290393236
 31
0.0
100
AcDbText
  0
TEXT
  5
11D
330
2
100
AcDbEntity
  8
SPECD
 62
     6
100
AcDbText
 10
142.2663909988825
 20
85.69634646043228
 30
0.0
 40
5.0
  1
LOAD OF ??? kN
  7
ROMANS
 72
     4
 11
174.8854386179302
 21
88.19634646043228
 31
0.0
100
AcDbText
  0
LINE
  5
11E
330
2
100
AcDbEntity
  8
SPECP
 62
     6
100
AcDbLine
 10
136.9969295137479
 20
164.3935022816478
 30
0.0
 11
204.5867804365098
 21
164.3935022816478
 31
0.0
  0
LINE
  5
120
330
2
100
AcDbEntity
  8
SPECP
 62
     6
100
AcDbLine
 10
136.9969295137479
 20
152.4755269896465
 30
0.0
 11
204.5867804365098
 21
152.4755269896466
 31
0.0
  0
TEXT
  5
121
330
2
100
AcDbEntity
  8
SPECP
 62
     6
100
AcDbText
 10
141.4910391871399
 20
155.7563921658043
 30
0.0
 40
5.0
  1
STAIFIX DSD ??
  7
ROMANS
 72
     4
 11
171.0148487109495
 21
158.2563921658043
 31
0.0
100
AcDbText
  0
LINE
  5
122
330
2
100
AcDbEntity
  8
SPECD
 62
     6
100
AcDbLine
 10
136.9969295137479
 20
135.026988614554
 30
0.0
 11
136.9969295137479
 21
81.9932960290037
 31
0.0
  0
LINE
  5
123
330
2
100
AcDbEntity
  8
SPECP
 62
     6
100
AcDbLine
 10
136.9969295137479
 20
164.3935022816478
 30
0.0
 11
136.9969295137479
 21
152.4755269896465
 31
0.0
  0
LINE
  5
124
330
2
100
AcDbEntity
  8
SPECP
 62
     6
100
AcDbLine
 10
204.5867804365098
 20
164.3935022816478
 30
0.0
 11
204.5867804365098
 21
152.4755269896465
 31
0.0
  0
LINE
  5
125
330
2
100
AcDbEntity
  8
SPECD
 62
     6
100
AcDbLine
 10
339.4838796203882
 20
135.026988614554
 30
0.0
 11
339.4838796203882
 21
81.9932960290037
 31
0.0
  0
ENDSEC
  0
SECTION
  2
OBJECTS
  0
DICTIONARY
  5
26
330
0
100
AcDbDictionary
281
     1
  3
ACAD_GROUP
350
22
  3
ACAD_LAYOUT
350
129
  3
ACAD_MLINESTYLE
350
23
  3
ACAD_PLOTSETTINGS
350
12A
  3
ACAD_PLOTSTYLENAME
350
127
  0
DICTIONARY
  5
3
330
2
100
AcDbDictionary
280
     1
281
     1
  3
ACAD_LAYOUTSELFREF
360
15A
  0
DICTIONARY
  5
B
330
A
100
AcDbDictionary
280
     1
281
     1
  3
ACAD_LAYOUTSELFREF
360
15B
  0
DICTIONARY
  5
22
102
{ACAD_REACTORS
330
26
102
}
330
26
100
AcDbDictionary
281
     1
  0
DICTIONARY
  5
129
102
{ACAD_REACTORS
330
26
102
}
330
26
100
AcDbDictionary
281
     1
  3
Layout1
350
12C
  3
Model
350
12B
  0
DICTIONARY
  5
23
102
{ACAD_REACTORS
330
26
102
}
330
26
100
AcDbDictionary
281
     1
  3
Standard
350
29
  0
DICTIONARY
  5
12A
102
{ACAD_REACTORS
330
26
102
}
330
26
100
AcDbDictionary
281
     1
  0
ACDBDICTIONARYWDFLT
  5
127
102
{ACAD_REACTORS
330
26
102
}
330
26
100
AcDbDictionary
281
     1
  3
Normal
350
128
100
AcDbDictionaryWithDefault
340
128
  0
XRECORD
  5
15A
102
{ACAD_REACTORS
330
3
102
}
330
3
100
AcDbXrecord
280
     1
340
2
  0
XRECORD
  5
15B
102
{ACAD_REACTORS
330
B
102
}
330
B
100
AcDbXrecord
280
     1
340
A
  0
LAYOUT
  5
12C
102
{ACAD_REACTORS
330
129
102
}
330
129
100
AcDbPlotSettings
  1

  2
None
  4

  6

 40
0.0
 41
0.0
 42
0.0
 43
0.0
 44
0.0
 45
0.0
 46
0.0
 47
0.0
 48
0.0
 49
0.0
140
0.0
141
0.0
142
1.0
143
1.0
 70
   688
 72
     0
 73
     0
 74
     5
  7
Std pen settings.ctb
 75
    16
147
1.0
148
0.0
149
0.0
100
AcDbLayout
  1
Layout1
 70
     1
 71
     1
 10
-0.1979161059762549
 20
-0.1979166691697489
 11
16.34375024029589
 21
11.49541603298637
 12
0.0
 22
0.0
 32
0.0
 14
1.614583349603368
 24
1.129749872553066
 34
0.0
 15
14.5312501464303
 25
10.1677488529776
 35
0.0
146
0.0
 13
0.0
 23
0.0
 33
0.0
 16
1.0
 26
0.0
 36
0.0
 17
0.0
 27
1.0
 37
0.0
 76
     0
330
A
  0
LAYOUT
  5
12B
102
{ACAD_REACTORS
330
129
102
}
330
129
100
AcDbPlotSettings
  1

  2
None
  4

  6

 40
0.0
 41
0.0
 42
0.0
 43
0.0
 44
0.0
 45
0.0
 46
0.0
 47
0.0
 48
0.0
 49
0.0
140
0.0
141
0.0
142
1.0
143
1.0
 70
  1712
 72
     0
 73
     0
 74
     0
  7
Std pen settings.ctb
 75
     0
147
1.0
148
0.0
149
0.0
100
AcDbLayout
  1
Model
 70
     1
 71
     0
 10
0.0
 20
0.0
 11
12.0
 21
9.0
 12
0.0
 22
0.0
 32
0.0
 14
0.0
 24
0.0
 34
0.0
 15
0.0
 25
0.0
 35
0.0
146
0.0
 13
0.0
 23
0.0
 33
0.0
 16
1.0
 26
0.0
 36
0.0
 17
0.0
 27
1.0
 37
0.0
 76
     0
330
2
  0
MLINESTYLE
  5
29
102
{ACAD_REACTORS
330
23
102
}
330
23
100
AcDbMlineStyle
  2
STANDARD
 70
     0
  3

 62
   256
 51
90.0
 52
90.0
 71
     2
 49
0.5
 62
   256
  6
BYLAYER
 49
-0.5
 62
   256
  6
BYLAYER
  0
ACDBPLACEHOLDER
  5
128
102
{ACAD_REACTORS
330
127
102
}
330
127
  0
ENDSEC
  0
EOF
