  0
SECTION
  2
HEADER
  9
$ACADVER
  1
AC1015
  9
$ACADMAINTVER
 70
    10
  9
$DWGCODEPAGE
  3
ANSI_1252
  9
$INSBASE
 10
0.0000000000000568
 20
0.0000000000000568
 30
0.0
  9
$EXTMIN
 10
-92.12457794163601
 20
-245.6425880850232
 30
0.0
  9
$EXTMAX
 10
240.2827675861828
 20
85.00000000000005
 30
0.0
  9
$LIMMIN
 10
0.0
 20
0.0
  9
$LIMMAX
 10
420.0
 20
297.0
  9
$ORTHOMODE
 70
     0
  9
$REGENMODE
 70
     1
  9
$FILLMODE
 70
     1
  9
$QTEXTMODE
 70
     0
  9
$MIRRTEXT
 70
     1
  9
$LTSCALE
 40
0.25
  9
$ATTMODE
 70
     1
  9
$TEXTSIZE
 40
5.0
  9
$TRACEWID
 40
10.0
  9
$TEXTSTYLE
  7
ROMANS
  9
$CLAYER
  8
ANCON-DSD
  9
$CELTYPE
  6
BYLAYER
  9
$CECOLOR
 62
   256
  9
$CELTSCALE
 40
1.0
  9
$DISPSILH
 70
     0
  9
$DIMSCALE
 40
0.0
  9
$DIMASZ
 40
4.0
  9
$DIMEXO
 40
3.0
  9
$DIMDLI
 40
10.0
  9
$DIMRND
 40
0.0
  9
$DIMDLE
 40
1.25
  9
$DIMEXE
 40
3.0
  9
$DIMTP
 40
0.0
  9
$DIMTM
 40
0.0
  9
$DIMTXT
 40
3.0
  9
$DIMCEN
 40
-3.0
  9
$DIMTSZ
 40
0.0
  9
$DIMTOL
 70
     0
  9
$DIMLIM
 70
     0
  9
$DIMTIH
 70
     0
  9
$DIMTOH
 70
     0
  9
$DIMSE1
 70
     0
  9
$DIMSE2
 70
     0
  9
$DIMTAD
 70
     1
  9
$DIMZIN
 70
    12
  9
$DIMBLK
  1

  9
$DIMASO
 70
     1
  9
$DIMSHO
 70
     0
  9
$DIMPOST
  1

  9
$DIMAPOST
  1

  9
$DIMALT
 70
     0
  9
$DIMALTD
 70
     2
  9
$DIMALTF
 40
0.039
  9
$DIMLFAC
 40
1.0
  9
$DIMTOFL
 70
     0
  9
$DIMTVP
 40
1.5
  9
$DIMTIX
 70
     0
  9
$DIMSOXD
 70
     0
  9
$DIMSAH
 70
     0
  9
$DIMBLK1
  1

  9
$DIMBLK2
  1

  9
$DIMSTYLE
  2
1-2
  9
$DIMCLRD
 70
     0
  9
$DIMCLRE
 70
     0
  9
$DIMCLRT
 70
     0
  9
$DIMTFAC
 40
0.75
  9
$DIMGAP
 40
1.5
  9
$DIMJUST
 70
     0
  9
$DIMSD1
 70
     0
  9
$DIMSD2
 70
     0
  9
$DIMTOLJ
 70
     1
  9
$DIMTZIN
 70
    12
  9
$DIMALTZ
 70
    12
  9
$DIMALTTZ
 70
    12
  9
$DIMUPT
 70
     0
  9
$DIMDEC
 70
     2
  9
$DIMTDEC
 70
     2
  9
$DIMALTU
 70
     2
  9
$DIMALTTD
 70
     2
  9
$DIMTXSTY
  7
ROMANS
  9
$DIMAUNIT
 70
     0
  9
$DIMADEC
 70
     0
  9
$DIMALTRND
 40
0.0
  9
$DIMAZIN
 70
     0
  9
$DIMDSEP
 70
    46
  9
$DIMATFIT
 70
     3
  9
$DIMFRAC
 70
     0
  9
$DIMLDRBLK
  1

  9
$DIMLUNIT
 70
     2
  9
$DIMLWD
 70
    -2
  9
$DIMLWE
 70
    -2
  9
$DIMTMOVE
 70
     2
  9
$LUNITS
 70
     2
  9
$LUPREC
 70
     2
  9
$SKETCHINC
 40
1.0
  9
$FILLETRAD
 40
0.0
  9
$AUNITS
 70
     0
  9
$AUPREC
 70
     4
  9
$MENU
  1
acad
  9
$ELEVATION
 40
0.0
  9
$PELEVATION
 40
0.0
  9
$THICKNESS
 40
0.0
  9
$LIMCHECK
 70
     0
  9
$CHAMFERA
 40
0.0
  9
$CHAMFERB
 40
0.0
  9
$CHAMFERC
 40
0.0
  9
$CHAMFERD
 40
0.0
  9
$SKPOLY
 70
     0
  9
$TDCREATE
 40
2449527.571155092
  9
$TDUCREATE
 40
2449527.529488425
  9
$TDUPDATE
 40
2452498.563485301
  9
$TDUUPDATE
 40
2452498.521818634
  9
$TDINDWG
 40
0.1843334491
  9
$TDUSRTIMER
 40
0.1843334491
  9
$USRTIMER
 70
     1
  9
$ANGBASE
 50
0.0
  9
$ANGDIR
 70
     0
  9
$PDMODE
 70
     0
  9
$PDSIZE
 40
0.0
  9
$PLINEWID
 40
0.0
  9
$SPLFRAME
 70
     0
  9
$SPLINETYPE
 70
     6
  9
$SPLINESEGS
 70
     8
  9
$HANDSEED
  5
9B
  9
$SURFTAB1
 70
    18
  9
$SURFTAB2
 70
    18
  9
$SURFTYPE
 70
     6
  9
$SURFU
 70
    18
  9
$SURFV
 70
    18
  9
$UCSBASE
  2

  9
$UCSNAME
  2

  9
$UCSORG
 10
0.0
 20
0.0
 30
0.0
  9
$UCSXDIR
 10
1.0
 20
0.0
 30
0.0
  9
$UCSYDIR
 10
0.0
 20
1.0
 30
0.0
  9
$UCSORTHOREF
  2

  9
$UCSORTHOVIEW
 70
     0
  9
$UCSORGTOP
 10
0.0
 20
0.0
 30
0.0
  9
$UCSORGBOTTOM
 10
0.0
 20
0.0
 30
0.0
  9
$UCSORGLEFT
 10
0.0
 20
0.0
 30
0.0
  9
$UCSORGRIGHT
 10
0.0
 20
0.0
 30
0.0
  9
$UCSORGFRONT
 10
0.0
 20
0.0
 30
0.0
  9
$UCSORGBACK
 10
0.0
 20
0.0
 30
0.0
  9
$PUCSBASE
  2

  9
$PUCSNAME
  2

  9
$PUCSORG
 10
0.0
 20
0.0
 30
0.0
  9
$PUCSXDIR
 10
1.0
 20
0.0
 30
0.0
  9
$PUCSYDIR
 10
0.0
 20
1.0
 30
0.0
  9
$PUCSORTHOREF
  2

  9
$PUCSORTHOVIEW
 70
     0
  9
$PUCSORGTOP
 10
0.0
 20
0.0
 30
0.0
  9
$PUCSORGBOTTOM
 10
0.0
 20
0.0
 30
0.0
  9
$PUCSORGLEFT
 10
0.0
 20
0.0
 30
0.0
  9
$PUCSORGRIGHT
 10
0.0
 20
0.0
 30
0.0
  9
$PUCSORGFRONT
 10
0.0
 20
0.0
 30
0.0
  9
$PUCSORGBACK
 10
0.0
 20
0.0
 30
0.0
  9
$USERI1
 70
     0
  9
$USERI2
 70
     0
  9
$USERI3
 70
     0
  9
$USERI4
 70
     0
  9
$USERI5
 70
     0
  9
$USERR1
 40
0.0
  9
$USERR2
 40
0.0
  9
$USERR3
 40
0.0
  9
$USERR4
 40
0.0
  9
$USERR5
 40
0.0
  9
$WORLDVIEW
 70
     1
  9
$SHADEDGE
 70
     3
  9
$SHADEDIF
 70
    70
  9
$TILEMODE
 70
     1
  9
$MAXACTVP
 70
    16
  9
$PINSBASE
 10
0.0
 20
0.0
 30
0.0
  9
$PLIMCHECK
 70
     0
  9
$PEXTMIN
 10
1.000000000000000E+20
 20
1.000000000000000E+20
 30
1.000000000000000E+20
  9
$PEXTMAX
 10
-1.000000000000000E+20
 20
-1.000000000000000E+20
 30
-1.000000000000000E+20
  9
$PLIMMIN
 10
0.0
 20
0.0
  9
$PLIMMAX
 10
420.0
 20
297.0
  9
$UNITMODE
 70
     0
  9
$VISRETAIN
 70
     0
  9
$PLINEGEN
 70
     0
  9
$PSLTSCALE
 70
     1
  9
$TREEDEPTH
 70
  3020
  9
$CMLSTYLE
  2
STANDARD
  9
$CMLJUST
 70
     0
  9
$CMLSCALE
 40
1.0
  9
$PROXYGRAPHICS
 70
     1
  9
$MEASUREMENT
 70
     0
  9
$CELWEIGHT
370
    -1
  9
$ENDCAPS
280
     0
  9
$JOINSTYLE
280
     0
  9
$LWDISPLAY
290
     0
  9
$INSUNITS
 70
     0
  9
$HYPERLINKBASE
  1

  9
$STYLESHEET
  1

  9
$XEDIT
290
     1
  9
$CEPSNTYPE
380
     0
  9
$PSTYLEMODE
290
     1
  9
$FINGERPRINTGUID
  2
{627E296F-AD1D-11D6-AAC6-0010A4A25215}
  9
$VERSIONGUID
  2
{627E2976-AD1D-11D6-AAC6-0010A4A25215}
  9
$EXTNAMES
290
     1
  9
$PSVPSCALE
 40
0.0
  9
$OLESTARTUP
290
     0
  0
ENDSEC
  0
SECTION
  2
CLASSES
  0
CLASS
  1
DICTIONARYVAR
  2
AcDbDictionaryVar
  3
AutoCAD 2000
 90
    32768
280
     0
281
     0
  0
CLASS
  1
LWPOLYLINE
  2
AcDbPolyline
  3
AutoCAD 2000
 90
    32768
280
     0
281
     1
  0
CLASS
  1
ACDBDICTIONARYWDFLT
  2
AcDbDictionaryWithDefault
  3
AutoCAD 2000
 90
        0
280
     0
281
     0
  0
CLASS
  1
ACDBPLACEHOLDER
  2
AcDbPlaceHolder
  3
AutoCAD 2000
 90
        0
280
     0
281
     0
  0
CLASS
  1
LAYOUT
  2
AcDbLayout
  3
AutoCAD 2000
 90
        0
280
     0
281
     0
  0
ENDSEC
  0
SECTION
  2
TABLES
  0
TABLE
  2
VPORT
  5
12
330
0
100
AcDbSymbolTable
 70
     3
  0
VPORT
  5
9A
330
12
100
AcDbSymbolTableRecord
100
AcDbViewportTableRecord
  2
*Active
 70
     0
 10
0.0
 20
0.0
 11
1.0
 21
1.0
 12
253.1006509542804
 22
-67.85454787960976
 13
0.0
 23
0.0
 14
5.0
 24
5.0
 15
10.0
 25
10.0
 16
0.0
 26
0.0
 36
1.0
 17
0.0
 27
0.0
 37
0.0
 40
520.3216919661427
 41
1.760948905109489
 42
50.0
 43
0.0
 44
0.0
 50
0.0
 51
0.0
 71
     0
 72
   100
 73
     1
 74
     1
 75
     0
 76
     0
 77
     0
 78
     0
281
     0
 65
     1
110
0.0
120
0.0
130
0.0
111
1.0
121
0.0
131
0.0
112
0.0
122
1.0
132
0.0
 79
     0
146
0.0
  0
ENDTAB
  0
TABLE
  2
LTYPE
  5
D
330
0
100
AcDbSymbolTable
 70
     2
  0
LTYPE
  5
E
330
D
100
AcDbSymbolTableRecord
100
AcDbLinetypeTableRecord
  2
BYBLOCK
 70
     0
  3

 72
    65
 73
     0
 40
0.0
  0
LTYPE
  5
F
330
D
100
AcDbSymbolTableRecord
100
AcDbLinetypeTableRecord
  2
BYLAYER
 70
     0
  3

 72
    65
 73
     0
 40
0.0
  0
LTYPE
  5
5
330
D
100
AcDbSymbolTableRecord
100
AcDbLinetypeTableRecord
  2
CONTINUOUS
 70
     0
  3
Solid line
 72
    65
 73
     0
 40
0.0
  0
LTYPE
  5
36
330
D
100
AcDbSymbolTableRecord
100
AcDbLinetypeTableRecord
  2
CENTER2
 70
     0
  3
___ _ ___ _ ___ _ ___ _ ___ _ ___ _ ___ _ ___ _
 72
    65
 73
     4
 40
28.57499999999999
 49
19.05
 74
     0
 49
-3.174999999999999
 74
     0
 49
3.174999999999999
 74
     0
 49
-3.174999999999999
 74
     0
  0
ENDTAB
  0
TABLE
  2
LAYER
  5
A
330
0
100
AcDbSymbolTable
 70
     8
  0
LAYER
  5
4
330
A
100
AcDbSymbolTableRecord
100
AcDbLayerTableRecord
  2
0
 70
     0
 62
     7
  6
CONTINUOUS
370
    -3
390
91
  0
LAYER
  5
35
330
A
100
AcDbSymbolTableRecord
100
AcDbLayerTableRecord
  2
DIMS
 70
     0
 62
     1
  6
CONTINUOUS
370
    -3
390
91
  0
LAYER
  5
1B
330
A
100
AcDbSymbolTableRecord
100
AcDbLayerTableRecord
  2
ANCON-DSD
 70
     0
 62
     3
  6
CONTINUOUS
370
    -3
390
91
  0
LAYER
  5
49
330
A
100
AcDbSymbolTableRecord
100
AcDbLayerTableRecord
  2
DEFPOINTS
 70
     0
 62
     7
  6
CONTINUOUS
290
     0
370
    -3
390
91
  0
LAYER
  5
61
330
A
100
AcDbSymbolTableRecord
100
AcDbLayerTableRecord
  2
ORIGIN
 70
     0
 62
     7
  6
CONTINUOUS
370
    -3
390
91
  0
LAYER
  5
27
330
A
100
AcDbSymbolTableRecord
100
AcDbLayerTableRecord
  2
ANCON-TEXT
 70
     0
 62
     6
  6
CONTINUOUS
370
    -3
390
91
  0
LAYER
  5
6C
330
A
100
AcDbSymbolTableRecord
100
AcDbLayerTableRecord
  2
SPECP
 70
     0
 62
     6
  6
CONTINUOUS
370
    -3
390
91
  0
LAYER
  5
20
330
A
100
AcDbSymbolTableRecord
100
AcDbLayerTableRecord
  2
SPECD
 70
     0
 62
     6
  6
CONTINUOUS
370
    -3
390
91
  0
ENDTAB
  0
TABLE
  2
STYLE
  5
B
330
0
100
AcDbSymbolTable
 70
     2
  0
STYLE
  5
C
330
B
100
AcDbSymbolTableRecord
100
AcDbTextStyleTableRecord
  2
STANDARD
 70
     0
 40
0.0
 41
1.0
 50
0.0
 71
     0
 42
6.0
  3
txt.shx
  4

  0
STYLE
  5
1C
330
B
100
AcDbSymbolTableRecord
100
AcDbTextStyleTableRecord
  2
ROMANS
 70
     0
 40
0.0
 41
1.0
 50
0.0
 71
     0
 42
5.0
  3
romans
  4

  0
ENDTAB
  0
TABLE
  2
VIEW
  5
10
330
0
100
AcDbSymbolTable
 70
     0
  0
ENDTAB
  0
TABLE
  2
UCS
  5
11
330
0
100
AcDbSymbolTable
 70
     0
  0
ENDTAB
  0
TABLE
  2
APPID
  5
14
330
0
100
AcDbSymbolTable
 70
     1
  0
APPID
  5
15
330
14
100
AcDbSymbolTableRecord
100
AcDbRegAppTableRecord
  2
ACAD
 70
     0
  0
ENDTAB
  0
TABLE
  2
DIMSTYLE
  5
16
330
0
100
AcDbSymbolTable
 70
     1
100
AcDbDimStyleTable
 71
     0
  0
DIMSTYLE
105
1E
102
{ACAD_REACTORS
330
50
330
40
102
}
330
16
100
AcDbSymbolTableRecord
100
AcDbDimStyleTableRecord
  2
1-2
 70
     0
 40
0.0
 41
4.0
 42
3.0
 43
10.0
 44
3.0
 46
1.25
 73
     0
 74
     0
 77
     1
 78
    12
140
3.0
141
-3.0
143
0.039
145
1.5
146
0.75
147
1.5
271
     2
272
     2
279
     2
284
    12
285
    12
286
    12
340
1C
  0
ENDTAB
  0
TABLE
  2
BLOCK_RECORD
  5
1
330
0
100
AcDbSymbolTable
 70
     2
  0
BLOCK_RECORD
  5
2
330
1
100
AcDbSymbolTableRecord
100
AcDbBlockTableRecord
  2
*MODEL_SPACE
340
94
  0
BLOCK_RECORD
  5
7
330
1
100
AcDbSymbolTableRecord
100
AcDbBlockTableRecord
  2
*PAPER_SPACE
340
95
  0
BLOCK_RECORD
  5
41
330
1
100
AcDbSymbolTableRecord
100
AcDbBlockTableRecord
  2
*D0
340
0
  0
BLOCK_RECORD
  5
51
330
1
100
AcDbSymbolTableRecord
100
AcDbBlockTableRecord
  2
*D1
340
0
  0
ENDTAB
  0
ENDSEC
  0
SECTION
  2
BLOCKS
  0
BLOCK
  5
3
330
2
100
AcDbEntity
  8
0
100
AcDbBlockBegin
  2
*MODEL_SPACE
 70
     0
 10
0.0
 20
0.0
 30
0.0
  3
*MODEL_SPACE
  1

  0
ENDBLK
  5
6
330
2
100
AcDbEntity
  8
0
100
AcDbBlockEnd
  0
BLOCK
  5
8
330
7
100
AcDbEntity
 67
     1
  8
0
100
AcDbBlockBegin
  2
*PAPER_SPACE
 70
     0
 10
0.0
 20
0.0
 30
0.0
  3
*PAPER_SPACE
  1

  0
ENDBLK
  5
9
330
7
100
AcDbEntity
 67
     1
  8
0
100
AcDbBlockEnd
  0
BLOCK
  5
4C
330
41
100
AcDbEntity
  8
0
100
AcDbBlockBegin
  2
*D0
 70
     1
 10
0.0
 20
0.0
 30
0.0
  3
*D0
  1

  0
LINE
  5
42
330
41
100
AcDbEntity
  8
0
  6
ByBlock
 62
     0
100
AcDbLine
 10
-74.99999999999994
 20
-9.99999999999995
 30
0.0
 11
-74.99999999999994
 21
-124.2316578599136
 31
0.0
  0
LINE
  5
43
330
41
100
AcDbEntity
  8
0
  6
ByBlock
 62
     0
100
AcDbLine
 10
75.00000000000006
 20
-9.99999999999995
 30
0.0
 11
75.00000000000006
 21
-124.2316578599136
 31
0.0
  0
LINE
  5
44
330
41
100
AcDbEntity
  8
0
  6
ByBlock
 62
     0
100
AcDbLine
 10
-70.99999999999994
 20
-121.2316578599136
 30
0.0
 11
71.00000000000005
 21
-121.2316578599136
 31
0.0
  0
SOLID
  5
45
330
41
100
AcDbEntity
  8
0
  6
ByBlock
 62
     0
100
AcDbTrace
 10
-70.99999999999994
 20
-120.5649911932469
 30
0.0
 11
-70.99999999999994
 21
-121.8983245265803
 31
0.0
 12
-74.99999999999994
 22
-121.2316578599136
 32
0.0
 13
-74.99999999999994
 23
-121.2316578599136
 33
0.0
  0
SOLID
  5
46
330
41
100
AcDbEntity
  8
0
  6
ByBlock
 62
     0
100
AcDbTrace
 10
71.00000000000005
 20
-120.5649911932469
 30
0.0
 11
71.00000000000005
 21
-121.8983245265803
 31
0.0
 12
75.00000000000006
 22
-121.2316578599136
 32
0.0
 13
75.00000000000006
 23
-121.2316578599136
 33
0.0
  0
TEXT
  5
47
330
41
100
AcDbEntity
  8
0
  6
ByBlock
 62
     0
100
AcDbText
 10
-4.499999999999943
 20
-119.7316578599136
 30
0.0
 40
3.0
  1
150
  7
ROMANS
 72
     1
 11
0.0000000000000568
 21
-118.2316578599136
 31
0.0
100
AcDbText
 73
     2
  0
POINT
  5
48
330
41
100
AcDbEntity
  8
DEFPOINTS
  6
ByBlock
 62
     0
100
AcDbPoint
 10
-74.99999999999994
 20
-6.999999999999951
 30
0.0
  0
POINT
  5
4A
330
41
100
AcDbEntity
  8
DEFPOINTS
  6
ByBlock
 62
     0
100
AcDbPoint
 10
75.00000000000006
 20
-6.999999999999951
 30
0.0
  0
POINT
  5
4B
330
41
100
AcDbEntity
  8
DEFPOINTS
  6
ByBlock
 62
     0
100
AcDbPoint
 10
75.00000000000006
 20
-121.2316578599136
 30
0.0
  0
ENDBLK
  5
4D
330
41
100
AcDbEntity
  8
0
100
AcDbBlockEnd
  0
BLOCK
  5
5B
330
51
100
AcDbEntity
  8
0
100
AcDbBlockBegin
  2
*D1
 70
     1
 10
0.0
 20
0.0
 30
0.0
  3
*D1
  1

  0
LINE
  5
52
330
51
100
AcDbEntity
  8
0
  6
ByBlock
 62
     0
100
AcDbLine
 10
-39.99999999999993
 20
-77.99999999999994
 30
0.0
 11
-39.99999999999993
 21
-106.9735733499638
 31
0.0
  0
LINE
  5
53
330
51
100
AcDbEntity
  8
0
  6
ByBlock
 62
     0
100
AcDbLine
 10
40.00000000000006
 20
-77.99999999999994
 30
0.0
 11
40.00000000000006
 21
-106.9735733499638
 31
0.0
  0
LINE
  5
54
330
51
100
AcDbEntity
  8
0
  6
ByBlock
 62
     0
100
AcDbLine
 10
-35.99999999999993
 20
-103.9735733499638
 30
0.0
 11
36.00000000000005
 21
-103.9735733499638
 31
0.0
  0
SOLID
  5
55
330
51
100
AcDbEntity
  8
0
  6
ByBlock
 62
     0
100
AcDbTrace
 10
-35.99999999999993
 20
-103.3069066832972
 30
0.0
 11
-35.99999999999993
 21
-104.6402400166305
 31
0.0
 12
-39.99999999999993
 22
-103.9735733499638
 32
0.0
 13
-39.99999999999993
 23
-103.9735733499638
 33
0.0
  0
SOLID
  5
56
330
51
100
AcDbEntity
  8
0
  6
ByBlock
 62
     0
100
AcDbTrace
 10
36.00000000000005
 20
-103.3069066832972
 30
0.0
 11
36.00000000000005
 21
-104.6402400166305
 31
0.0
 12
40.00000000000006
 22
-103.9735733499638
 32
0.0
 13
40.00000000000006
 23
-103.9735733499638
 33
0.0
  0
TEXT
  5
57
330
51
100
AcDbEntity
  8
0
  6
ByBlock
 62
     0
100
AcDbText
 10
-2.857142857142796
 20
-102.4735733499638
 30
0.0
 40
3.0
  1
80
  7
ROMANS
 72
     1
 11
0.0000000000000604
 21
-100.9735733499638
 31
0.0
100
AcDbText
 73
     2
  0
POINT
  5
58
330
51
100
AcDbEntity
  8
DEFPOINTS
  6
ByBlock
 62
     0
100
AcDbPoint
 10
-39.99999999999993
 20
-74.99999999999994
 30
0.0
  0
POINT
  5
59
330
51
100
AcDbEntity
  8
DEFPOINTS
  6
ByBlock
 62
     0
100
AcDbPoint
 10
40.00000000000006
 20
-74.99999999999994
 30
0.0
  0
POINT
  5
5A
330
51
100
AcDbEntity
  8
DEFPOINTS
  6
ByBlock
 62
     0
100
AcDbPoint
 10
40.00000000000006
 20
-103.9735733499638
 30
0.0
  0
ENDBLK
  5
5C
330
51
100
AcDbEntity
  8
0
100
AcDbBlockEnd
  0
ENDSEC
  0
SECTION
  2
ENTITIES
  0
TEXT
  5
1F
330
2
100
AcDbEntity
  8
SPECD
 62
     6
100
AcDbText
 10
39.02524183983074
 20
-201.8496950392429
 30
0.0
 40
5.0
  1
TWO PART STAINLESS STEEL SHEAR CONNECTOR
  7
ROMANS
 72
     4
 11
131.6442894588785
 21
-199.3496950392429
 31
0.0
100
AcDbText
  0
TEXT
  5
21
330
2
100
AcDbEntity
  8
SPECD
 62
     6
100
AcDbText
 10
38.30405743377491
 20
-211.9544073650335
 30
0.0
 40
5.0
  1
COMPRISING SLEEVE AND DOWEL COMPONENT
  7
ROMANS
 72
     4
 11
126.2802479099654
 21
-209.4544073650335
 31
0.0
100
AcDbText
  0
TEXT
  5
22
330
2
100
AcDbEntity
  8
SPECD
 62
     6
100
AcDbText
 10
38.81718936378261
 20
-231.9046124886323
 30
0.0
 40
5.0
  1
AND CAPABLE OF TRANSFERRING A SERVICEABILITY
  7
ROMANS
 72
     4
 11
136.1981417447349
 21
-229.4046124886323
 31
0.0
100
AcDbText
  0
LINE
  5
23
330
2
100
AcDbEntity
  8
SPECD
 62
     6
100
AcDbLine
 10
34.73350863499109
 20
-245.6425880850232
 30
0.0
 11
237.2204587416315
 21
-245.6425880850232
 31
0.0
  0
LINE
  5
24
330
2
100
AcDbEntity
  8
SPECD
 62
     6
100
AcDbLine
 10
34.73350863499109
 20
-192.6088954994729
 30
0.0
 11
237.2204587416315
 21
-192.6088954994729
 31
0.0
  0
TEXT
  5
25
330
2
100
AcDbEntity
  8
SPECD
 62
     6
100
AcDbText
 10
38.36275419383255
 20
-221.8555550747033
 30
0.0
 40
5.0
  1
SUITABLE FOR A DESIGN JOINT WIDTH OF ?? MM
  7
ROMANS
 72
     4
 11
133.2437065747849
 21
-219.3555550747033
 31
0.0
100
AcDbText
  0
LINE
  5
26
330
2
100
AcDbEntity
  8
ANCON-TEXT
 62
     6
100
AcDbLine
 10
64.90408989432032
 20
23.51730262385169
 30
0.0
 11
240.2827675861828
 21
23.51730262385166
 31
0.0
  0
LINE
  5
28
330
2
100
AcDbEntity
  8
ANCON-TEXT
 62
     6
100
AcDbLine
 10
64.90408989432035
 20
50.5447876988988
 30
0.0
 11
240.2827675861828
 21
50.5447876988988
 31
0.0
  0
LINE
  5
29
330
2
100
AcDbEntity
  8
ANCON-TEXT
 62
     6
100
AcDbLine
 10
64.90408989432032
 20
76.61554875794448
 30
0.0
 11
240.2827675861828
 21
76.61554875794445
 31
0.0
  0
TEXT
  5
2A
330
2
100
AcDbEntity
  8
ANCON-TEXT
 62
     6
100
AcDbText
 10
120.0077582592092
 20
66.34983259840282
 30
0.0
 40
5.0
  1
DESIGN JOINT
  7
ROMANS
 72
     4
 11
146.0791868306378
 21
68.84983259840282
 31
0.0
100
AcDbText
  0
LINE
  5
2B
330
2
100
AcDbEntity
  8
ANCON-DSD
  6
Continuous
100
AcDbLine
 10
-22.99999999999994
 20
50.50000000000005
 30
0.0
 11
-22.99999999999994
 21
24.50000000000005
 31
0.0
  0
LINE
  5
2C
330
2
100
AcDbEntity
  8
ANCON-DSD
  6
Continuous
100
AcDbLine
 10
23.00000000000006
 20
50.50000000000006
 30
0.0
 11
23.00000000000006
 21
24.50000000000005
 31
0.0
  0
LINE
  5
2D
330
2
100
AcDbEntity
  8
ANCON-DSD
  6
Continuous
100
AcDbLine
 10
-24.99999999999994
 20
52.50000000000005
 30
0.0
 11
-24.99999999999994
 21
22.50000000000005
 31
0.0
  0
LINE
  5
2E
330
2
100
AcDbEntity
  8
ANCON-DSD
  6
Continuous
100
AcDbLine
 10
25.00000000000006
 20
52.50000000000006
 30
0.0
 11
25.00000000000006
 21
22.50000000000005
 31
0.0
  0
CIRCLE
  5
2F
330
2
100
AcDbEntity
  8
ANCON-DSD
100
AcDbCircle
 10
0.0000000000000568
 20
37.50000000000005
 30
0.0
 40
12.7
  0
LINE
  5
30
330
2
100
AcDbEntity
  8
ANCON-TEXT
 62
     6
100
AcDbLine
 10
64.90408989432035
 20
76.61554875794445
 30
0.0
 11
64.90408989432035
 21
23.51730262385166
 31
0.0
  0
LINE
  5
31
330
2
100
AcDbEntity
  8
ANCON-TEXT
 62
     6
100
AcDbLine
 10
114.9040898943203
 20
76.61554875794445
 30
0.0
 11
114.9040898943203
 21
23.51730262385166
 31
0.0
  0
LINE
  5
32
330
2
100
AcDbEntity
  8
ANCON-DSD
100
AcDbLine
 10
40.00000000000006
 20
75.00000000000006
 30
0.0
 11
40.00000000000006
 21
-74.99999999999994
 31
0.0
  0
LINE
  5
33
330
2
100
AcDbEntity
  8
ANCON-DSD
100
AcDbLine
 10
-39.99999999999993
 20
75.00000000000006
 30
0.0
 11
-39.99999999999993
 21
-74.99999999999994
 31
0.0
  0
LINE
  5
34
330
2
100
AcDbEntity
  8
DIMS
  6
CENTER2
100
AcDbLine
 10
0.0000000000000568
 20
85.00000000000005
 30
0.0
 11
0.0000000000000568
 21
-84.99999999999996
 31
0.0
  0
LINE
  5
37
330
2
100
AcDbEntity
  8
DIMS
  6
CENTER2
100
AcDbLine
 10
0.0000000000000568
 20
67.54559640919359
 30
0.0
 11
0.0000000000000568
 21
-60.94220269346863
 31
0.0
  0
LINE
  5
38
330
2
100
AcDbEntity
  8
ANCON-DSD
  6
Continuous
100
AcDbLine
 10
-24.99999999999994
 20
-52.49999999999994
 30
0.0
 11
25.00000000000005
 21
-52.49999999999994
 31
0.0
  0
LINE
  5
39
330
2
100
AcDbEntity
  8
ANCON-DSD
  6
Continuous
100
AcDbLine
 10
-22.99999999999994
 20
-50.49999999999994
 30
0.0
 11
23.00000000000006
 21
-50.49999999999994
 31
0.0
  0
LINE
  5
3A
330
2
100
AcDbEntity
  8
ANCON-DSD
  6
Continuous
100
AcDbLine
 10
-24.99999999999994
 20
-22.49999999999995
 30
0.0
 11
25.00000000000005
 21
-22.49999999999994
 31
0.0
  0
LINE
  5
3B
330
2
100
AcDbEntity
  8
ANCON-DSD
  6
Continuous
100
AcDbLine
 10
-22.99999999999994
 20
-24.49999999999995
 30
0.0
 11
23.00000000000006
 21
-24.49999999999994
 31
0.0
  0
LINE
  5
3C
330
2
100
AcDbEntity
  8
ANCON-DSD
  6
Continuous
100
AcDbLine
 10
-22.99999999999994
 20
24.50000000000005
 30
0.0
 11
23.00000000000006
 21
24.50000000000005
 31
0.0
  0
LINE
  5
3D
330
2
100
AcDbEntity
  8
ANCON-DSD
  6
Continuous
100
AcDbLine
 10
-24.99999999999994
 20
22.50000000000005
 30
0.0
 11
25.00000000000005
 21
22.50000000000005
 31
0.0
  0
CIRCLE
  5
3E
330
2
100
AcDbEntity
  8
ANCON-DSD
100
AcDbCircle
 10
0.0000000000000568
 20
-37.49999999999994
 30
0.0
 40
11.45
  0
CIRCLE
  5
3F
330
2
100
AcDbEntity
  8
ANCON-DSD
100
AcDbCircle
 10
0.0000000000000568
 20
-37.49999999999994
 30
0.0
 40
12.7
  0
DIMENSION
  5
40
330
2
100
AcDbEntity
  8
DIMS
100
AcDbDimension
  2
*D0
 10
75.00000000000006
 20
-121.2316578599136
 30
0.0
 11
0.0000000000000568
 21
-118.2316578599136
 31
0.0
 71
     5
 42
-1.0
  3
1-2
100
AcDbAlignedDimension
 13
-74.99999999999994
 23
-6.999999999999951
 33
0.0
 14
75.00000000000006
 24
-6.999999999999951
 34
0.0
100
AcDbRotatedDimension
  0
TEXT
  5
4E
330
2
100
AcDbEntity
  8
DIMS
 62
     1
100
AcDbText
 10
-92.69522704629546
 20
-201.8139464127187
 30
0.0
 40
5.0
  1
SPECIFICATION BY DESCRIPTION
  7
ROMANS
 72
     4
 11
-33.05236990343832
 21
-199.3139464127187
 31
0.0
100
AcDbText
  0
TEXT
  5
4F
330
2
100
AcDbEntity
  8
DIMS
 62
     1
100
AcDbText
 10
-92.83886365592172
 20
-171.8794919482226
 30
0.0
 40
5.0
  1
SPECIFICATION BY PRODUCT
  7
ROMANS
 72
     4
 11
-39.38648270354079
 21
-169.3794919482226
 31
0.0
100
AcDbText
  0
DIMENSION
  5
50
330
2
100
AcDbEntity
  8
DIMS
100
AcDbDimension
  2
*D1
 10
40.00000000000006
 20
-103.9735733499638
 30
0.0
 11
0.0000000000000604
 21
-100.9735733499638
 31
0.0
 71
     5
 42
-1.0
  3
1-2
100
AcDbAlignedDimension
 13
-39.99999999999993
 23
-74.99999999999994
 33
0.0
 14
40.00000000000006
 24
-74.99999999999994
 34
0.0
100
AcDbRotatedDimension
  0
LINE
  5
5D
330
2
100
AcDbEntity
  8
DIMS
  6
CENTER2
100
AcDbLine
 10
-29.99999999999994
 20
-37.49999999999994
 30
0.0
 11
30.00000000000005
 21
-37.49999999999994
 31
0.0
  0
LINE
  5
5E
330
2
100
AcDbEntity
  8
ANCON-DSD
100
AcDbLine
 10
-39.99999999999993
 20
-74.99999999999994
 30
0.0
 11
40.00000000000006
 21
-74.99999999999994
 31
0.0
  0
LINE
  5
5F
330
2
100
AcDbEntity
  8
DIMS
  6
CENTER2
100
AcDbLine
 10
-79.99999999999992
 20
0.0000000000000568
 30
0.0
 11
80.00000000000005
 21
0.0000000000000568
 31
0.0
  0
LINE
  5
62
330
2
100
AcDbEntity
  8
DIMS
  6
CENTER2
100
AcDbLine
 10
-37.49999999999993
 20
-67.99999999999994
 30
0.0
 11
-28.49999999999993
 21
-67.99999999999994
 31
0.0
  0
LINE
  5
63
330
2
100
AcDbEntity
  8
DIMS
  6
CENTER2
100
AcDbLine
 10
-32.99999999999993
 20
-63.49999999999994
 30
0.0
 11
-32.99999999999993
 21
-72.49999999999994
 31
0.0
  0
CIRCLE
  5
64
330
2
100
AcDbEntity
  8
ANCON-DSD
100
AcDbCircle
 10
-32.99999999999993
 20
-67.99999999999994
 30
0.0
 40
2.5
  0
LINE
  5
65
330
2
100
AcDbEntity
  8
ANCON-DSD
  6
Continuous
100
AcDbLine
 10
-74.99999999999994
 20
-6.999999999999951
 30
0.0
 11
-39.99999999999993
 21
-6.999999999999971
 31
0.0
  0
LINE
  5
66
330
2
100
AcDbEntity
  8
ANCON-DSD
  6
Continuous
100
AcDbLine
 10
-74.99999999999994
 20
7.000000000000029
 30
0.0
 11
-39.99999999999993
 21
7.000000000000028
 31
0.0
  0
LINE
  5
67
330
2
100
AcDbEntity
  8
ANCON-DSD
  6
Continuous
100
AcDbLine
 10
-74.99999999999994
 20
7.000000000000028
 30
0.0
 11
-74.99999999999994
 21
-6.999999999999943
 31
0.0
  0
LINE
  5
68
330
2
100
AcDbEntity
  8
ANCON-DSD
  6
Continuous
100
AcDbLine
 10
-24.99999999999994
 20
-22.49999999999995
 30
0.0
 11
-24.99999999999994
 21
-52.49999999999994
 31
0.0
  0
LINE
  5
69
330
2
100
AcDbEntity
  8
ANCON-DSD
  6
Continuous
100
AcDbLine
 10
-22.99999999999994
 20
-24.49999999999995
 30
0.0
 11
-22.99999999999994
 21
-50.49999999999994
 31
0.0
  0
TEXT
  5
6A
330
2
100
AcDbEntity
  8
SPECD
 62
     6
100
AcDbText
 10
40.00297012012575
 20
-241.9395376535946
 30
0.0
 40
5.0
  1
LOAD OF ??? kN
  7
ROMANS
 72
     4
 11
72.62201773917337
 21
-239.4395376535946
 31
0.0
100
AcDbText
  0
LINE
  5
6B
330
2
100
AcDbEntity
  8
SPECP
 62
     6
100
AcDbLine
 10
34.73350863499109
 20
-163.242381832379
 30
0.0
 11
102.323359557753
 21
-163.242381832379
 31
0.0
  0
LINE
  5
6D
330
2
100
AcDbEntity
  8
SPECP
 62
     6
100
AcDbLine
 10
34.73350863499109
 20
-175.1603571243803
 30
0.0
 11
102.323359557753
 21
-175.1603571243803
 31
0.0
  0
TEXT
  5
6E
330
2
100
AcDbEntity
  8
SPECP
 62
     6
100
AcDbText
 10
39.2276183083832
 20
-171.8794919482226
 30
0.0
 40
5.0
  1
STAIFIX DSD ??
  7
ROMANS
 72
     4
 11
68.75142783219274
 21
-169.3794919482226
 31
0.0
100
AcDbText
  0
LINE
  5
6F
330
2
100
AcDbEntity
  8
SPECD
 62
     6
100
AcDbLine
 10
34.73350863499109
 20
-192.6088954994729
 30
0.0
 11
34.73350863499109
 21
-245.6425880850232
 31
0.0
  0
LINE
  5
70
330
2
100
AcDbEntity
  8
SPECP
 62
     6
100
AcDbLine
 10
34.73350863499109
 20
-163.242381832379
 30
0.0
 11
34.73350863499109
 21
-175.1603571243803
 31
0.0
  0
LINE
  5
71
330
2
100
AcDbEntity
  8
SPECP
 62
     6
100
AcDbLine
 10
102.323359557753
 20
-163.242381832379
 30
0.0
 11
102.323359557753
 21
-175.1603571243803
 31
0.0
  0
LINE
  5
72
330
2
100
AcDbEntity
  8
DIMS
  6
CENTER2
100
AcDbLine
 10
28.50000000000005
 20
-67.99999999999994
 30
0.0
 11
37.50000000000005
 21
-67.99999999999994
 31
0.0
  0
CIRCLE
  5
73
330
2
100
AcDbEntity
  8
ANCON-DSD
100
AcDbCircle
 10
33.00000000000006
 20
-67.99999999999994
 30
0.0
 40
2.5
  0
LINE
  5
74
330
2
100
AcDbEntity
  8
DIMS
  6
CENTER2
100
AcDbLine
 10
33.00000000000006
 20
-63.49999999999994
 30
0.0
 11
33.00000000000006
 21
-72.49999999999994
 31
0.0
  0
LINE
  5
75
330
2
100
AcDbEntity
  8
ANCON-DSD
  6
Continuous
100
AcDbLine
 10
40.00000000000006
 20
7.000000000000028
 30
0.0
 11
75.00000000000006
 21
7.000000000000029
 31
0.0
  0
LINE
  5
76
330
2
100
AcDbEntity
  8
ANCON-DSD
  6
Continuous
100
AcDbLine
 10
40.00000000000006
 20
-6.999999999999971
 30
0.0
 11
75.00000000000006
 21
-6.999999999999951
 31
0.0
  0
LINE
  5
77
330
2
100
AcDbEntity
  8
ANCON-DSD
  6
Continuous
100
AcDbLine
 10
23.00000000000006
 20
-24.49999999999994
 30
0.0
 11
23.00000000000006
 21
-50.49999999999994
 31
0.0
  0
LINE
  5
78
330
2
100
AcDbEntity
  8
ANCON-DSD
  6
Continuous
100
AcDbLine
 10
25.00000000000006
 20
-22.49999999999994
 30
0.0
 11
25.00000000000006
 21
-52.49999999999994
 31
0.0
  0
LINE
  5
79
330
2
100
AcDbEntity
  8
ANCON-DSD
  6
Continuous
100
AcDbLine
 10
75.00000000000006
 20
7.000000000000028
 30
0.0
 11
75.00000000000006
 21
-6.999999999999943
 31
0.0
  0
LINE
  5
7A
330
2
100
AcDbEntity
  8
ANCON-DSD
  6
Continuous
100
AcDbLine
 10
-22.99999999999994
 20
50.50000000000005
 30
0.0
 11
23.00000000000006
 21
50.50000000000006
 31
0.0
  0
LINE
  5
7B
330
2
100
AcDbEntity
  8
ANCON-DSD
  6
Continuous
100
AcDbLine
 10
-24.99999999999994
 20
52.50000000000005
 30
0.0
 11
25.00000000000005
 21
52.50000000000006
 31
0.0
  0
CIRCLE
  5
7C
330
2
100
AcDbEntity
  8
ANCON-DSD
100
AcDbCircle
 10
0.0000000000000568
 20
37.50000000000005
 30
0.0
 40
11.45
  0
LINE
  5
7D
330
2
100
AcDbEntity
  8
DIMS
  6
CENTER2
100
AcDbLine
 10
-29.99999999999994
 20
37.50000000000005
 30
0.0
 11
30.00000000000005
 21
37.50000000000005
 31
0.0
  0
LINE
  5
7E
330
2
100
AcDbEntity
  8
ANCON-DSD
100
AcDbLine
 10
-39.99999999999993
 20
75.00000000000006
 30
0.0
 11
40.00000000000006
 21
75.00000000000006
 31
0.0
  0
LINE
  5
7F
330
2
100
AcDbEntity
  8
DIMS
  6
CENTER2
100
AcDbLine
 10
-37.49999999999993
 20
68.00000000000006
 30
0.0
 11
-28.49999999999993
 21
68.00000000000006
 31
0.0
  0
CIRCLE
  5
80
330
2
100
AcDbEntity
  8
ANCON-DSD
100
AcDbCircle
 10
-32.99999999999993
 20
68.00000000000006
 30
0.0
 40
2.5
  0
LINE
  5
81
330
2
100
AcDbEntity
  8
DIMS
  6
CENTER2
100
AcDbLine
 10
-32.99999999999994
 20
72.50000000000006
 30
0.0
 11
-32.99999999999993
 21
63.50000000000005
 31
0.0
  0
TEXT
  5
82
330
2
100
AcDbEntity
  8
ANCON-TEXT
 62
     6
100
AcDbText
 10
73.90860162539664
 20
34.57095495504546
 30
0.0
 40
5.0
  1
DSDQ75
  7
ROMANS
 72
     4
 11
88.78955400634902
 21
36.83285971695022
 31
0.0
100
AcDbText
  0
TEXT
  5
83
330
2
100
AcDbEntity
  8
ANCON-TEXT
 62
     6
100
AcDbText
 10
72.09647404339171
 20
66.34983259840282
 30
0.0
 40
5.0
  1
DSD REF:
  7
ROMANS
 72
     4
 11
90.07266451958219
 21
68.84983259840282
 31
0.0
100
AcDbText
  0
CIRCLE
  5
84
330
2
100
AcDbEntity
  8
ANCON-DSD
100
AcDbCircle
 10
33.00000000000006
 20
68.00000000000006
 30
0.0
 40
2.5
  0
LINE
  5
85
330
2
100
AcDbEntity
  8
DIMS
  6
CENTER2
100
AcDbLine
 10
33.00000000000006
 20
72.50000000000006
 30
0.0
 11
33.00000000000006
 21
63.50000000000005
 31
0.0
  0
LINE
  5
86
330
2
100
AcDbEntity
  8
DIMS
  6
CENTER2
100
AcDbLine
 10
28.50000000000005
 20
68.00000000000006
 30
0.0
 11
37.50000000000005
 21
68.00000000000006
 31
0.0
  0
TEXT
  5
87
330
2
100
AcDbEntity
  8
ANCON-TEXT
 62
     6
100
AcDbText
 10
136.4086016253966
 20
34.33285971695022
 30
0.0
 40
5.0
  1
?? MM
  7
ROMANS
 72
     4
 11
148.789554006349
 21
36.83285971695022
 31
0.0
100
AcDbText
  0
TEXT
  5
88
330
2
100
AcDbEntity
  8
ANCON-TEXT
 62
     6
100
AcDbText
 10
135.4839487353997
 20
55.4522092107839
 30
0.0
 40
5.0
  1
WIDTH
  7
ROMANS
 72
     4
 11
146.0791868306378
 21
57.9522092107839
 31
0.0
100
AcDbText
  0
LINE
  5
89
330
2
100
AcDbEntity
  8
ANCON-TEXT
 62
     6
100
AcDbLine
 10
240.2827675861828
 20
76.61554875794445
 30
0.0
 11
240.2827675861828
 21
23.51730262385166
 31
0.0
  0
LINE
  5
8A
330
2
100
AcDbEntity
  8
ANCON-TEXT
 62
     6
100
AcDbLine
 10
175.4121834513831
 20
76.61554875794445
 30
0.0
 11
175.4121834513831
 21
23.51730262385166
 31
0.0
  0
LINE
  5
8B
330
2
100
AcDbEntity
  8
SPECD
 62
     6
100
AcDbLine
 10
237.2204587416315
 20
-192.6088954994729
 30
0.0
 11
237.2204587416315
 21
-245.6425880850232
 31
0.0
  0
TEXT
  5
8C
330
2
100
AcDbEntity
  8
ANCON-TEXT
 62
     6
100
AcDbText
 10
202.3609825777775
 20
34.33285971695022
 30
0.0
 40
5.0
  1
???
  7
ROMANS
 72
     4
 11
208.789554006349
 21
36.83285971695022
 31
0.0
100
AcDbText
  0
TEXT
  5
8D
330
2
100
AcDbEntity
  8
ANCON-TEXT
 62
     6
100
AcDbText
 10
180.9324111492061
 20
66.35466309553439
 30
0.0
 40
5.0
  1
SERVICEABILITY
  7
ROMANS
 72
     4
 11
208.789554006349
 21
68.85466309553439
 31
0.0
100
AcDbText
  0
TEXT
  5
8E
330
2
100
AcDbEntity
  8
ANCON-TEXT
 62
     6
100
AcDbText
 10
184.0276492444442
 20
55.41138415695604
 30
0.0
 40
5.0
  1
LOAD ( kN )
  7
ROMANS
 72
     4
 11
208.789554006349
 21
57.55424129981318
 31
0.0
100
AcDbText
  0
ENDSEC
  0
SECTION
  2
OBJECTS
  0
DICTIONARY
  5
1A
330
0
100
AcDbDictionary
281
     1
  3
ACAD_GROUP
350
18
  3
ACAD_LAYOUT
350
92
  3
ACAD_MLINESTYLE
350
19
  3
ACAD_PLOTSETTINGS
350
93
  3
ACAD_PLOTSTYLENAME
350
90
  0
DICTIONARY
  5
18
102
{ACAD_REACTORS
330
1A
102
}
330
1A
100
AcDbDictionary
281
     1
  0
DICTIONARY
  5
92
102
{ACAD_REACTORS
330
1A
102
}
330
1A
100
AcDbDictionary
281
     1
  3
Layout1
350
95
  3
Model
350
94
  0
DICTIONARY
  5
19
102
{ACAD_REACTORS
330
1A
102
}
330
1A
100
AcDbDictionary
281
     1
  3
STANDARD
350
1D
  0
DICTIONARY
  5
93
102
{ACAD_REACTORS
330
1A
102
}
330
1A
100
AcDbDictionary
281
     1
  0
ACDBDICTIONARYWDFLT
  5
90
102
{ACAD_REACTORS
330
1A
102
}
330
1A
100
AcDbDictionary
281
     1
  3
Normal
350
91
100
AcDbDictionaryWithDefault
340
91
  0
LAYOUT
  5
95
102
{ACAD_REACTORS
330
92
102
}
330
92
100
AcDbPlotSettings
  1

  2
Ancon 2
  4

  6

 40
0.0
 41
0.0
 42
0.0
 43
0.0
 44
0.0
 45
0.0
 46
0.0
 47
0.0
 48
0.0
 49
0.0
140
0.0
141
0.0
142
1.0
143
1.0
 70
   688
 72
     0
 73
     0
 74
     5
  7

 75
    16
147
1.0
148
0.0
149
0.0
100
AcDbLayout
  1
Layout1
 70
     1
 71
     1
 10
0.0
 20
0.0
 11
420.0
 21
297.0
 12
0.0
 22
0.0
 32
0.0
 14
1.000000000000000E+20
 24
1.000000000000000E+20
 34
1.000000000000000E+20
 15
-1.000000000000000E+20
 25
-1.000000000000000E+20
 35
-1.000000000000000E+20
146
0.0
 13
0.0
 23
0.0
 33
0.0
 16
1.0
 26
0.0
 36
0.0
 17
0.0
 27
1.0
 37
0.0
 76
     0
330
7
  0
LAYOUT
  5
94
102
{ACAD_REACTORS
330
92
102
}
330
92
100
AcDbPlotSettings
  1

  2
Ancon 2
  4

  6

 40
0.0
 41
0.0
 42
0.0
 43
0.0
 44
0.0
 45
0.0
 46
0.0
 47
0.0
 48
0.0
 49
0.0
140
0.0
141
0.0
142
1.0
143
1.0
 70
  1712
 72
     0
 73
     0
 74
     0
  7

 75
     0
147
1.0
148
0.0
149
0.0
100
AcDbLayout
  1
Model
 70
     1
 71
     0
 10
0.0
 20
0.0
 11
12.0
 21
9.0
 12
0.0
 22
0.0
 32
0.0
 14
0.0
 24
0.0
 34
0.0
 15
0.0
 25
0.0
 35
0.0
146
0.0
 13
0.0
 23
0.0
 33
0.0
 16
1.0
 26
0.0
 36
0.0
 17
0.0
 27
1.0
 37
0.0
 76
     0
330
2
  0
MLINESTYLE
  5
1D
102
{ACAD_REACTORS
330
19
102
}
330
19
100
AcDbMlineStyle
  2
STANDARD
 70
     0
  3

 62
   256
 51
90.0
 52
90.0
 71
     2
 49
0.5
 62
   256
  6
BYLAYER
 49
-0.5
 62
   256
  6
BYLAYER
  0
ACDBPLACEHOLDER
  5
91
102
{ACAD_REACTORS
330
90
102
}
330
90
  0
ENDSEC
  0
EOF
