  0
SECTION
  2
HEADER
  9
$ACADVER
  1
AC1015
  9
$ACADMAINTVER
 70
    10
  9
$DWGCODEPAGE
  3
ANSI_1252
  9
$INSBASE
 10
0.005704225939752
 20
-0.0000000000000036
 30
0.0
  9
$EXTMIN
 10
-187.4239559927059
 20
-342.3360769842261
 30
0.0
  9
$EXTMAX
 10
285.2589391463158
 20
140.0227939991174
 30
0.0
  9
$LIMMIN
 10
0.0
 20
0.0
  9
$LIMMAX
 10
420.0
 20
297.0
  9
$ORTHOMODE
 70
     1
  9
$REGENMODE
 70
     1
  9
$FILLMODE
 70
     1
  9
$QTEXTMODE
 70
     0
  9
$MIRRTEXT
 70
     1
  9
$LTSCALE
 40
0.25
  9
$ATTMODE
 70
     1
  9
$TEXTSIZE
 40
5.0
  9
$TRACEWID
 40
10.0
  9
$TEXTSTYLE
  7
ROMANS
  9
$CLAYER
  8
ANCON-DSD
  9
$CELTYPE
  6
BYLAYER
  9
$CECOLOR
 62
   256
  9
$CELTSCALE
 40
1.0
  9
$DISPSILH
 70
     0
  9
$DIMSCALE
 40
2.0
  9
$DIMASZ
 40
2.0
  9
$DIMEXO
 40
2.25
  9
$DIMDLI
 40
0.0
  9
$DIMRND
 40
0.5
  9
$DIMDLE
 40
0.0
  9
$DIMEXE
 40
1.5
  9
$DIMTP
 40
0.0
  9
$DIMTM
 40
0.0
  9
$DIMTXT
 40
1.8
  9
$DIMCEN
 40
0.0
  9
$DIMTSZ
 40
0.0
  9
$DIMTOL
 70
     0
  9
$DIMLIM
 70
     0
  9
$DIMTIH
 70
     0
  9
$DIMTOH
 70
     0
  9
$DIMSE1
 70
     0
  9
$DIMSE2
 70
     0
  9
$DIMTAD
 70
     1
  9
$DIMZIN
 70
    12
  9
$DIMBLK
  1

  9
$DIMASO
 70
     1
  9
$DIMSHO
 70
     0
  9
$DIMPOST
  1

  9
$DIMAPOST
  1

  9
$DIMALT
 70
     0
  9
$DIMALTD
 70
     0
  9
$DIMALTF
 40
25.4
  9
$DIMLFAC
 40
1.0
  9
$DIMTOFL
 70
     0
  9
$DIMTVP
 40
0.0
  9
$DIMTIX
 70
     0
  9
$DIMSOXD
 70
     0
  9
$DIMSAH
 70
     0
  9
$DIMBLK1
  1

  9
$DIMBLK2
  1

  9
$DIMSTYLE
  2
1-2
  9
$DIMCLRD
 70
     0
  9
$DIMCLRE
 70
     0
  9
$DIMCLRT
 70
     0
  9
$DIMTFAC
 40
1.25
  9
$DIMGAP
 40
0.1
  9
$DIMJUST
 70
     0
  9
$DIMSD1
 70
     0
  9
$DIMSD2
 70
     0
  9
$DIMTOLJ
 70
     1
  9
$DIMTZIN
 70
    12
  9
$DIMALTZ
 70
    12
  9
$DIMALTTZ
 70
    12
  9
$DIMUPT
 70
     0
  9
$DIMDEC
 70
     2
  9
$DIMTDEC
 70
     2
  9
$DIMALTU
 70
     2
  9
$DIMALTTD
 70
     0
  9
$DIMTXSTY
  7
ROMANS
  9
$DIMAUNIT
 70
     0
  9
$DIMADEC
 70
     0
  9
$DIMALTRND
 40
0.0
  9
$DIMAZIN
 70
     0
  9
$DIMDSEP
 70
    46
  9
$DIMATFIT
 70
     3
  9
$DIMFRAC
 70
     0
  9
$DIMLDRBLK
  1

  9
$DIMLUNIT
 70
     2
  9
$DIMLWD
 70
    -2
  9
$DIMLWE
 70
    -2
  9
$DIMTMOVE
 70
     2
  9
$LUNITS
 70
     2
  9
$LUPREC
 70
     2
  9
$SKETCHINC
 40
1.0
  9
$FILLETRAD
 40
0.0
  9
$AUNITS
 70
     0
  9
$AUPREC
 70
     4
  9
$MENU
  1
acad
  9
$ELEVATION
 40
0.0
  9
$PELEVATION
 40
0.0
  9
$THICKNESS
 40
0.0
  9
$LIMCHECK
 70
     0
  9
$CHAMFERA
 40
0.0
  9
$CHAMFERB
 40
0.0
  9
$CHAMFERC
 40
0.0
  9
$CHAMFERD
 40
0.0
  9
$SKPOLY
 70
     0
  9
$TDCREATE
 40
2449527.571155092
  9
$TDUCREATE
 40
2449527.529488425
  9
$TDUPDATE
 40
2452498.553688310
  9
$TDUUPDATE
 40
2452498.512021643
  9
$TDINDWG
 40
0.2993711806
  9
$TDUSRTIMER
 40
0.2993711806
  9
$USRTIMER
 70
     1
  9
$ANGBASE
 50
0.0
  9
$ANGDIR
 70
     0
  9
$PDMODE
 70
     0
  9
$PDSIZE
 40
0.0
  9
$PLINEWID
 40
0.0
  9
$SPLFRAME
 70
     0
  9
$SPLINETYPE
 70
     6
  9
$SPLINESEGS
 70
     8
  9
$HANDSEED
  5
9D
  9
$SURFTAB1
 70
    18
  9
$SURFTAB2
 70
    18
  9
$SURFTYPE
 70
     6
  9
$SURFU
 70
    18
  9
$SURFV
 70
    18
  9
$UCSBASE
  2

  9
$UCSNAME
  2

  9
$UCSORG
 10
0.0
 20
0.0
 30
0.0
  9
$UCSXDIR
 10
1.0
 20
0.0
 30
0.0
  9
$UCSYDIR
 10
0.0
 20
1.0
 30
0.0
  9
$UCSORTHOREF
  2

  9
$UCSORTHOVIEW
 70
     0
  9
$UCSORGTOP
 10
0.0
 20
0.0
 30
0.0
  9
$UCSORGBOTTOM
 10
0.0
 20
0.0
 30
0.0
  9
$UCSORGLEFT
 10
0.0
 20
0.0
 30
0.0
  9
$UCSORGRIGHT
 10
0.0
 20
0.0
 30
0.0
  9
$UCSORGFRONT
 10
0.0
 20
0.0
 30
0.0
  9
$UCSORGBACK
 10
0.0
 20
0.0
 30
0.0
  9
$PUCSBASE
  2

  9
$PUCSNAME
  2

  9
$PUCSORG
 10
0.0
 20
0.0
 30
0.0
  9
$PUCSXDIR
 10
1.0
 20
0.0
 30
0.0
  9
$PUCSYDIR
 10
0.0
 20
1.0
 30
0.0
  9
$PUCSORTHOREF
  2

  9
$PUCSORTHOVIEW
 70
     0
  9
$PUCSORGTOP
 10
0.0
 20
0.0
 30
0.0
  9
$PUCSORGBOTTOM
 10
0.0
 20
0.0
 30
0.0
  9
$PUCSORGLEFT
 10
0.0
 20
0.0
 30
0.0
  9
$PUCSORGRIGHT
 10
0.0
 20
0.0
 30
0.0
  9
$PUCSORGFRONT
 10
0.0
 20
0.0
 30
0.0
  9
$PUCSORGBACK
 10
0.0
 20
0.0
 30
0.0
  9
$USERI1
 70
     0
  9
$USERI2
 70
     0
  9
$USERI3
 70
     0
  9
$USERI4
 70
     0
  9
$USERI5
 70
     0
  9
$USERR1
 40
0.0
  9
$USERR2
 40
0.0
  9
$USERR3
 40
0.0
  9
$USERR4
 40
0.0
  9
$USERR5
 40
0.0
  9
$WORLDVIEW
 70
     1
  9
$SHADEDGE
 70
     3
  9
$SHADEDIF
 70
    70
  9
$TILEMODE
 70
     1
  9
$MAXACTVP
 70
    16
  9
$PINSBASE
 10
0.0
 20
0.0
 30
0.0
  9
$PLIMCHECK
 70
     0
  9
$PEXTMIN
 10
1.000000000000000E+20
 20
1.000000000000000E+20
 30
1.000000000000000E+20
  9
$PEXTMAX
 10
-1.000000000000000E+20
 20
-1.000000000000000E+20
 30
-1.000000000000000E+20
  9
$PLIMMIN
 10
0.0
 20
0.0
  9
$PLIMMAX
 10
420.0
 20
297.0
  9
$UNITMODE
 70
     0
  9
$VISRETAIN
 70
     0
  9
$PLINEGEN
 70
     0
  9
$PSLTSCALE
 70
     1
  9
$TREEDEPTH
 70
  3020
  9
$CMLSTYLE
  2
STANDARD
  9
$CMLJUST
 70
     0
  9
$CMLSCALE
 40
1.0
  9
$PROXYGRAPHICS
 70
     1
  9
$MEASUREMENT
 70
     0
  9
$CELWEIGHT
370
    -1
  9
$ENDCAPS
280
     0
  9
$JOINSTYLE
280
     0
  9
$LWDISPLAY
290
     0
  9
$INSUNITS
 70
     0
  9
$HYPERLINKBASE
  1

  9
$STYLESHEET
  1

  9
$XEDIT
290
     1
  9
$CEPSNTYPE
380
     0
  9
$PSTYLEMODE
290
     1
  9
$FINGERPRINTGUID
  2
{627E290B-AD1D-11D6-AAC6-0010A4A25215}
  9
$VERSIONGUID
  2
{627E2912-AD1D-11D6-AAC6-0010A4A25215}
  9
$EXTNAMES
290
     1
  9
$PSVPSCALE
 40
0.0
  9
$OLESTARTUP
290
     0
  0
ENDSEC
  0
SECTION
  2
CLASSES
  0
CLASS
  1
DICTIONARYVAR
  2
AcDbDictionaryVar
  3
AutoCAD 2000
 90
    32768
280
     0
281
     0
  0
CLASS
  1
LWPOLYLINE
  2
AcDbPolyline
  3
AutoCAD 2000
 90
    32768
280
     0
281
     1
  0
CLASS
  1
ACDBDICTIONARYWDFLT
  2
AcDbDictionaryWithDefault
  3
AutoCAD 2000
 90
        0
280
     0
281
     0
  0
CLASS
  1
ACDBPLACEHOLDER
  2
AcDbPlaceHolder
  3
AutoCAD 2000
 90
        0
280
     0
281
     0
  0
CLASS
  1
LAYOUT
  2
AcDbLayout
  3
AutoCAD 2000
 90
        0
280
     0
281
     0
  0
ENDSEC
  0
SECTION
  2
TABLES
  0
TABLE
  2
VPORT
  5
12
330
0
100
AcDbSymbolTable
 70
     3
  0
VPORT
  5
9C
330
12
100
AcDbSymbolTableRecord
100
AcDbViewportTableRecord
  2
*Active
 70
     0
 10
0.0
 20
0.0
 11
1.0
 21
1.0
 12
307.6547360179688
 22
-107.7450828248474
 13
0.0
 23
0.0
 14
5.0
 24
5.0
 15
10.0
 25
10.0
 16
0.0
 26
0.0
 36
1.0
 17
0.0
 27
0.0
 37
0.0
 40
733.0142926623757
 41
1.760948905109489
 42
50.0
 43
0.0
 44
0.0
 50
0.0
 51
0.0
 71
     0
 72
   100
 73
     1
 74
     1
 75
     0
 76
     0
 77
     0
 78
     0
281
     0
 65
     1
110
0.0
120
0.0
130
0.0
111
1.0
121
0.0
131
0.0
112
0.0
122
1.0
132
0.0
 79
     0
146
0.0
  0
ENDTAB
  0
TABLE
  2
LTYPE
  5
D
330
0
100
AcDbSymbolTable
 70
     2
  0
LTYPE
  5
E
330
D
100
AcDbSymbolTableRecord
100
AcDbLinetypeTableRecord
  2
BYBLOCK
 70
     0
  3

 72
    65
 73
     0
 40
0.0
  0
LTYPE
  5
F
330
D
100
AcDbSymbolTableRecord
100
AcDbLinetypeTableRecord
  2
BYLAYER
 70
     0
  3

 72
    65
 73
     0
 40
0.0
  0
LTYPE
  5
5
330
D
100
AcDbSymbolTableRecord
100
AcDbLinetypeTableRecord
  2
CONTINUOUS
 70
     0
  3
Solid line
 72
    65
 73
     0
 40
0.0
  0
LTYPE
  5
3A
330
D
100
AcDbSymbolTableRecord
100
AcDbLinetypeTableRecord
  2
CENTER2
 70
     0
  3
___ _ ___ _ ___ _ ___ _ ___ _ ___ _ ___ _ ___ _
 72
    65
 73
     4
 40
28.57499999999999
 49
19.05
 74
     0
 49
-3.174999999999999
 74
     0
 49
3.174999999999999
 74
     0
 49
-3.174999999999999
 74
     0
  0
ENDTAB
  0
TABLE
  2
LAYER
  5
A
330
0
100
AcDbSymbolTable
 70
     7
  0
LAYER
  5
4
330
A
100
AcDbSymbolTableRecord
100
AcDbLayerTableRecord
  2
0
 70
     0
 62
     7
  6
CONTINUOUS
370
    -3
390
92
  0
LAYER
  5
2B
330
A
100
AcDbSymbolTableRecord
100
AcDbLayerTableRecord
  2
DIMS
 70
     0
 62
     1
  6
CONTINUOUS
370
    -3
390
92
  0
LAYER
  5
1B
330
A
100
AcDbSymbolTableRecord
100
AcDbLayerTableRecord
  2
ANCON-DSD
 70
     0
 62
     3
  6
CONTINUOUS
370
    -3
390
92
  0
LAYER
  5
34
330
A
100
AcDbSymbolTableRecord
100
AcDbLayerTableRecord
  2
DEFPOINTS
 70
     0
 62
     7
  6
CONTINUOUS
290
     0
370
    -3
390
92
  0
LAYER
  5
4D
330
A
100
AcDbSymbolTableRecord
100
AcDbLayerTableRecord
  2
SPECP
 70
     0
 62
     6
  6
CONTINUOUS
370
    -3
390
92
  0
LAYER
  5
20
330
A
100
AcDbSymbolTableRecord
100
AcDbLayerTableRecord
  2
SPECD
 70
     0
 62
     6
  6
CONTINUOUS
370
    -3
390
92
  0
LAYER
  5
27
330
A
100
AcDbSymbolTableRecord
100
AcDbLayerTableRecord
  2
10MM-JOINT
 70
     0
 62
     7
  6
CONTINUOUS
370
    -3
390
92
  0
ENDTAB
  0
TABLE
  2
STYLE
  5
B
330
0
100
AcDbSymbolTable
 70
     2
  0
STYLE
  5
C
330
B
100
AcDbSymbolTableRecord
100
AcDbTextStyleTableRecord
  2
STANDARD
 70
     0
 40
0.0
 41
1.0
 50
0.0
 71
     0
 42
6.0
  3
txt.shx
  4

  0
STYLE
  5
1C
330
B
100
AcDbSymbolTableRecord
100
AcDbTextStyleTableRecord
  2
ROMANS
 70
     0
 40
0.0
 41
1.0
 50
0.0
 71
     0
 42
5.0
  3
romans
  4

  0
ENDTAB
  0
TABLE
  2
VIEW
  5
10
330
0
100
AcDbSymbolTable
 70
     0
  0
ENDTAB
  0
TABLE
  2
UCS
  5
11
330
0
100
AcDbSymbolTable
 70
     0
  0
ENDTAB
  0
TABLE
  2
APPID
  5
14
330
0
100
AcDbSymbolTable
 70
     1
  0
APPID
  5
15
330
14
100
AcDbSymbolTableRecord
100
AcDbRegAppTableRecord
  2
ACAD
 70
     0
  0
ENDTAB
  0
TABLE
  2
DIMSTYLE
  5
16
330
0
100
AcDbSymbolTable
 70
     1
100
AcDbDimStyleTable
 71
     0
  0
DIMSTYLE
105
1E
102
{ACAD_REACTORS
330
58
330
2A
330
3D
102
}
330
16
100
AcDbSymbolTableRecord
100
AcDbDimStyleTableRecord
  2
1-2
 70
     0
 40
2.0
 41
2.0
 42
2.25
 43
0.0
 44
1.5
 45
0.5
 73
     0
 74
     0
 77
     1
 78
    12
140
1.8
141
0.0
146
1.25
147
0.1
171
     0
271
     2
272
     2
274
     0
279
     2
284
    12
285
    12
286
    12
340
1C
  0
ENDTAB
  0
TABLE
  2
BLOCK_RECORD
  5
1
330
0
100
AcDbSymbolTable
 70
     3
  0
BLOCK_RECORD
  5
2
330
1
100
AcDbSymbolTableRecord
100
AcDbBlockTableRecord
  2
*MODEL_SPACE
340
95
  0
BLOCK_RECORD
  5
7
330
1
100
AcDbSymbolTableRecord
100
AcDbBlockTableRecord
  2
*PAPER_SPACE
340
96
  0
BLOCK_RECORD
  5
59
330
1
100
AcDbSymbolTableRecord
100
AcDbBlockTableRecord
  2
*D0
340
0
  0
BLOCK_RECORD
  5
3E
330
1
100
AcDbSymbolTableRecord
100
AcDbBlockTableRecord
  2
*D1
340
0
  0
BLOCK_RECORD
  5
2C
330
1
100
AcDbSymbolTableRecord
100
AcDbBlockTableRecord
  2
*D2
340
0
  0
ENDTAB
  0
ENDSEC
  0
SECTION
  2
BLOCKS
  0
BLOCK
  5
3
330
2
100
AcDbEntity
  8
0
100
AcDbBlockBegin
  2
*MODEL_SPACE
 70
     0
 10
0.0
 20
0.0
 30
0.0
  3
*MODEL_SPACE
  1

  0
ENDBLK
  5
6
330
2
100
AcDbEntity
  8
0
100
AcDbBlockEnd
  0
BLOCK
  5
8
330
7
100
AcDbEntity
 67
     1
  8
0
100
AcDbBlockBegin
  2
*PAPER_SPACE
 70
     0
 10
0.0
 20
0.0
 30
0.0
  3
*PAPER_SPACE
  1

  0
ENDBLK
  5
9
330
7
100
AcDbEntity
 67
     1
  8
0
100
AcDbBlockEnd
  0
BLOCK
  5
63
330
59
100
AcDbEntity
  8
0
100
AcDbBlockBegin
  2
*D0
 70
     1
 10
0.0
 20
0.0
 30
0.0
  3
*D0
  1

  0
LINE
  5
5A
330
59
100
AcDbEntity
  8
0
  6
ByBlock
 62
     0
100
AcDbLine
 10
-70.07604400729405
 20
-144.4772060008825
 30
0.0
 11
-70.07604400729405
 21
-178.2684362820592
 31
0.0
  0
LINE
  5
5B
330
59
100
AcDbEntity
  8
0
  6
ByBlock
 62
     0
100
AcDbLine
 10
70.07604400729405
 20
-144.5
 30
0.0
 11
70.07604400729405
 21
-178.2684362820592
 31
0.0
  0
LINE
  5
5C
330
59
100
AcDbEntity
  8
0
  6
ByBlock
 62
     0
100
AcDbLine
 10
-66.07604400729406
 20
-175.2684362820592
 30
0.0
 11
66.07604400729406
 21
-175.2684362820592
 31
0.0
  0
SOLID
  5
5D
330
59
100
AcDbEntity
  8
0
  6
ByBlock
 62
     0
100
AcDbTrace
 10
-66.07604400729406
 20
-174.6017696153925
 30
0.0
 11
-66.07604400729406
 21
-175.9351029487258
 31
0.0
 12
-70.07604400729405
 22
-175.2684362820592
 32
0.0
 13
-70.07604400729405
 23
-175.2684362820592
 33
0.0
  0
SOLID
  5
5E
330
59
100
AcDbEntity
  8
0
  6
ByBlock
 62
     0
100
AcDbTrace
 10
66.07604400729406
 20
-174.6017696153925
 30
0.0
 11
66.07604400729406
 21
-175.9351029487258
 31
0.0
 12
70.07604400729405
 22
-175.2684362820592
 32
0.0
 13
70.07604400729405
 23
-175.2684362820592
 33
0.0
  0
TEXT
  5
5F
330
59
100
AcDbEntity
  8
0
  6
ByBlock
 62
     0
100
AcDbText
 10
-5.399999999999999
 20
-173.4684362820592
 30
0.0
 40
3.6
  1
140
  7
ROMANS
 72
     1
 11
0.0
 21
-171.6684362820592
 31
0.0
100
AcDbText
 73
     2
  0
POINT
  5
60
330
59
100
AcDbEntity
  8
DEFPOINTS
  6
ByBlock
 62
     0
100
AcDbPoint
 10
-70.07604400729405
 20
-139.9772060008825
 30
0.0
  0
POINT
  5
61
330
59
100
AcDbEntity
  8
DEFPOINTS
  6
ByBlock
 62
     0
100
AcDbPoint
 10
70.07604400729405
 20
-140.0
 30
0.0
  0
POINT
  5
62
330
59
100
AcDbEntity
  8
DEFPOINTS
  6
ByBlock
 62
     0
100
AcDbPoint
 10
70.07604400729405
 20
-175.2684362820592
 30
0.0
  0
ENDBLK
  5
64
330
59
100
AcDbEntity
  8
0
100
AcDbBlockEnd
  0
BLOCK
  5
48
330
3E
100
AcDbEntity
  8
0
100
AcDbBlockBegin
  2
*D1
 70
     1
 10
0.0
 20
0.0
 30
0.0
  3
*D1
  1

  0
LINE
  5
3F
330
3E
100
AcDbEntity
  8
0
  6
ByBlock
 62
     0
100
AcDbLine
 10
-92.42395599270594
 20
-12.5
 30
0.0
 11
-92.42395599270594
 21
-204.3511769756839
 31
0.0
  0
LINE
  5
40
330
3E
100
AcDbEntity
  8
0
  6
ByBlock
 62
     0
100
AcDbLine
 10
87.57604400729405
 20
-12.5
 30
0.0
 11
87.57604400729405
 21
-204.3511769756839
 31
0.0
  0
LINE
  5
41
330
3E
100
AcDbEntity
  8
0
  6
ByBlock
 62
     0
100
AcDbLine
 10
-88.42395599270593
 20
-201.3511769756839
 30
0.0
 11
83.57604400729405
 21
-201.3511769756839
 31
0.0
  0
SOLID
  5
42
330
3E
100
AcDbEntity
  8
0
  6
ByBlock
 62
     0
100
AcDbTrace
 10
-88.42395599270593
 20
-200.6845103090172
 30
0.0
 11
-88.42395599270593
 21
-202.0178436423505
 31
0.0
 12
-92.42395599270594
 22
-201.3511769756839
 32
0.0
 13
-92.42395599270594
 23
-201.3511769756839
 33
0.0
  0
SOLID
  5
43
330
3E
100
AcDbEntity
  8
0
  6
ByBlock
 62
     0
100
AcDbTrace
 10
83.57604400729405
 20
-200.6845103090172
 30
0.0
 11
83.57604400729405
 21
-202.0178436423505
 31
0.0
 12
87.57604400729405
 22
-201.3511769756839
 32
0.0
 13
87.57604400729405
 23
-201.3511769756839
 33
0.0
  0
TEXT
  5
44
330
3E
100
AcDbEntity
  8
0
  6
ByBlock
 62
     0
100
AcDbText
 10
-7.823955992705941
 20
-199.5511769756839
 30
0.0
 40
3.6
  1
180
  7
ROMANS
 72
     1
 11
-2.423955992705941
 21
-197.7511769756839
 31
0.0
100
AcDbText
 73
     2
  0
POINT
  5
45
330
3E
100
AcDbEntity
  8
DEFPOINTS
  6
ByBlock
 62
     0
100
AcDbPoint
 10
-92.42395599270594
 20
-8.000000000000003
 30
0.0
  0
POINT
  5
46
330
3E
100
AcDbEntity
  8
DEFPOINTS
  6
ByBlock
 62
     0
100
AcDbPoint
 10
87.57604400729405
 20
-8.000000000000003
 30
0.0
  0
POINT
  5
47
330
3E
100
AcDbEntity
  8
DEFPOINTS
  6
ByBlock
 62
     0
100
AcDbPoint
 10
87.57604400729405
 20
-201.3511769756839
 30
0.0
  0
ENDBLK
  5
49
330
3E
100
AcDbEntity
  8
0
100
AcDbBlockEnd
  0
BLOCK
  5
37
330
2C
100
AcDbEntity
  8
0
100
AcDbBlockBegin
  2
*D2
 70
     1
 10
0.0
 20
0.0
 30
0.0
  3
*D2
  1

  0
LINE
  5
2D
330
2C
100
AcDbEntity
  8
0
  6
ByBlock
 62
     0
100
AcDbLine
 10
-177.4239559927059
 20
-12.5
 30
0.0
 11
-177.4239559927059
 21
-233.6615499572718
 31
0.0
  0
LINE
  5
2E
330
2C
100
AcDbEntity
  8
0
  6
ByBlock
 62
     0
100
AcDbLine
 10
172.576044007294
 20
-12.5
 30
0.0
 11
172.576044007294
 21
-233.6615499572718
 31
0.0
  0
LINE
  5
2F
330
2C
100
AcDbEntity
  8
0
  6
ByBlock
 62
     0
100
AcDbLine
 10
-173.4239559927059
 20
-230.6615499572719
 30
0.0
 11
168.576044007294
 21
-230.6615499572719
 31
0.0
  0
SOLID
  5
30
330
2C
100
AcDbEntity
  8
0
  6
ByBlock
 62
     0
100
AcDbTrace
 10
-173.4239559927059
 20
-229.9948832906052
 30
0.0
 11
-173.4239559927059
 21
-231.3282166239385
 31
0.0
 12
-177.4239559927059
 22
-230.6615499572719
 32
0.0
 13
-177.4239559927059
 23
-230.6615499572719
 33
0.0
  0
SOLID
  5
31
330
2C
100
AcDbEntity
  8
0
  6
ByBlock
 62
     0
100
AcDbTrace
 10
168.576044007294
 20
-229.9948832906052
 30
0.0
 11
168.576044007294
 21
-231.3282166239385
 31
0.0
 12
172.576044007294
 22
-230.6615499572719
 32
0.0
 13
172.576044007294
 23
-230.6615499572719
 33
0.0
  0
TEXT
  5
32
330
2C
100
AcDbEntity
  8
0
  6
ByBlock
 62
     0
100
AcDbText
 10
-7.566813135563084
 20
-228.8615499572719
 30
0.0
 40
3.6
  1
350
  7
ROMANS
 72
     1
 11
-2.423955992705941
 21
-227.0615499572719
 31
0.0
100
AcDbText
 73
     2
  0
POINT
  5
33
330
2C
100
AcDbEntity
  8
DEFPOINTS
  6
ByBlock
 62
     0
100
AcDbPoint
 10
-177.4239559927059
 20
-8.000000000000003
 30
0.0
  0
POINT
  5
35
330
2C
100
AcDbEntity
  8
DEFPOINTS
  6
ByBlock
 62
     0
100
AcDbPoint
 10
172.576044007294
 20
-8.000000000000003
 30
0.0
  0
POINT
  5
36
330
2C
100
AcDbEntity
  8
DEFPOINTS
  6
ByBlock
 62
     0
100
AcDbPoint
 10
172.576044007294
 20
-230.6615499572719
 30
0.0
  0
ENDBLK
  5
38
330
2C
100
AcDbEntity
  8
0
100
AcDbBlockEnd
  0
ENDSEC
  0
SECTION
  2
ENTITIES
  0
TEXT
  5
1F
330
2
100
AcDbEntity
  8
SPECD
 62
     6
100
AcDbText
 10
-46.07040203164831
 20
-318.5490439739062
 30
0.0
 40
5.0
  1
SUITABLE FOR A DESIGN JOINT WIDTH OF ?? MM
  7
ROMANS
 72
     4
 11
48.81055034930412
 21
-316.0490439739062
 31
0.0
100
AcDbText
  0
LINE
  5
21
330
2
100
AcDbEntity
  8
SPECD
 62
     6
100
AcDbLine
 10
-49.69964759048972
 20
-289.3023843986758
 30
0.0
 11
152.7873025161506
 21
-289.3023843986758
 31
0.0
  0
LINE
  5
22
330
2
100
AcDbEntity
  8
SPECD
 62
     6
100
AcDbLine
 10
-49.69964759048972
 20
-342.3360769842261
 30
0.0
 11
152.7873025161506
 21
-342.3360769842261
 31
0.0
  0
TEXT
  5
23
330
2
100
AcDbEntity
  8
SPECD
 62
     6
100
AcDbText
 10
-45.6159668616982
 20
-328.5981013878353
 30
0.0
 40
5.0
  1
AND CAPABLE OF TRANSFERRING A SERVICEABILITY
  7
ROMANS
 72
     4
 11
51.76498551925416
 21
-326.0981013878353
 31
0.0
100
AcDbText
  0
TEXT
  5
24
330
2
100
AcDbEntity
  8
SPECD
 62
     6
100
AcDbText
 10
-46.12909879170589
 20
-308.6478962642364
 30
0.0
 40
5.0
  1
COMPRISING SLEEVE AND DOWEL COMPONENT
  7
ROMANS
 72
     4
 11
41.84709168448463
 21
-306.1478962642364
 31
0.0
100
AcDbText
  0
TEXT
  5
25
330
2
100
AcDbEntity
  8
SPECD
 62
     6
100
AcDbText
 10
-45.40791438565013
 20
-298.5431839384458
 30
0.0
 40
5.0
  1
TWO PART STAINLESS STEEL SHEAR CONNECTOR
  7
ROMANS
 72
     4
 11
47.21113323339764
 21
-296.0431839384458
 31
0.0
100
AcDbText
  0
LINE
  5
26
330
2
100
AcDbEntity
  8
10MM-JOINT
 62
     6
100
AcDbLine
 10
109.8802614544533
 20
86.49479285957895
 30
0.0
 11
285.2589391463158
 21
86.49479285957889
 31
0.0
  0
LINE
  5
28
330
2
100
AcDbEntity
  8
10MM-JOINT
 62
     6
100
AcDbLine
 10
109.8802614544533
 20
113.522277934626
 30
0.0
 11
285.2589391463158
 21
113.522277934626
 31
0.0
  0
LINE
  5
29
330
2
100
AcDbEntity
  8
10MM-JOINT
 62
     6
100
AcDbLine
 10
109.8802614544533
 20
139.5930389936717
 30
0.0
 11
285.2589391463158
 21
139.5930389936717
 31
0.0
  0
DIMENSION
  5
2A
330
2
100
AcDbEntity
  8
DIMS
100
AcDbDimension
  2
*D2
 10
172.576044007294
 20
-230.6615499572719
 30
0.0
 11
-2.423955992705941
 21
-227.0615499572719
 31
0.0
 71
     5
 42
-1.0
  3
1-2
100
AcDbAlignedDimension
 13
-177.4239559927059
 23
-8.000000000000003
 33
0.0
 14
172.576044007294
 24
-8.000000000000003
 34
0.0
100
AcDbRotatedDimension
  0
LINE
  5
39
330
2
100
AcDbEntity
  8
DIMS
  6
CENTER2
100
AcDbLine
 10
-187.4239559927059
 20
-0.0000000000000036
 30
0.0
 11
182.576044007294
 21
-0.0000000000000036
 31
0.0
  0
LINE
  5
3B
330
2
100
AcDbEntity
  8
ANCON-DSD
100
AcDbLine
 10
70.07604400729405
 20
-8.000000000000003
 30
0.0
 11
172.576044007294
 21
-8.000000000000003
 31
0.0
  0
LINE
  5
3C
330
2
100
AcDbEntity
  8
ANCON-DSD
100
AcDbLine
 10
70.07604400729405
 20
7.999999999999996
 30
0.0
 11
172.576044007294
 21
7.999999999999996
 31
0.0
  0
DIMENSION
  5
3D
330
2
100
AcDbEntity
  8
DIMS
100
AcDbDimension
  2
*D1
 10
87.57604400729405
 20
-201.3511769756839
 30
0.0
 11
-2.423955992705941
 21
-197.7511769756839
 31
0.0
 71
     5
 42
-1.0
  3
1-2
100
AcDbAlignedDimension
 13
-92.42395599270594
 23
-8.000000000000003
 33
0.0
 14
87.57604400729405
 24
-8.000000000000003
 34
0.0
100
AcDbRotatedDimension
  0
LINE
  5
4A
330
2
100
AcDbEntity
  8
ANCON-DSD
100
AcDbLine
 10
70.07604400729405
 20
139.9999999999999
 30
0.0
 11
70.07604400729405
 21
-140.0
 31
0.0
  0
LINE
  5
4B
330
2
100
AcDbEntity
  8
ANCON-DSD
100
AcDbLine
 10
-70.07604400729405
 20
140.0227939991174
 30
0.0
 11
-70.07604400729405
 21
-139.9772060008825
 31
0.0
  0
TEXT
  5
4C
330
2
100
AcDbEntity
  8
SPECP
 62
     1
100
AcDbText
 10
-177.2720198814026
 20
-268.5729808474255
 30
0.0
 40
5.0
  1
SPECIFICATION BY PRODUCT
  7
ROMANS
 72
     4
 11
-123.8196389290216
 21
-266.0729808474255
 31
0.0
100
AcDbText
  0
TEXT
  5
4E
330
2
100
AcDbEntity
  8
SPECD
 62
     1
100
AcDbText
 10
-177.1283832717763
 20
-298.5074353119216
 30
0.0
 40
5.0
  1
SPECIFICATION BY DESCRIPTION
  7
ROMANS
 72
     4
 11
-117.4855261289191
 21
-296.0074353119216
 31
0.0
100
AcDbText
  0
LINE
  5
4F
330
2
100
AcDbEntity
  8
SPECD
 62
     6
100
AcDbLine
 10
-49.69964759048972
 20
-289.3023843986758
 30
0.0
 11
-49.69964759048972
 21
-342.3360769842261
 31
0.0
  0
TEXT
  5
50
330
2
100
AcDbEntity
  8
SPECD
 62
     6
100
AcDbText
 10
-44.43018610535509
 20
-338.6330265527976
 30
0.0
 40
5.0
  1
LOAD OF ??? kN
  7
ROMANS
 72
     4
 11
-11.81113848630747
 21
-336.1330265527976
 31
0.0
100
AcDbText
  0
TEXT
  5
51
330
2
100
AcDbEntity
  8
SPECP
 62
     6
100
AcDbText
 10
-45.20553791709766
 20
-268.5729808474255
 30
0.0
 40
5.0
  1
STAIFIX DSD ??
  7
ROMANS
 72
     4
 11
-15.68172839328812
 21
-266.0729808474255
 31
0.0
100
AcDbText
  0
LINE
  5
52
330
2
100
AcDbEntity
  8
SPECP
 62
     6
100
AcDbLine
 10
-49.69964759048972
 20
-271.8538460235833
 30
0.0
 11
17.89020333227222
 21
-271.8538460235833
 31
0.0
  0
LINE
  5
53
330
2
100
AcDbEntity
  8
SPECP
 62
     6
100
AcDbLine
 10
-49.69964759048972
 20
-259.9358707315819
 30
0.0
 11
17.89020333227219
 21
-259.9358707315819
 31
0.0
  0
LINE
  5
54
330
2
100
AcDbEntity
  8
SPECP
 62
     6
100
AcDbLine
 10
-49.69964759048972
 20
-259.9358707315819
 30
0.0
 11
-49.69964759048972
 21
-271.8538460235833
 31
0.0
  0
LINE
  5
55
330
2
100
AcDbEntity
  8
SPECP
 62
     6
100
AcDbLine
 10
17.89020333227219
 20
-259.9358707315819
 30
0.0
 11
17.89020333227222
 21
-271.8538460235833
 31
0.0
  0
CIRCLE
  5
56
330
2
100
AcDbEntity
  8
ANCON-DSD
100
AcDbCircle
 10
0.0
 20
-79.98876005173485
 30
0.0
 40
26.5
  0
CIRCLE
  5
57
330
2
100
AcDbEntity
  8
ANCON-DSD
100
AcDbCircle
 10
0.0
 20
-79.98876005173485
 30
0.0
 40
28.5
  0
DIMENSION
  5
58
330
2
100
AcDbEntity
  8
DIMS
100
AcDbDimension
  2
*D0
 10
70.07604400729405
 20
-175.2684362820592
 30
0.0
 11
0.0
 21
-171.6684362820592
 31
0.0
 71
     5
 42
-1.0
  3
1-2
100
AcDbAlignedDimension
 13
-70.07604400729405
 23
-139.9772060008825
 33
0.0
 14
70.07604400729405
 24
-140.0
 34
0.0
100
AcDbRotatedDimension
  0
LINE
  5
65
330
2
100
AcDbEntity
  8
ANCON-DSD
100
AcDbLine
 10
-70.07604400729405
 20
-139.9772060008825
 30
0.0
 11
70.07604400729405
 21
-140.0
 31
0.0
  0
LINE
  5
66
330
2
100
AcDbEntity
  8
DIMS
  6
CENTER2
100
AcDbLine
 10
-36.84171977462892
 20
-79.98122415379469
 30
0.0
 11
36.84171977462892
 21
-79.99500855183899
 31
0.0
  0
LINE
  5
67
330
2
100
AcDbEntity
  8
DIMS
  6
CENTER2
100
AcDbLine
 10
-64.57604391543902
 20
-129.9779230167074
 30
0.0
 11
-55.57604405091545
 21
-129.9794588166818
 31
0.0
  0
CIRCLE
  5
68
330
2
100
AcDbEntity
  8
ANCON-DSD
100
AcDbCircle
 10
-60.07604400729405
 20
-129.9788322446195
 30
0.0
 40
2.5
  0
LINE
  5
69
330
2
100
AcDbEntity
  8
DIMS
  6
CENTER2
100
AcDbLine
 10
-60.07604400729406
 20
-125.4788322446195
 30
0.0
 11
-60.07604400729405
 21
-134.4788322446195
 31
0.0
  0
LINE
  5
6A
330
2
100
AcDbEntity
  8
DIMS
  6
CENTER2
100
AcDbLine
 10
0.0
 20
-42.93111844146598
 30
0.0
 11
0.0
 21
-116.2763698984615
 31
0.0
  0
LINE
  5
6B
330
2
100
AcDbEntity
  8
DIMS
  6
CENTER2
100
AcDbLine
 10
55.57604400760395
 20
-129.9984263029676
 30
0.0
 11
64.57604372688456
 21
-129.9999621029172
 31
0.0
  0
LINE
  5
6C
330
2
100
AcDbEntity
  8
DIMS
  6
CENTER2
100
AcDbLine
 10
60.07604400729405
 20
-125.4983734917531
 30
0.0
 11
60.07604400729405
 21
-134.4983734917531
 31
0.0
  0
CIRCLE
  5
6D
330
2
100
AcDbEntity
  8
ANCON-DSD
100
AcDbCircle
 10
60.07604400729405
 20
-129.9983734917531
 30
0.0
 40
2.5
  0
LINE
  5
6E
330
2
100
AcDbEntity
  8
ANCON-DSD
100
AcDbLine
 10
-177.4239559927059
 20
-8.000000000000003
 30
0.0
 11
-70.07604400729405
 21
-7.977206000882464
 31
0.0
  0
LINE
  5
6F
330
2
100
AcDbEntity
  8
ANCON-DSD
100
AcDbLine
 10
-177.4239559927059
 20
7.999999999999996
 30
0.0
 11
-70.07604400729405
 21
8.022793999117535
 31
0.0
  0
LINE
  5
70
330
2
100
AcDbEntity
  8
ANCON-DSD
100
AcDbLine
 10
-177.4239559927059
 20
7.999999999999996
 30
0.0
 11
-177.4239559927059
 21
-8.000000000000003
 31
0.0
  0
LINE
  5
71
330
2
100
AcDbEntity
  8
ANCON-DSD
100
AcDbLine
 10
-92.42395599270594
 20
7.999999999999996
 30
0.0
 11
-92.42395599270594
 21
-8.000000000000003
 31
0.0
  0
CIRCLE
  5
72
330
2
100
AcDbEntity
  8
ANCON-DSD
100
AcDbCircle
 10
0.0
 20
80.01131775242475
 30
0.0
 40
26.5
  0
CIRCLE
  5
73
330
2
100
AcDbEntity
  8
ANCON-DSD
100
AcDbCircle
 10
0.0
 20
80.01131775242475
 30
0.0
 40
28.5
  0
LINE
  5
74
330
2
100
AcDbEntity
  8
ANCON-DSD
100
AcDbLine
 10
-70.07604400729405
 20
140.0227939991174
 30
0.0
 11
70.07604400729405
 21
139.9999999999999
 31
0.0
  0
LINE
  5
75
330
2
100
AcDbEntity
  8
DIMS
  6
CENTER2
100
AcDbLine
 10
-36.84171978328186
 20
80.01816353986873
 30
0.0
 11
36.84171978328231
 21
80.00447196498077
 31
0.0
  0
LINE
  5
76
330
2
100
AcDbEntity
  8
DIMS
  6
CENTER2
100
AcDbLine
 10
0.0
 20
116.8530381717359
 30
0.0
 11
0.0
 21
43.16959733311359
 31
0.0
  0
LINE
  5
7B
330
2
100
AcDbEntity
  8
DIMS
  6
CENTER2
100
AcDbLine
 10
-60.07604400729406
 20
134.5211674908705
 30
0.0
 11
-60.07604400729405
 21
125.5211674908705
 31
0.0
  0
LINE
  5
7C
330
2
100
AcDbEntity
  8
DIMS
  6
CENTER2
100
AcDbLine
 10
-64.57604387751006
 20
130.022248257226
 30
0.0
 11
-55.57604402724511
 21
130.0207437462883
 31
0.0
  0
CIRCLE
  5
7D
330
2
100
AcDbEntity
  8
ANCON-DSD
100
AcDbCircle
 10
-60.07604400729405
 20
130.0211674908705
 30
0.0
 40
2.5
  0
LINE
  5
7E
330
2
100
AcDbEntity
  8
ANCON-DSD
100
AcDbLine
 10
87.57604400729405
 20
7.999999999999996
 30
0.0
 11
87.57604400729405
 21
-8.000000000000003
 31
0.0
  0
LINE
  5
7F
330
2
100
AcDbEntity
  8
DIMS
  6
CENTER2
100
AcDbLine
 10
60.076044007294
 20
134.501626243737
 30
0.0
 11
60.07604400729366
 21
125.501626243737
 31
0.0
  0
LINE
  5
80
330
2
100
AcDbEntity
  8
DIMS
  6
CENTER2
100
AcDbLine
 10
55.57604403926863
 20
130.0021626868407
 30
0.0
 11
64.57604390316568
 21
130.0006581759007
 31
0.0
  0
CIRCLE
  5
81
330
2
100
AcDbEntity
  8
ANCON-DSD
100
AcDbCircle
 10
60.07604400729405
 20
130.001626243737
 30
0.0
 40
2.5
  0
LINE
  5
82
330
2
100
AcDbEntity
  8
10MM-JOINT
 62
     6
100
AcDbLine
 10
109.8802614544533
 20
139.5930389936717
 30
0.0
 11
109.8802614544533
 21
86.49479285957889
 31
0.0
  0
LINE
  5
83
330
2
100
AcDbEntity
  8
SPECD
 62
     6
100
AcDbLine
 10
152.7873025161506
 20
-289.3023843986758
 30
0.0
 11
152.7873025161506
 21
-342.3360769842261
 31
0.0
  0
TEXT
  5
84
330
2
100
AcDbEntity
  8
10MM-JOINT
 62
     6
100
AcDbText
 10
164.9839298193423
 20
129.3273228341301
 30
0.0
 40
5.0
  1
DESIGN JOINT
  7
ROMANS
 72
     4
 11
191.0553583907709
 21
131.8273228341301
 31
0.0
100
AcDbText
  0
LINE
  5
85
330
2
100
AcDbEntity
  8
ANCON-DSD
100
AcDbLine
 10
172.576044007294
 20
7.999999999999996
 30
0.0
 11
172.576044007294
 21
-8.000000000000003
 31
0.0
  0
LINE
  5
86
330
2
100
AcDbEntity
  8
10MM-JOINT
 62
     6
100
AcDbLine
 10
159.8802614544533
 20
139.5930389936717
 30
0.0
 11
159.8802614544533
 21
86.49479285957889
 31
0.0
  0
TEXT
  5
87
330
2
100
AcDbEntity
  8
10MM-JOINT
 62
     6
100
AcDbText
 10
119.1228684236249
 20
97.31034995267751
 30
0.0
 40
5.0
  1
DSD400
  7
ROMANS
 72
     4
 11
133.765725566482
 21
99.81034995267751
 31
0.0
100
AcDbText
  0
TEXT
  5
88
330
2
100
AcDbEntity
  8
10MM-JOINT
 62
     6
100
AcDbText
 10
117.0726456035247
 20
129.3273228341301
 30
0.0
 40
5.0
  1
DSD REF:
  7
ROMANS
 72
     4
 11
135.0488360797152
 21
131.8273228341301
 31
0.0
100
AcDbText
  0
TEXT
  5
89
330
2
100
AcDbEntity
  8
10MM-JOINT
 62
     6
100
AcDbText
 10
180.4601202955327
 20
118.4296994465111
 30
0.0
 40
5.0
  1
WIDTH
  7
ROMANS
 72
     4
 11
191.0553583907709
 21
120.9296994465111
 31
0.0
100
AcDbText
  0
TEXT
  5
8A
330
2
100
AcDbEntity
  8
10MM-JOINT
 62
     6
100
AcDbText
 10
181.3847731855297
 20
97.31034995267751
 30
0.0
 40
5.0
  1
?? MM
  7
ROMANS
 72
     4
 11
193.765725566482
 21
99.81034995267751
 31
0.0
100
AcDbText
  0
TEXT
  5
8B
330
2
100
AcDbEntity
  8
10MM-JOINT
 62
     6
100
AcDbText
 10
225.9085827093392
 20
129.3321533312616
 30
0.0
 40
5.0
  1
SERVICEABILITY
  7
ROMANS
 72
     4
 11
253.765725566482
 21
131.8321533312616
 31
0.0
100
AcDbText
  0
TEXT
  5
8C
330
2
100
AcDbEntity
  8
10MM-JOINT
 62
     6
100
AcDbText
 10
247.3371541379106
 20
97.31034995267751
 30
0.0
 40
5.0
  1
???
  7
ROMANS
 72
     4
 11
253.765725566482
 21
99.81034995267751
 31
0.0
100
AcDbText
  0
TEXT
  5
8D
330
2
100
AcDbEntity
  8
10MM-JOINT
 62
     6
100
AcDbText
 10
229.0038208045773
 20
118.3888743926833
 30
0.0
 40
5.0
  1
LOAD ( kN )
  7
ROMANS
 72
     4
 11
253.765725566482
 21
120.5317315355404
 31
0.0
100
AcDbText
  0
LINE
  5
8E
330
2
100
AcDbEntity
  8
10MM-JOINT
 62
     6
100
AcDbLine
 10
220.3883550115162
 20
139.5930389936717
 30
0.0
 11
220.3883550115162
 21
86.49479285957889
 31
0.0
  0
LINE
  5
8F
330
2
100
AcDbEntity
  8
10MM-JOINT
 62
     6
100
AcDbLine
 10
285.2589391463158
 20
139.5930389936717
 30
0.0
 11
285.2589391463158
 21
86.49479285957889
 31
0.0
  0
ENDSEC
  0
SECTION
  2
OBJECTS
  0
DICTIONARY
  5
1A
330
0
100
AcDbDictionary
281
     1
  3
ACAD_GROUP
350
18
  3
ACAD_LAYOUT
350
93
  3
ACAD_MLINESTYLE
350
19
  3
ACAD_PLOTSETTINGS
350
94
  3
ACAD_PLOTSTYLENAME
350
91
  0
DICTIONARY
  5
18
102
{ACAD_REACTORS
330
1A
102
}
330
1A
100
AcDbDictionary
281
     1
  0
DICTIONARY
  5
93
102
{ACAD_REACTORS
330
1A
102
}
330
1A
100
AcDbDictionary
281
     1
  3
Layout1
350
96
  3
Model
350
95
  0
DICTIONARY
  5
19
102
{ACAD_REACTORS
330
1A
102
}
330
1A
100
AcDbDictionary
281
     1
  3
STANDARD
350
1D
  0
DICTIONARY
  5
94
102
{ACAD_REACTORS
330
1A
102
}
330
1A
100
AcDbDictionary
281
     1
  0
ACDBDICTIONARYWDFLT
  5
91
102
{ACAD_REACTORS
330
1A
102
}
330
1A
100
AcDbDictionary
281
     1
  3
Normal
350
92
100
AcDbDictionaryWithDefault
340
92
  0
LAYOUT
  5
96
102
{ACAD_REACTORS
330
93
102
}
330
93
100
AcDbPlotSettings
  1

  2
Ancon 2
  4

  6

 40
0.0
 41
0.0
 42
0.0
 43
0.0
 44
0.0
 45
0.0
 46
0.0
 47
0.0
 48
0.0
 49
0.0
140
0.0
141
0.0
142
1.0
143
1.0
 70
   688
 72
     0
 73
     0
 74
     5
  7

 75
    16
147
1.0
148
0.0
149
0.0
100
AcDbLayout
  1
Layout1
 70
     1
 71
     1
 10
0.0
 20
0.0
 11
420.0
 21
297.0
 12
0.0
 22
0.0
 32
0.0
 14
1.000000000000000E+20
 24
1.000000000000000E+20
 34
1.000000000000000E+20
 15
-1.000000000000000E+20
 25
-1.000000000000000E+20
 35
-1.000000000000000E+20
146
0.0
 13
0.0
 23
0.0
 33
0.0
 16
1.0
 26
0.0
 36
0.0
 17
0.0
 27
1.0
 37
0.0
 76
     0
330
7
  0
LAYOUT
  5
95
102
{ACAD_REACTORS
330
93
102
}
330
93
100
AcDbPlotSettings
  1

  2
Ancon 2
  4

  6

 40
0.0
 41
0.0
 42
0.0
 43
0.0
 44
0.0
 45
0.0
 46
0.0
 47
0.0
 48
0.0
 49
0.0
140
0.0
141
0.0
142
1.0
143
1.0
 70
  1712
 72
     0
 73
     0
 74
     0
  7

 75
     0
147
1.0
148
0.0
149
0.0
100
AcDbLayout
  1
Model
 70
     1
 71
     0
 10
0.0
 20
0.0
 11
12.0
 21
9.0
 12
0.0
 22
0.0
 32
0.0
 14
0.0
 24
0.0
 34
0.0
 15
0.0
 25
0.0
 35
0.0
146
0.0
 13
0.0
 23
0.0
 33
0.0
 16
1.0
 26
0.0
 36
0.0
 17
0.0
 27
1.0
 37
0.0
 76
     0
330
2
  0
MLINESTYLE
  5
1D
102
{ACAD_REACTORS
330
19
102
}
330
19
100
AcDbMlineStyle
  2
STANDARD
 70
     0
  3

 62
   256
 51
90.0
 52
90.0
 71
     2
 49
0.5
 62
   256
  6
BYLAYER
 49
-0.5
 62
   256
  6
BYLAYER
  0
ACDBPLACEHOLDER
  5
92
102
{ACAD_REACTORS
330
91
102
}
330
91
  0
ENDSEC
  0
EOF
