  0
SECTION
  2
HEADER
  9
$ACADVER
  1
AC1015
  9
$ACADMAINTVER
 70
    10
  9
$DWGCODEPAGE
  3
ANSI_1252
  9
$INSBASE
 10
0.0
 20
0.0
 30
0.0
  9
$EXTMIN
 10
-229.0143701255429
 20
-175.6031504942892
 30
0.0
  9
$EXTMAX
 10
334.8426136024051
 20
199.6432004501632
 30
0.0
  9
$LIMMIN
 10
0.0
 20
0.0
  9
$LIMMAX
 10
420.0
 20
297.0
  9
$ORTHOMODE
 70
     1
  9
$REGENMODE
 70
     1
  9
$FILLMODE
 70
     1
  9
$QTEXTMODE
 70
     0
  9
$MIRRTEXT
 70
     1
  9
$LTSCALE
 40
0.25
  9
$ATTMODE
 70
     1
  9
$TEXTSIZE
 40
5.0
  9
$TRACEWID
 40
10.0
  9
$TEXTSTYLE
  7
ROMANS
  9
$CLAYER
  8
ANCON-DSD
  9
$CELTYPE
  6
ByLayer
  9
$CECOLOR
 62
   256
  9
$CELTSCALE
 40
1.0
  9
$DISPSILH
 70
     0
  9
$DIMSCALE
 40
0.0
  9
$DIMASZ
 40
4.0
  9
$DIMEXO
 40
4.5
  9
$DIMDLI
 40
10.0
  9
$DIMRND
 40
0.0
  9
$DIMDLE
 40
1.25
  9
$DIMEXE
 40
1.5
  9
$DIMTP
 40
0.0
  9
$DIMTM
 40
0.0
  9
$DIMTXT
 40
3.0
  9
$DIMCEN
 40
-3.0
  9
$DIMTSZ
 40
0.0
  9
$DIMTOL
 70
     0
  9
$DIMLIM
 70
     0
  9
$DIMTIH
 70
     0
  9
$DIMTOH
 70
     0
  9
$DIMSE1
 70
     0
  9
$DIMSE2
 70
     0
  9
$DIMTAD
 70
     1
  9
$DIMZIN
 70
    12
  9
$DIMBLK
  1

  9
$DIMASO
 70
     1
  9
$DIMSHO
 70
     0
  9
$DIMPOST
  1

  9
$DIMAPOST
  1

  9
$DIMALT
 70
     0
  9
$DIMALTD
 70
     2
  9
$DIMALTF
 40
0.039
  9
$DIMLFAC
 40
1.0
  9
$DIMTOFL
 70
     0
  9
$DIMTVP
 40
0.0
  9
$DIMTIX
 70
     0
  9
$DIMSOXD
 70
     0
  9
$DIMSAH
 70
     0
  9
$DIMBLK1
  1

  9
$DIMBLK2
  1

  9
$DIMSTYLE
  2
1-1
  9
$DIMCLRD
 70
     0
  9
$DIMCLRE
 70
     0
  9
$DIMCLRT
 70
     0
  9
$DIMTFAC
 40
0.75
  9
$DIMGAP
 40
1.5
  9
$DIMJUST
 70
     0
  9
$DIMSD1
 70
     0
  9
$DIMSD2
 70
     0
  9
$DIMTOLJ
 70
     1
  9
$DIMTZIN
 70
    12
  9
$DIMALTZ
 70
    12
  9
$DIMALTTZ
 70
    12
  9
$DIMUPT
 70
     0
  9
$DIMDEC
 70
     2
  9
$DIMTDEC
 70
     2
  9
$DIMALTU
 70
     2
  9
$DIMALTTD
 70
     2
  9
$DIMTXSTY
  7
STANDARD
  9
$DIMAUNIT
 70
     0
  9
$DIMADEC
 70
     0
  9
$DIMALTRND
 40
0.0
  9
$DIMAZIN
 70
     0
  9
$DIMDSEP
 70
    46
  9
$DIMATFIT
 70
     3
  9
$DIMFRAC
 70
     0
  9
$DIMLDRBLK
  1

  9
$DIMLUNIT
 70
     2
  9
$DIMLWD
 70
    -2
  9
$DIMLWE
 70
    -2
  9
$DIMTMOVE
 70
     2
  9
$LUNITS
 70
     2
  9
$LUPREC
 70
     2
  9
$SKETCHINC
 40
1.0
  9
$FILLETRAD
 40
0.0
  9
$AUNITS
 70
     0
  9
$AUPREC
 70
     4
  9
$MENU
  1
acad
  9
$ELEVATION
 40
0.0
  9
$PELEVATION
 40
0.0
  9
$THICKNESS
 40
0.0
  9
$LIMCHECK
 70
     0
  9
$CHAMFERA
 40
0.0
  9
$CHAMFERB
 40
0.0
  9
$CHAMFERC
 40
0.0
  9
$CHAMFERD
 40
0.0
  9
$SKPOLY
 70
     0
  9
$TDCREATE
 40
2449527.571155092
  9
$TDUCREATE
 40
2449527.529488425
  9
$TDUPDATE
 40
2452498.481059490
  9
$TDUUPDATE
 40
2452498.439392824
  9
$TDINDWG
 40
0.3889363773
  9
$TDUSRTIMER
 40
0.3889363773
  9
$USRTIMER
 70
     1
  9
$ANGBASE
 50
0.0
  9
$ANGDIR
 70
     0
  9
$PDMODE
 70
     0
  9
$PDSIZE
 40
0.0
  9
$PLINEWID
 40
0.0
  9
$SPLFRAME
 70
     0
  9
$SPLINETYPE
 70
     6
  9
$SPLINESEGS
 70
     8
  9
$HANDSEED
  5
193
  9
$SURFTAB1
 70
    18
  9
$SURFTAB2
 70
    18
  9
$SURFTYPE
 70
     6
  9
$SURFU
 70
    18
  9
$SURFV
 70
    18
  9
$UCSBASE
  2

  9
$UCSNAME
  2

  9
$UCSORG
 10
0.0
 20
0.0
 30
0.0
  9
$UCSXDIR
 10
1.0
 20
0.0
 30
0.0
  9
$UCSYDIR
 10
0.0
 20
1.0
 30
0.0
  9
$UCSORTHOREF
  2

  9
$UCSORTHOVIEW
 70
     0
  9
$UCSORGTOP
 10
0.0
 20
0.0
 30
0.0
  9
$UCSORGBOTTOM
 10
0.0
 20
0.0
 30
0.0
  9
$UCSORGLEFT
 10
0.0
 20
0.0
 30
0.0
  9
$UCSORGRIGHT
 10
0.0
 20
0.0
 30
0.0
  9
$UCSORGFRONT
 10
0.0
 20
0.0
 30
0.0
  9
$UCSORGBACK
 10
0.0
 20
0.0
 30
0.0
  9
$PUCSBASE
  2

  9
$PUCSNAME
  2

  9
$PUCSORG
 10
0.0
 20
0.0
 30
0.0
  9
$PUCSXDIR
 10
1.0
 20
0.0
 30
0.0
  9
$PUCSYDIR
 10
0.0
 20
1.0
 30
0.0
  9
$PUCSORTHOREF
  2

  9
$PUCSORTHOVIEW
 70
     0
  9
$PUCSORGTOP
 10
0.0
 20
0.0
 30
0.0
  9
$PUCSORGBOTTOM
 10
0.0
 20
0.0
 30
0.0
  9
$PUCSORGLEFT
 10
0.0
 20
0.0
 30
0.0
  9
$PUCSORGRIGHT
 10
0.0
 20
0.0
 30
0.0
  9
$PUCSORGFRONT
 10
0.0
 20
0.0
 30
0.0
  9
$PUCSORGBACK
 10
0.0
 20
0.0
 30
0.0
  9
$USERI1
 70
     0
  9
$USERI2
 70
     0
  9
$USERI3
 70
     0
  9
$USERI4
 70
     0
  9
$USERI5
 70
     0
  9
$USERR1
 40
0.0
  9
$USERR2
 40
0.0
  9
$USERR3
 40
0.0
  9
$USERR4
 40
0.0
  9
$USERR5
 40
0.0
  9
$WORLDVIEW
 70
     1
  9
$SHADEDGE
 70
     3
  9
$SHADEDIF
 70
    70
  9
$TILEMODE
 70
     1
  9
$MAXACTVP
 70
    16
  9
$PINSBASE
 10
0.0
 20
0.0
 30
0.0
  9
$PLIMCHECK
 70
     0
  9
$PEXTMIN
 10
1.614583349603368
 20
1.129749872553066
 30
0.0
  9
$PEXTMAX
 10
14.5312501464303
 20
10.1677488529776
 30
0.0
  9
$PLIMMIN
 10
-0.1979161059762549
 20
-0.1979166691697489
  9
$PLIMMAX
 10
16.34375024029589
 20
11.49541603298637
  9
$UNITMODE
 70
     0
  9
$VISRETAIN
 70
     0
  9
$PLINEGEN
 70
     0
  9
$PSLTSCALE
 70
     1
  9
$TREEDEPTH
 70
  3020
  9
$CMLSTYLE
  2
Standard
  9
$CMLJUST
 70
     0
  9
$CMLSCALE
 40
1.0
  9
$PROXYGRAPHICS
 70
     1
  9
$MEASUREMENT
 70
     0
  9
$CELWEIGHT
370
    -1
  9
$ENDCAPS
280
     0
  9
$JOINSTYLE
280
     0
  9
$LWDISPLAY
290
     0
  9
$INSUNITS
 70
     0
  9
$HYPERLINKBASE
  1

  9
$STYLESHEET
  1

  9
$XEDIT
290
     1
  9
$CEPSNTYPE
380
     0
  9
$PSTYLEMODE
290
     1
  9
$FINGERPRINTGUID
  2
{B45D5239-14CB-4D42-A8E9-B72D9E858027}
  9
$VERSIONGUID
  2
{627E27B5-AD1D-11D6-AAC6-0010A4A25215}
  9
$EXTNAMES
290
     1
  9
$PSVPSCALE
 40
0.0
  9
$OLESTARTUP
290
     0
  0
ENDSEC
  0
SECTION
  2
CLASSES
  0
CLASS
  1
ACDBDICTIONARYWDFLT
  2
AcDbDictionaryWithDefault
  3
AutoCAD 2000
 90
        0
280
     1
281
     0
  0
CLASS
  1
ACDBPLACEHOLDER
  2
AcDbPlaceHolder
  3
AutoCAD 2000
 90
        0
280
     1
281
     0
  0
CLASS
  1
LAYOUT
  2
AcDbLayout
  3
AutoCAD 2000
 90
        0
280
     1
281
     0
  0
CLASS
  1
LONG_TRANSACTION
  2
AcDbLongTransaction
  3
AutoCAD 2000
 90
    32768
280
     1
281
     0
  0
CLASS
  1
LWPOLYLINE
  2
AcDbPolyline
  3
AutoCAD 2000
 90
    32768
280
     0
281
     1
  0
CLASS
  1
HATCH
  2
AcDbHatch
  3
AutoCAD 2000
 90
    32768
280
     0
281
     1
  0
CLASS
  1
XRECORD
  2
AcDbXrecord
  3
AutoCAD 2000
 90
    32768
280
     0
281
     0
  0
CLASS
  1
LONG_TRANSACTION
  2
AcDbLongTransaction
  3
AutoCAD 2000
 90
    32768
280
     0
281
     0
  0
CLASS
  1
LWPOLYLINE
  2
AcDbPolyline
  3
AutoCAD 2000
 90
    32768
280
     0
281
     1
  0
CLASS
  1
HATCH
  2
AcDbHatch
  3
AutoCAD 2000
 90
    32768
280
     0
281
     1
  0
CLASS
  1
XRECORD
  2
AcDbXrecord
  3
AutoCAD 2000
 90
    32768
280
     0
281
     0
  0
ENDSEC
  0
SECTION
  2
TABLES
  0
TABLE
  2
VPORT
  5
1C
330
0
100
AcDbSymbolTable
 70
     3
  0
VPORT
  5
192
330
1C
100
AcDbSymbolTableRecord
100
AcDbViewportTableRecord
  2
*Active
 70
     0
 10
0.0
 20
0.0
 11
1.0
 21
1.0
 12
69.81822167039116
 22
5.766723543626198
 13
0.0
 23
0.0
 14
5.0
 24
5.0
 15
10.0
 25
10.0
 16
0.0
 26
0.0
 36
1.0
 17
0.0
 27
0.0
 37
0.0
 40
449.3088124987091
 41
1.760948905109489
 42
50.0
 43
0.0
 44
0.0
 50
0.0
 51
0.0
 71
     0
 72
   100
 73
     1
 74
     1
 75
     0
 76
     0
 77
     0
 78
     0
281
     0
 65
     1
110
0.0
120
0.0
130
0.0
111
1.0
121
0.0
131
0.0
112
0.0
122
1.0
132
0.0
 79
     0
146
0.0
  0
ENDTAB
  0
TABLE
  2
LTYPE
  5
13
330
0
100
AcDbSymbolTable
 70
     2
  0
LTYPE
  5
14
330
13
100
AcDbSymbolTableRecord
100
AcDbLinetypeTableRecord
  2
ByBlock
 70
     0
  3

 72
    65
 73
     0
 40
0.0
  0
LTYPE
  5
17
330
13
100
AcDbSymbolTableRecord
100
AcDbLinetypeTableRecord
  2
ByLayer
 70
     0
  3

 72
    65
 73
     0
 40
0.0
  0
LTYPE
  5
8
330
13
100
AcDbSymbolTableRecord
100
AcDbLinetypeTableRecord
  2
CONTINUOUS
 70
     0
  3
Solid line
 72
    65
 73
     0
 40
0.0
  0
LTYPE
  5
31
330
13
100
AcDbSymbolTableRecord
100
AcDbLinetypeTableRecord
  2
CENTER2
 70
     0
  3
___ _ ___ _ ___ _ ___ _ ___ _ ___ _ ___ _ ___ _
 72
    65
 73
     4
 40
28.57499999999999
 49
19.05
 74
     0
 49
-3.174999999999999
 74
     0
 49
3.174999999999999
 74
     0
 49
-3.174999999999999
 74
     0
  0
ENDTAB
  0
TABLE
  2
LAYER
  5
10
330
0
100
AcDbSymbolTable
 70
     7
  0
LAYER
  5
7
330
10
100
AcDbSymbolTableRecord
100
AcDbLayerTableRecord
  2
0
 70
     0
 62
     7
  6
CONTINUOUS
370
    -3
390
151
  0
LAYER
  5
33
330
10
100
AcDbSymbolTableRecord
100
AcDbLayerTableRecord
  2
ANCON-DIMS
 70
     0
 62
     1
  6
CONTINUOUS
370
    -3
390
151
  0
LAYER
  5
27
330
10
100
AcDbSymbolTableRecord
100
AcDbLayerTableRecord
  2
ANCON-DSD
 70
     0
 62
     3
  6
CONTINUOUS
370
    -3
390
151
  0
LAYER
  5
3E
330
10
100
AcDbSymbolTableRecord
100
AcDbLayerTableRecord
  2
DEFPOINTS
 70
     0
 62
     7
  6
CONTINUOUS
290
     0
370
    -3
390
151
  0
LAYER
  5
50
330
10
100
AcDbSymbolTableRecord
100
AcDbLayerTableRecord
  2
ANCON-CONCRETE
 70
     0
 62
     2
  6
CONTINUOUS
370
    -3
390
151
  0
LAYER
  5
30
330
10
100
AcDbSymbolTableRecord
100
AcDbLayerTableRecord
  2
ANCON-GRID
 70
     0
 62
     1
  6
CONTINUOUS
370
    -3
390
151
  0
LAYER
  5
95
330
10
100
AcDbSymbolTableRecord
100
AcDbLayerTableRecord
  2
ANCON-TEXT
 70
     0
 62
     6
  6
CONTINUOUS
370
    -3
390
151
  0
ENDTAB
  0
TABLE
  2
STYLE
  5
11
330
0
100
AcDbSymbolTable
 70
     2
  0
STYLE
  5
12
330
11
100
AcDbSymbolTableRecord
100
AcDbTextStyleTableRecord
  2
STANDARD
 70
     0
 40
0.0
 41
1.0
 50
0.0
 71
     0
 42
6.0
  3
txt.shx
  4

  0
STYLE
  5
28
330
11
100
AcDbSymbolTableRecord
100
AcDbTextStyleTableRecord
  2
ROMANS
 70
     0
 40
0.0
 41
1.0
 50
0.0
 71
     0
 42
5.0
  3
romans
  4

  0
ENDTAB
  0
TABLE
  2
VIEW
  5
1A
330
0
100
AcDbSymbolTable
 70
     0
  0
ENDTAB
  0
TABLE
  2
UCS
  5
1B
330
0
100
AcDbSymbolTable
 70
     0
  0
ENDTAB
  0
TABLE
  2
APPID
  5
1E
330
0
100
AcDbSymbolTable
 70
     1
  0
APPID
  5
1F
330
1E
100
AcDbSymbolTableRecord
100
AcDbRegAppTableRecord
  2
ACAD
 70
     0
  0
ENDTAB
  0
TABLE
  2
DIMSTYLE
  5
20
330
0
100
AcDbSymbolTable
 70
     1
100
AcDbDimStyleTable
 71
     0
  0
DIMSTYLE
105
2A
102
{ACAD_REACTORS
330
113
330
106
330
E7
330
D8
330
F4
330
CB
330
BB
330
AB
330
9E
330
87
330
7A
330
6D
330
60
330
35
102
}
330
20
100
AcDbSymbolTableRecord
100
AcDbDimStyleTableRecord
  2
1-1
 70
     0
 40
0.0
 41
4.0
 42
4.5
 43
10.0
 44
1.5
 46
1.25
 73
     0
 74
     0
 77
     1
 78
    12
140
3.0
141
-3.0
143
0.039
146
0.75
147
1.5
271
     2
272
     2
279
     2
284
    12
285
    12
286
    12
340
12
  0
ENDTAB
  0
TABLE
  2
BLOCK_RECORD
  5
1
330
0
100
AcDbSymbolTable
 70
    14
  0
BLOCK_RECORD
  5
2
102
{ACAD_XDICTIONARY
360
3
102
}
330
1
100
AcDbSymbolTableRecord
100
AcDbBlockTableRecord
  2
*Model_Space
340
154
  0
BLOCK_RECORD
  5
A
102
{ACAD_XDICTIONARY
360
B
102
}
330
1
100
AcDbSymbolTableRecord
100
AcDbBlockTableRecord
  2
*Paper_Space
340
155
  0
BLOCK_RECORD
  5
36
330
1
100
AcDbSymbolTableRecord
100
AcDbBlockTableRecord
  2
*D0
340
0
  0
BLOCK_RECORD
  5
61
330
1
100
AcDbSymbolTableRecord
100
AcDbBlockTableRecord
  2
*D1
340
0
  0
BLOCK_RECORD
  5
6E
330
1
100
AcDbSymbolTableRecord
100
AcDbBlockTableRecord
  2
*D2
340
0
  0
BLOCK_RECORD
  5
7B
330
1
100
AcDbSymbolTableRecord
100
AcDbBlockTableRecord
  2
*D3
340
0
  0
BLOCK_RECORD
  5
88
330
1
100
AcDbSymbolTableRecord
100
AcDbBlockTableRecord
  2
*D4
340
0
  0
BLOCK_RECORD
  5
9F
330
1
100
AcDbSymbolTableRecord
100
AcDbBlockTableRecord
  2
*D5
340
0
  0
BLOCK_RECORD
  5
AC
330
1
100
AcDbSymbolTableRecord
100
AcDbBlockTableRecord
  2
*D6
340
0
  0
BLOCK_RECORD
  5
BC
330
1
100
AcDbSymbolTableRecord
100
AcDbBlockTableRecord
  2
*D7
340
0
  0
BLOCK_RECORD
  5
CC
330
1
100
AcDbSymbolTableRecord
100
AcDbBlockTableRecord
  2
*D8
340
0
  0
BLOCK_RECORD
  5
D9
330
1
100
AcDbSymbolTableRecord
100
AcDbBlockTableRecord
  2
*D9
340
0
  0
BLOCK_RECORD
  5
E8
330
1
100
AcDbSymbolTableRecord
100
AcDbBlockTableRecord
  2
*D10
340
0
  0
BLOCK_RECORD
  5
F5
330
1
100
AcDbSymbolTableRecord
100
AcDbBlockTableRecord
  2
*D11
340
0
  0
BLOCK_RECORD
  5
107
330
1
100
AcDbSymbolTableRecord
100
AcDbBlockTableRecord
  2
*D12
340
0
  0
BLOCK_RECORD
  5
114
330
1
100
AcDbSymbolTableRecord
100
AcDbBlockTableRecord
  2
*D13
340
0
  0
ENDTAB
  0
ENDSEC
  0
SECTION
  2
BLOCKS
  0
BLOCK
  5
6
330
2
100
AcDbEntity
  8
0
100
AcDbBlockBegin
  2
*Model_Space
 70
     0
 10
0.0
 20
0.0
 30
0.0
  3
*Model_Space
  1

  0
ENDBLK
  5
9
330
2
100
AcDbEntity
  8
0
100
AcDbBlockEnd
  0
BLOCK
  5
E
330
A
100
AcDbEntity
 67
     1
  8
0
100
AcDbBlockBegin
  2
*Paper_Space
 70
     0
 10
0.0
 20
0.0
 30
0.0
  3
*Paper_Space
  1

  0
ENDBLK
  5
F
330
A
100
AcDbEntity
 67
     1
  8
0
100
AcDbBlockEnd
  0
BLOCK
  5
43
330
36
100
AcDbEntity
  8
0
100
AcDbBlockBegin
  2
*D0
 70
     1
 10
0.0
 20
0.0
 30
0.0
  3
*D0
  1

  0
LINE
  5
37
330
36
100
AcDbEntity
  8
0
  6
ByBlock
 62
     0
100
AcDbLine
 10
0.0000000000000432
 20
-104.4999999999999
 30
0.0
 11
0.0000000000000405
 21
-148.1585776634491
 31
0.0
  0
LINE
  5
38
330
36
100
AcDbEntity
  8
0
  6
ByBlock
 62
     0
100
AcDbLine
 10
230.0
 20
-21.99999999999988
 30
0.0
 11
230.0
 21
-148.1585776634491
 31
0.0
  0
LINE
  5
39
330
36
100
AcDbEntity
  8
0
  6
ByBlock
 62
     0
100
AcDbLine
 10
4.00000000000004
 20
-146.6585776634491
 30
0.0
 11
226.0000000000001
 21
-146.6585776634491
 31
0.0
  0
SOLID
  5
3A
330
36
100
AcDbEntity
  8
0
  6
ByBlock
 62
     0
100
AcDbTrace
 10
4.00000000000004
 20
-145.9919109967824
 30
0.0
 11
4.00000000000004
 21
-147.3252443301158
 31
0.0
 12
0.0000000000000406
 22
-146.6585776634491
 32
0.0
 13
0.0000000000000406
 23
-146.6585776634491
 33
0.0
  0
SOLID
  5
3B
330
36
100
AcDbEntity
  8
0
  6
ByBlock
 62
     0
100
AcDbTrace
 10
226.0000000000001
 20
-145.9919109967824
 30
0.0
 11
226.0000000000001
 21
-147.3252443301158
 31
0.0
 12
230.0
 22
-146.6585776634491
 32
0.0
 13
230.0
 23
-146.6585776634491
 33
0.0
  0
MTEXT
  5
3C
330
36
100
AcDbEntity
  8
0
  6
ByBlock
 62
     0
100
AcDbMText
 10
115.0
 20
-143.6585776634491
 30
0.0
 40
3.0
 41
0.0
 71
     5
 72
     1
  1
\A1;230
 73
     1
 44
1.0
1001
ACAD
1000
MTEXTBEGIN
1070
    73
1070
     1
1070
    44
1040
1.0
1070
    74
1070
     0
1000
MTEXTEND
  0
POINT
  5
3D
330
36
100
AcDbEntity
  8
DEFPOINTS
  6
ByBlock
 62
     0
100
AcDbPoint
 10
0.0000000000000434
 20
-100.0
 30
0.0
  0
POINT
  5
41
330
36
100
AcDbEntity
  8
DEFPOINTS
  6
ByBlock
 62
     0
100
AcDbPoint
 10
230.0
 20
-17.49999999999988
 30
0.0
  0
POINT
  5
42
330
36
100
AcDbEntity
  8
DEFPOINTS
  6
ByBlock
 62
     0
100
AcDbPoint
 10
230.0
 20
-146.6585776634491
 30
0.0
  0
ENDBLK
  5
44
330
36
100
AcDbEntity
  8
0
100
AcDbBlockEnd
  0
BLOCK
  5
6B
330
61
100
AcDbEntity
  8
0
100
AcDbBlockBegin
  2
*D1
 70
     1
 10
0.0
 20
0.0
 30
0.0
  3
*D1
  1

  0
LINE
  5
62
330
61
100
AcDbEntity
  8
0
  6
ByBlock
 62
     0
100
AcDbLine
 10
-109.0
 20
-109.4999999999999
 30
0.0
 11
-109.0
 21
-130.0584405018526
 31
0.0
  0
LINE
  5
63
330
61
100
AcDbEntity
  8
0
  6
ByBlock
 62
     0
100
AcDbLine
 10
-54.0
 20
-59.50000000000017
 30
0.0
 11
-54.00000000000001
 21
-130.0584405018526
 31
0.0
  0
LINE
  5
64
330
61
100
AcDbEntity
  8
0
  6
ByBlock
 62
     0
100
AcDbLine
 10
-105.0
 20
-128.5584405018526
 30
0.0
 11
-58.0
 21
-128.5584405018526
 31
0.0
  0
SOLID
  5
65
330
61
100
AcDbEntity
  8
0
  6
ByBlock
 62
     0
100
AcDbTrace
 10
-105.0
 20
-127.8917738351859
 30
0.0
 11
-105.0
 21
-129.2251071685193
 31
0.0
 12
-109.0
 22
-128.5584405018526
 32
0.0
 13
-109.0
 23
-128.5584405018526
 33
0.0
  0
SOLID
  5
66
330
61
100
AcDbEntity
  8
0
  6
ByBlock
 62
     0
100
AcDbTrace
 10
-58.0
 20
-127.8917738351859
 30
0.0
 11
-58.0
 21
-129.2251071685193
 31
0.0
 12
-54.00000000000001
 22
-128.5584405018526
 32
0.0
 13
-54.00000000000001
 23
-128.5584405018526
 33
0.0
  0
MTEXT
  5
67
330
61
100
AcDbEntity
  8
0
  6
ByBlock
 62
     0
100
AcDbMText
 10
-81.50000000000003
 20
-125.5584405018526
 30
0.0
 40
3.0
 41
0.0
 71
     5
 72
     1
  1
\A1;55
 73
     1
 44
1.0
1001
ACAD
1000
MTEXTBEGIN
1070
    73
1070
     1
1070
    44
1040
1.0
1070
    74
1070
     0
1000
MTEXTEND
  0
POINT
  5
68
330
61
100
AcDbEntity
  8
DEFPOINTS
  6
ByBlock
 62
     0
100
AcDbPoint
 10
-109.0
 20
-105.0
 30
0.0
  0
POINT
  5
69
330
61
100
AcDbEntity
  8
DEFPOINTS
  6
ByBlock
 62
     0
100
AcDbPoint
 10
-54.0
 20
-55.00000000000017
 30
0.0
  0
POINT
  5
6A
330
61
100
AcDbEntity
  8
DEFPOINTS
  6
ByBlock
 62
     0
100
AcDbPoint
 10
-54.00000000000001
 20
-128.5584405018526
 30
0.0
  0
ENDBLK
  5
6C
330
61
100
AcDbEntity
  8
0
100
AcDbBlockEnd
  0
BLOCK
  5
78
330
6E
100
AcDbEntity
  8
0
100
AcDbBlockBegin
  2
*D2
 70
     1
 10
0.0
 20
0.0
 30
0.0
  3
*D2
  1

  0
LINE
  5
6F
330
6E
100
AcDbEntity
  8
0
  6
ByBlock
 62
     0
100
AcDbLine
 10
-210.0
 20
-17.50000000000028
 30
0.0
 11
-210.0
 21
-148.1585776634491
 31
0.0
  0
LINE
  5
70
330
6E
100
AcDbEntity
  8
0
  6
ByBlock
 62
     0
100
AcDbLine
 10
-19.99999999999996
 20
-39.5
 30
0.0
 11
-19.99999999999997
 21
-148.1585776634491
 31
0.0
  0
LINE
  5
71
330
6E
100
AcDbEntity
  8
0
  6
ByBlock
 62
     0
100
AcDbLine
 10
-206.0
 20
-146.6585776634491
 30
0.0
 11
-23.99999999999997
 21
-146.6585776634491
 31
0.0
  0
SOLID
  5
72
330
6E
100
AcDbEntity
  8
0
  6
ByBlock
 62
     0
100
AcDbTrace
 10
-206.0
 20
-145.9919109967824
 30
0.0
 11
-206.0
 21
-147.3252443301158
 31
0.0
 12
-210.0
 22
-146.6585776634491
 32
0.0
 13
-210.0
 23
-146.6585776634491
 33
0.0
  0
SOLID
  5
73
330
6E
100
AcDbEntity
  8
0
  6
ByBlock
 62
     0
100
AcDbTrace
 10
-23.99999999999997
 20
-145.9919109967824
 30
0.0
 11
-23.99999999999997
 21
-147.3252443301158
 31
0.0
 12
-19.99999999999997
 22
-146.6585776634491
 32
0.0
 13
-19.99999999999997
 23
-146.6585776634491
 33
0.0
  0
MTEXT
  5
74
330
6E
100
AcDbEntity
  8
0
  6
ByBlock
 62
     0
100
AcDbMText
 10
-114.9999999999999
 20
-143.6585776634491
 30
0.0
 40
3.0
 41
0.0
 71
     5
 72
     1
  1
\A1;190
 73
     1
 44
1.0
1001
ACAD
1000
MTEXTBEGIN
1070
    73
1070
     1
1070
    44
1040
1.0
1070
    74
1070
     0
1000
MTEXTEND
  0
POINT
  5
75
330
6E
100
AcDbEntity
  8
DEFPOINTS
  6
ByBlock
 62
     0
100
AcDbPoint
 10
-210.0
 20
-13.00000000000028
 30
0.0
  0
POINT
  5
76
330
6E
100
AcDbEntity
  8
DEFPOINTS
  6
ByBlock
 62
     0
100
AcDbPoint
 10
-19.99999999999996
 20
-35.0
 30
0.0
  0
POINT
  5
77
330
6E
100
AcDbEntity
  8
DEFPOINTS
  6
ByBlock
 62
     0
100
AcDbPoint
 10
-19.99999999999997
 20
-146.6585776634491
 30
0.0
  0
ENDBLK
  5
79
330
6E
100
AcDbEntity
  8
0
100
AcDbBlockEnd
  0
BLOCK
  5
85
330
7B
100
AcDbEntity
  8
0
100
AcDbBlockBegin
  2
*D3
 70
     1
 10
0.0
 20
0.0
 30
0.0
  3
*D3
  1

  0
LINE
  5
7C
330
7B
100
AcDbEntity
  8
0
  6
ByBlock
 62
     0
100
AcDbLine
 10
-109.0
 20
-109.4999999999999
 30
0.0
 11
-109.0
 21
-130.0584405018526
 31
0.0
  0
LINE
  5
7D
330
7B
100
AcDbEntity
  8
0
  6
ByBlock
 62
     0
100
AcDbLine
 10
-54.0
 20
-59.50000000000017
 30
0.0
 11
-54.00000000000001
 21
-130.0584405018526
 31
0.0
  0
LINE
  5
7E
330
7B
100
AcDbEntity
  8
0
  6
ByBlock
 62
     0
100
AcDbLine
 10
-105.0
 20
-128.5584405018526
 30
0.0
 11
-58.0
 21
-128.5584405018526
 31
0.0
  0
SOLID
  5
7F
330
7B
100
AcDbEntity
  8
0
  6
ByBlock
 62
     0
100
AcDbTrace
 10
-105.0
 20
-127.8917738351859
 30
0.0
 11
-105.0
 21
-129.2251071685193
 31
0.0
 12
-109.0
 22
-128.5584405018526
 32
0.0
 13
-109.0
 23
-128.5584405018526
 33
0.0
  0
SOLID
  5
80
330
7B
100
AcDbEntity
  8
0
  6
ByBlock
 62
     0
100
AcDbTrace
 10
-58.0
 20
-127.8917738351859
 30
0.0
 11
-58.0
 21
-129.2251071685193
 31
0.0
 12
-54.00000000000001
 22
-128.5584405018526
 32
0.0
 13
-54.00000000000001
 23
-128.5584405018526
 33
0.0
  0
MTEXT
  5
81
330
7B
100
AcDbEntity
  8
0
  6
ByBlock
 62
     0
100
AcDbMText
 10
-81.50000000000003
 20
-125.5584405018526
 30
0.0
 40
3.0
 41
0.0
 71
     5
 72
     1
  1
\A1;55
 73
     1
 44
1.0
1001
ACAD
1000
MTEXTBEGIN
1070
    73
1070
     1
1070
    44
1040
1.0
1070
    74
1070
     0
1000
MTEXTEND
  0
POINT
  5
82
330
7B
100
AcDbEntity
  8
DEFPOINTS
  6
ByBlock
 62
     0
100
AcDbPoint
 10
-109.0
 20
-105.0
 30
0.0
  0
POINT
  5
83
330
7B
100
AcDbEntity
  8
DEFPOINTS
  6
ByBlock
 62
     0
100
AcDbPoint
 10
-54.0
 20
-55.00000000000017
 30
0.0
  0
POINT
  5
84
330
7B
100
AcDbEntity
  8
DEFPOINTS
  6
ByBlock
 62
     0
100
AcDbPoint
 10
-54.00000000000001
 20
-128.5584405018526
 30
0.0
  0
ENDBLK
  5
86
330
7B
100
AcDbEntity
  8
0
100
AcDbBlockEnd
  0
BLOCK
  5
92
330
88
100
AcDbEntity
  8
0
100
AcDbBlockBegin
  2
*D4
 70
     1
 10
0.0
 20
0.0
 30
0.0
  3
*D4
  1

  0
LINE
  5
89
330
88
100
AcDbEntity
  8
0
  6
ByBlock
 62
     0
100
AcDbLine
 10
-210.0
 20
-17.50000000000028
 30
0.0
 11
-210.0
 21
-148.1585776634491
 31
0.0
  0
LINE
  5
8A
330
88
100
AcDbEntity
  8
0
  6
ByBlock
 62
     0
100
AcDbLine
 10
-19.99999999999996
 20
-39.5
 30
0.0
 11
-19.99999999999997
 21
-148.1585776634491
 31
0.0
  0
LINE
  5
8B
330
88
100
AcDbEntity
  8
0
  6
ByBlock
 62
     0
100
AcDbLine
 10
-206.0
 20
-146.6585776634491
 30
0.0
 11
-23.99999999999997
 21
-146.6585776634491
 31
0.0
  0
SOLID
  5
8C
330
88
100
AcDbEntity
  8
0
  6
ByBlock
 62
     0
100
AcDbTrace
 10
-206.0
 20
-145.9919109967824
 30
0.0
 11
-206.0
 21
-147.3252443301158
 31
0.0
 12
-210.0
 22
-146.6585776634491
 32
0.0
 13
-210.0
 23
-146.6585776634491
 33
0.0
  0
SOLID
  5
8D
330
88
100
AcDbEntity
  8
0
  6
ByBlock
 62
     0
100
AcDbTrace
 10
-23.99999999999997
 20
-145.9919109967824
 30
0.0
 11
-23.99999999999997
 21
-147.3252443301158
 31
0.0
 12
-19.99999999999997
 22
-146.6585776634491
 32
0.0
 13
-19.99999999999997
 23
-146.6585776634491
 33
0.0
  0
MTEXT
  5
8E
330
88
100
AcDbEntity
  8
0
  6
ByBlock
 62
     0
100
AcDbMText
 10
-114.9999999999999
 20
-143.6585776634491
 30
0.0
 40
3.0
 41
0.0
 71
     5
 72
     1
  1
\A1;190
 73
     1
 44
1.0
1001
ACAD
1000
MTEXTBEGIN
1070
    73
1070
     1
1070
    44
1040
1.0
1070
    74
1070
     0
1000
MTEXTEND
  0
POINT
  5
8F
330
88
100
AcDbEntity
  8
DEFPOINTS
  6
ByBlock
 62
     0
100
AcDbPoint
 10
-210.0
 20
-13.00000000000028
 30
0.0
  0
POINT
  5
90
330
88
100
AcDbEntity
  8
DEFPOINTS
  6
ByBlock
 62
     0
100
AcDbPoint
 10
-19.99999999999996
 20
-35.0
 30
0.0
  0
POINT
  5
91
330
88
100
AcDbEntity
  8
DEFPOINTS
  6
ByBlock
 62
     0
100
AcDbPoint
 10
-19.99999999999997
 20
-146.6585776634491
 30
0.0
  0
ENDBLK
  5
93
330
88
100
AcDbEntity
  8
0
100
AcDbBlockEnd
  0
BLOCK
  5
A9
330
9F
100
AcDbEntity
  8
0
100
AcDbBlockBegin
  2
*D5
 70
     1
 10
0.0
 20
0.0
 30
0.0
  3
*D5
  1

  0
LINE
  5
A0
330
9F
100
AcDbEntity
  8
0
  6
ByBlock
 62
     0
100
AcDbLine
 10
-20.0
 20
-86.90057580687776
 30
0.0
 11
-20.0
 21
-148.0760426093129
 31
0.0
  0
LINE
  5
A1
330
9F
100
AcDbEntity
  8
0
  6
ByBlock
 62
     0
100
AcDbLine
 10
-0.0000000000000003
 20
-106.9005758068776
 30
0.0
 11
-0.0000000000000028
 21
-148.0760426093129
 31
0.0
  0
LINE
  5
A2
330
9F
100
AcDbEntity
  8
0
  6
ByBlock
 62
     0
100
AcDbLine
 10
-16.0
 20
-146.5760426093129
 30
0.0
 11
-4.000000000000002
 21
-146.5760426093129
 31
0.0
  0
SOLID
  5
A3
330
9F
100
AcDbEntity
  8
0
  6
ByBlock
 62
     0
100
AcDbTrace
 10
-16.0
 20
-145.9093759426462
 30
0.0
 11
-16.0
 21
-147.2427092759795
 31
0.0
 12
-20.0
 22
-146.5760426093129
 32
0.0
 13
-20.0
 23
-146.5760426093129
 33
0.0
  0
SOLID
  5
A4
330
9F
100
AcDbEntity
  8
0
  6
ByBlock
 62
     0
100
AcDbTrace
 10
-4.000000000000002
 20
-145.9093759426462
 30
0.0
 11
-4.000000000000002
 21
-147.2427092759795
 31
0.0
 12
-0.0000000000000027
 22
-146.5760426093129
 32
0.0
 13
-0.0000000000000027
 23
-146.5760426093129
 33
0.0
  0
MTEXT
  5
A5
330
9F
100
AcDbEntity
  8
0
  6
ByBlock
 62
     0
100
AcDbMText
 10
-10.0
 20
-143.5760426093129
 30
0.0
 40
3.0
 41
0.0
 71
     5
 72
     1
  1
\A1;20
 73
     1
 44
1.0
1001
ACAD
1000
MTEXTBEGIN
1070
    73
1070
     1
1070
    44
1040
1.0
1070
    74
1070
     0
1000
MTEXTEND
  0
POINT
  5
A6
330
9F
100
AcDbEntity
  8
DEFPOINTS
  6
ByBlock
 62
     0
100
AcDbPoint
 10
-20.0
 20
-82.40057580687775
 30
0.0
  0
POINT
  5
A7
330
9F
100
AcDbEntity
  8
DEFPOINTS
  6
ByBlock
 62
     0
100
AcDbPoint
 10
0.0
 20
-102.4005758068776
 30
0.0
  0
POINT
  5
A8
330
9F
100
AcDbEntity
  8
DEFPOINTS
  6
ByBlock
 62
     0
100
AcDbPoint
 10
-0.0000000000000027
 20
-146.5760426093129
 30
0.0
  0
ENDBLK
  5
AA
330
9F
100
AcDbEntity
  8
0
100
AcDbBlockEnd
  0
BLOCK
  5
B6
330
AC
100
AcDbEntity
  8
0
100
AcDbBlockBegin
  2
*D6
 70
     1
 10
0.0
 20
0.0
 30
0.0
  3
*D6
  1

  0
LINE
  5
AD
330
AC
100
AcDbEntity
  8
0
  6
ByBlock
 62
     0
100
AcDbLine
 10
-19.99999999999996
 20
-39.5
 30
0.0
 11
-19.99999999999997
 21
-148.1585776634491
 31
0.0
  0
LINE
  5
AE
330
AC
100
AcDbEntity
  8
0
  6
ByBlock
 62
     0
100
AcDbLine
 10
0.0000000000000343
 20
-54.49999999999999
 30
0.0
 11
0.0000000000000286
 21
-148.1585776634491
 31
0.0
  0
LINE
  5
AF
330
AC
100
AcDbEntity
  8
0
  6
ByBlock
 62
     0
100
AcDbLine
 10
-15.99999999999997
 20
-146.6585776634491
 30
0.0
 11
-3.999999999999971
 21
-146.6585776634491
 31
0.0
  0
SOLID
  5
B0
330
AC
100
AcDbEntity
  8
0
  6
ByBlock
 62
     0
100
AcDbTrace
 10
-15.99999999999997
 20
-145.9919109967824
 30
0.0
 11
-15.99999999999997
 21
-147.3252443301158
 31
0.0
 12
-19.99999999999997
 22
-146.6585776634491
 32
0.0
 13
-19.99999999999997
 23
-146.6585776634491
 33
0.0
  0
SOLID
  5
B1
330
AC
100
AcDbEntity
  8
0
  6
ByBlock
 62
     0
100
AcDbTrace
 10
-3.999999999999971
 20
-145.9919109967824
 30
0.0
 11
-3.999999999999971
 21
-147.3252443301158
 31
0.0
 12
0.0000000000000286
 22
-146.6585776634491
 32
0.0
 13
0.0000000000000286
 23
-146.6585776634491
 33
0.0
  0
MTEXT
  5
B2
330
AC
100
AcDbEntity
  8
0
  6
ByBlock
 62
     0
100
AcDbMText
 10
-9.999999999999973
 20
-143.6585776634491
 30
0.0
 40
3.0
 41
0.0
 71
     5
 72
     1
  1
\A1;20
 73
     1
 44
1.0
1001
ACAD
1000
MTEXTBEGIN
1070
    73
1070
     1
1070
    44
1040
1.0
1070
    74
1070
     0
1000
MTEXTEND
  0
POINT
  5
B3
330
AC
100
AcDbEntity
  8
DEFPOINTS
  6
ByBlock
 62
     0
100
AcDbPoint
 10
-19.99999999999996
 20
-35.0
 30
0.0
  0
POINT
  5
B4
330
AC
100
AcDbEntity
  8
DEFPOINTS
  6
ByBlock
 62
     0
100
AcDbPoint
 10
0.0000000000000346
 20
-50.0
 30
0.0
  0
POINT
  5
B5
330
AC
100
AcDbEntity
  8
DEFPOINTS
  6
ByBlock
 62
     0
100
AcDbPoint
 10
0.0000000000000286
 20
-146.6585776634491
 30
0.0
  0
ENDBLK
  5
B7
330
AC
100
AcDbEntity
  8
0
100
AcDbBlockEnd
  0
BLOCK
  5
C8
330
BC
100
AcDbEntity
  8
0
100
AcDbBlockBegin
  2
*D7
 70
     1
 10
0.0
 20
0.0
 30
0.0
  3
*D7
  1

  0
LINE
  5
BD
330
BC
100
AcDbEntity
  8
0
  6
ByBlock
 62
     0
100
AcDbLine
 10
3.999999999999999
 20
-54.5
 30
0.0
 11
3.999999999999995
 21
-130.0584405018526
 31
0.0
  0
LINE
  5
BE
330
BC
100
AcDbEntity
  8
0
  6
ByBlock
 62
     0
100
AcDbLine
 10
0.0000000000000343
 20
-54.49999999999999
 30
0.0
 11
0.0000000000000297
 21
-130.0584405018526
 31
0.0
  0
LINE
  5
BF
330
BC
100
AcDbEntity
  8
0
  6
ByBlock
 62
     0
100
AcDbLine
 10
7.999999999999994
 20
-128.5584405018526
 30
0.0
 11
11.99999999999999
 21
-128.5584405018526
 31
0.0
  0
LINE
  5
C0
330
BC
100
AcDbEntity
  8
0
  6
ByBlock
 62
     0
100
AcDbLine
 10
-3.99999999999997
 20
-128.5584405018526
 30
0.0
 11
-7.999999999999969
 21
-128.5584405018526
 31
0.0
  0
MTEXT
  5
C1
330
BC
100
AcDbEntity
  8
0
  6
ByBlock
 62
     0
100
AcDbMText
 10
-5.688156394981316
 20
-125.5584405018526
 30
0.0
 40
3.0
 41
0.0
 71
     5
 72
     1
  1
\A1;4
 73
     1
 44
1.0
1001
ACAD
1000
MTEXTBEGIN
1070
    73
1070
     1
1070
    44
1040
1.0
1070
    74
1070
     0
1000
MTEXTEND
  0
LINE
  5
C2
330
BC
100
AcDbEntity
  8
0
  6
ByBlock
 62
     0
100
AcDbLine
 10
3.999999999999995
 20
-128.5584405018526
 30
0.0
 11
0.0000000000000298
 21
-128.5584405018526
 31
0.0
  0
SOLID
  5
C3
330
BC
100
AcDbEntity
  8
0
  6
ByBlock
 62
     0
100
AcDbTrace
 10
7.999999999999994
 20
-127.8917738351859
 30
0.0
 11
7.999999999999994
 21
-129.2251071685193
 31
0.0
 12
3.999999999999995
 22
-128.5584405018526
 32
0.0
 13
3.999999999999995
 23
-128.5584405018526
 33
0.0
  0
SOLID
  5
C4
330
BC
100
AcDbEntity
  8
0
  6
ByBlock
 62
     0
100
AcDbTrace
 10
-3.99999999999997
 20
-127.8917738351859
 30
0.0
 11
-3.99999999999997
 21
-129.2251071685193
 31
0.0
 12
0.0000000000000298
 22
-128.5584405018526
 32
0.0
 13
0.0000000000000298
 23
-128.5584405018526
 33
0.0
  0
POINT
  5
C5
330
BC
100
AcDbEntity
  8
DEFPOINTS
  6
ByBlock
 62
     0
100
AcDbPoint
 10
4.0
 20
-50.0
 30
0.0
  0
POINT
  5
C6
330
BC
100
AcDbEntity
  8
DEFPOINTS
  6
ByBlock
 62
     0
100
AcDbPoint
 10
0.0000000000000346
 20
-50.0
 30
0.0
  0
POINT
  5
C7
330
BC
100
AcDbEntity
  8
DEFPOINTS
  6
ByBlock
 62
     0
100
AcDbPoint
 10
0.0000000000000298
 20
-128.5584405018526
 30
0.0
  0
ENDBLK
  5
C9
330
BC
100
AcDbEntity
  8
0
100
AcDbBlockEnd
  0
BLOCK
  5
D6
330
CC
100
AcDbEntity
  8
0
100
AcDbBlockBegin
  2
*D8
 70
     1
 10
0.0
 20
0.0
 30
0.0
  3
*D8
  1

  0
LINE
  5
CD
330
CC
100
AcDbEntity
  8
0
  6
ByBlock
 62
     0
100
AcDbLine
 10
-54.0
 20
-59.50000000000017
 30
0.0
 11
-54.00000000000001
 21
-130.0584405018526
 31
0.0
  0
LINE
  5
CE
330
CC
100
AcDbEntity
  8
0
  6
ByBlock
 62
     0
100
AcDbLine
 10
-28.0
 20
-39.5
 30
0.0
 11
-28.0
 21
-130.0584405018526
 31
0.0
  0
LINE
  5
CF
330
CC
100
AcDbEntity
  8
0
  6
ByBlock
 62
     0
100
AcDbLine
 10
-50.0
 20
-128.5584405018526
 30
0.0
 11
-32.00000000000001
 21
-128.5584405018526
 31
0.0
  0
SOLID
  5
D0
330
CC
100
AcDbEntity
  8
0
  6
ByBlock
 62
     0
100
AcDbTrace
 10
-50.0
 20
-127.8917738351859
 30
0.0
 11
-50.0
 21
-129.2251071685193
 31
0.0
 12
-54.00000000000001
 22
-128.5584405018526
 32
0.0
 13
-54.00000000000001
 23
-128.5584405018526
 33
0.0
  0
SOLID
  5
D1
330
CC
100
AcDbEntity
  8
0
  6
ByBlock
 62
     0
100
AcDbTrace
 10
-32.00000000000001
 20
-127.8917738351859
 30
0.0
 11
-32.00000000000001
 21
-129.2251071685193
 31
0.0
 12
-28.0
 22
-128.5584405018526
 32
0.0
 13
-28.0
 23
-128.5584405018526
 33
0.0
  0
MTEXT
  5
D2
330
CC
100
AcDbEntity
  8
0
  6
ByBlock
 62
     0
100
AcDbMText
 10
-41.0
 20
-125.5584405018526
 30
0.0
 40
3.0
 41
0.0
 71
     5
 72
     1
  1
\A1;26
 73
     1
 44
1.0
1001
ACAD
1000
MTEXTBEGIN
1070
    73
1070
     1
1070
    44
1040
1.0
1070
    74
1070
     0
1000
MTEXTEND
  0
POINT
  5
D3
330
CC
100
AcDbEntity
  8
DEFPOINTS
  6
ByBlock
 62
     0
100
AcDbPoint
 10
-54.0
 20
-55.00000000000017
 30
0.0
  0
POINT
  5
D4
330
CC
100
AcDbEntity
  8
DEFPOINTS
  6
ByBlock
 62
     0
100
AcDbPoint
 10
-28.0
 20
-35.0
 30
0.0
  0
POINT
  5
D5
330
CC
100
AcDbEntity
  8
DEFPOINTS
  6
ByBlock
 62
     0
100
AcDbPoint
 10
-28.0
 20
-128.5584405018526
 30
0.0
  0
ENDBLK
  5
D7
330
CC
100
AcDbEntity
  8
0
100
AcDbBlockEnd
  0
BLOCK
  5
E5
330
D9
100
AcDbEntity
  8
0
100
AcDbBlockBegin
  2
*D9
 70
     1
 10
0.0
 20
0.0
 30
0.0
  3
*D9
  1

  0
LINE
  5
DA
330
D9
100
AcDbEntity
  8
0
  6
ByBlock
 62
     0
100
AcDbLine
 10
-28.0
 20
-39.5
 30
0.0
 11
-28.0
 21
-130.0584405018526
 31
0.0
  0
LINE
  5
DB
330
D9
100
AcDbEntity
  8
0
  6
ByBlock
 62
     0
100
AcDbLine
 10
-19.99999999999996
 20
-39.5
 30
0.0
 11
-19.99999999999997
 21
-130.0584405018526
 31
0.0
  0
LINE
  5
DC
330
D9
100
AcDbEntity
  8
0
  6
ByBlock
 62
     0
100
AcDbLine
 10
-32.00000000000001
 20
-128.5584405018526
 30
0.0
 11
-36.0
 21
-128.5584405018526
 31
0.0
  0
LINE
  5
DD
330
D9
100
AcDbEntity
  8
0
  6
ByBlock
 62
     0
100
AcDbLine
 10
-15.99999999999997
 20
-128.5584405018526
 30
0.0
 11
-11.99999999999997
 21
-128.5584405018526
 31
0.0
  0
MTEXT
  5
DE
330
D9
100
AcDbEntity
  8
0
  6
ByBlock
 62
     0
100
AcDbMText
 10
-13.96513147182954
 20
-125.5584405018526
 30
0.0
 40
3.0
 41
0.0
 71
     5
 72
     1
  1
\A1;8
 73
     1
 44
1.0
1001
ACAD
1000
MTEXTBEGIN
1070
    73
1070
     1
1070
    44
1040
1.0
1070
    74
1070
     0
1000
MTEXTEND
  0
LINE
  5
DF
330
D9
100
AcDbEntity
  8
0
  6
ByBlock
 62
     0
100
AcDbLine
 10
-28.0
 20
-128.5584405018526
 30
0.0
 11
-19.99999999999997
 21
-128.5584405018526
 31
0.0
  0
SOLID
  5
E0
330
D9
100
AcDbEntity
  8
0
  6
ByBlock
 62
     0
100
AcDbTrace
 10
-32.00000000000001
 20
-127.8917738351859
 30
0.0
 11
-32.00000000000001
 21
-129.2251071685193
 31
0.0
 12
-28.0
 22
-128.5584405018526
 32
0.0
 13
-28.0
 23
-128.5584405018526
 33
0.0
  0
SOLID
  5
E1
330
D9
100
AcDbEntity
  8
0
  6
ByBlock
 62
     0
100
AcDbTrace
 10
-15.99999999999997
 20
-127.8917738351859
 30
0.0
 11
-15.99999999999997
 21
-129.2251071685193
 31
0.0
 12
-19.99999999999997
 22
-128.5584405018526
 32
0.0
 13
-19.99999999999997
 23
-128.5584405018526
 33
0.0
  0
POINT
  5
E2
330
D9
100
AcDbEntity
  8
DEFPOINTS
  6
ByBlock
 62
     0
100
AcDbPoint
 10
-28.0
 20
-35.0
 30
0.0
  0
POINT
  5
E3
330
D9
100
AcDbEntity
  8
DEFPOINTS
  6
ByBlock
 62
     0
100
AcDbPoint
 10
-19.99999999999996
 20
-35.0
 30
0.0
  0
POINT
  5
E4
330
D9
100
AcDbEntity
  8
DEFPOINTS
  6
ByBlock
 62
     0
100
AcDbPoint
 10
-19.99999999999997
 20
-128.5584405018526
 30
0.0
  0
ENDBLK
  5
E6
330
D9
100
AcDbEntity
  8
0
100
AcDbBlockEnd
  0
BLOCK
  5
F2
330
E8
100
AcDbEntity
  8
0
100
AcDbBlockBegin
  2
*D10
 70
     1
 10
0.0
 20
0.0
 30
0.0
  3
*D10
  1

  0
LINE
  5
E9
330
E8
100
AcDbEntity
  8
0
  6
ByBlock
 62
     0
100
AcDbLine
 10
-54.0
 20
-59.50000000000017
 30
0.0
 11
-54.00000000000001
 21
-130.0584405018526
 31
0.0
  0
LINE
  5
EA
330
E8
100
AcDbEntity
  8
0
  6
ByBlock
 62
     0
100
AcDbLine
 10
-28.0
 20
-39.5
 30
0.0
 11
-28.0
 21
-130.0584405018526
 31
0.0
  0
LINE
  5
EB
330
E8
100
AcDbEntity
  8
0
  6
ByBlock
 62
     0
100
AcDbLine
 10
-50.0
 20
-128.5584405018526
 30
0.0
 11
-32.00000000000001
 21
-128.5584405018526
 31
0.0
  0
SOLID
  5
EC
330
E8
100
AcDbEntity
  8
0
  6
ByBlock
 62
     0
100
AcDbTrace
 10
-50.0
 20
-127.8917738351859
 30
0.0
 11
-50.0
 21
-129.2251071685193
 31
0.0
 12
-54.00000000000001
 22
-128.5584405018526
 32
0.0
 13
-54.00000000000001
 23
-128.5584405018526
 33
0.0
  0
SOLID
  5
ED
330
E8
100
AcDbEntity
  8
0
  6
ByBlock
 62
     0
100
AcDbTrace
 10
-32.00000000000001
 20
-127.8917738351859
 30
0.0
 11
-32.00000000000001
 21
-129.2251071685193
 31
0.0
 12
-28.0
 22
-128.5584405018526
 32
0.0
 13
-28.0
 23
-128.5584405018526
 33
0.0
  0
MTEXT
  5
EE
330
E8
100
AcDbEntity
  8
0
  6
ByBlock
 62
     0
100
AcDbMText
 10
-41.0
 20
-125.5584405018526
 30
0.0
 40
3.0
 41
0.0
 71
     5
 72
     1
  1
\A1;26
 73
     1
 44
1.0
1001
ACAD
1000
MTEXTBEGIN
1070
    73
1070
     1
1070
    44
1040
1.0
1070
    74
1070
     0
1000
MTEXTEND
  0
POINT
  5
EF
330
E8
100
AcDbEntity
  8
DEFPOINTS
  6
ByBlock
 62
     0
100
AcDbPoint
 10
-54.0
 20
-55.00000000000017
 30
0.0
  0
POINT
  5
F0
330
E8
100
AcDbEntity
  8
DEFPOINTS
  6
ByBlock
 62
     0
100
AcDbPoint
 10
-28.0
 20
-35.0
 30
0.0
  0
POINT
  5
F1
330
E8
100
AcDbEntity
  8
DEFPOINTS
  6
ByBlock
 62
     0
100
AcDbPoint
 10
-28.0
 20
-128.5584405018526
 30
0.0
  0
ENDBLK
  5
F3
330
E8
100
AcDbEntity
  8
0
100
AcDbBlockEnd
  0
BLOCK
  5
100
330
F5
100
AcDbEntity
  8
0
100
AcDbBlockBegin
  2
*D11
 70
     1
 10
0.0
 20
0.0
 30
0.0
  3
*D11
  1

  0
LINE
  5
F6
330
F5
100
AcDbEntity
  8
0
  6
ByBlock
 62
     0
100
AcDbLine
 10
-28.0
 20
-39.5
 30
0.0
 11
-28.0
 21
-130.0584405018526
 31
0.0
  0
LINE
  5
F7
330
F5
100
AcDbEntity
  8
0
  6
ByBlock
 62
     0
100
AcDbLine
 10
-19.99999999999996
 20
-39.5
 30
0.0
 11
-19.99999999999997
 21
-130.0584405018526
 31
0.0
  0
LINE
  5
F8
330
F5
100
AcDbEntity
  8
0
  6
ByBlock
 62
     0
100
AcDbLine
 10
-32.00000000000001
 20
-128.5584405018526
 30
0.0
 11
-36.0
 21
-128.5584405018526
 31
0.0
  0
LINE
  5
F9
330
F5
100
AcDbEntity
  8
0
  6
ByBlock
 62
     0
100
AcDbLine
 10
-15.99999999999997
 20
-128.5584405018526
 30
0.0
 11
-11.99999999999997
 21
-128.5584405018526
 31
0.0
  0
SOLID
  5
FA
330
F5
100
AcDbEntity
  8
0
  6
ByBlock
 62
     0
100
AcDbTrace
 10
-32.00000000000001
 20
-127.8917738351859
 30
0.0
 11
-32.00000000000001
 21
-129.2251071685193
 31
0.0
 12
-28.0
 22
-128.5584405018526
 32
0.0
 13
-28.0
 23
-128.5584405018526
 33
0.0
  0
SOLID
  5
FB
330
F5
100
AcDbEntity
  8
0
  6
ByBlock
 62
     0
100
AcDbTrace
 10
-15.99999999999997
 20
-127.8917738351859
 30
0.0
 11
-15.99999999999997
 21
-129.2251071685193
 31
0.0
 12
-19.99999999999997
 22
-128.5584405018526
 32
0.0
 13
-19.99999999999997
 23
-128.5584405018526
 33
0.0
  0
MTEXT
  5
FC
330
F5
100
AcDbEntity
  8
0
  6
ByBlock
 62
     0
100
AcDbMText
 10
-23.99999999999999
 20
-125.5584405018526
 30
0.0
 40
3.0
 41
0.0
 71
     5
 72
     1
  1
\A1;8
 73
     1
 44
1.0
1001
ACAD
1000
MTEXTBEGIN
1070
    73
1070
     1
1070
    44
1040
1.0
1070
    74
1070
     0
1000
MTEXTEND
  0
POINT
  5
FD
330
F5
100
AcDbEntity
  8
DEFPOINTS
  6
ByBlock
 62
     0
100
AcDbPoint
 10
-28.0
 20
-35.0
 30
0.0
  0
POINT
  5
FE
330
F5
100
AcDbEntity
  8
DEFPOINTS
  6
ByBlock
 62
     0
100
AcDbPoint
 10
-19.99999999999996
 20
-35.0
 30
0.0
  0
POINT
  5
FF
330
F5
100
AcDbEntity
  8
DEFPOINTS
  6
ByBlock
 62
     0
100
AcDbPoint
 10
-19.99999999999997
 20
-128.5584405018526
 30
0.0
  0
ENDBLK
  5
101
330
F5
100
AcDbEntity
  8
0
100
AcDbBlockEnd
  0
BLOCK
  5
111
330
107
100
AcDbEntity
  8
0
100
AcDbBlockBegin
  2
*D12
 70
     1
 10
0.0
 20
0.0
 30
0.0
  3
*D12
  1

  0
LINE
  5
108
330
107
100
AcDbEntity
  8
0
  6
ByBlock
 62
     0
100
AcDbLine
 10
3.999999999999999
 20
-104.4999999999999
 30
0.0
 11
3.999999999999998
 21
-130.0584405018526
 31
0.0
  0
LINE
  5
109
330
107
100
AcDbEntity
  8
0
  6
ByBlock
 62
     0
100
AcDbLine
 10
36.0
 20
-59.5
 30
0.0
 11
35.99999999999999
 21
-130.0584405018526
 31
0.0
  0
LINE
  5
10A
330
107
100
AcDbEntity
  8
0
  6
ByBlock
 62
     0
100
AcDbLine
 10
7.999999999999998
 20
-128.5584405018526
 30
0.0
 11
31.99999999999999
 21
-128.5584405018526
 31
0.0
  0
SOLID
  5
10B
330
107
100
AcDbEntity
  8
0
  6
ByBlock
 62
     0
100
AcDbTrace
 10
7.999999999999998
 20
-127.8917738351859
 30
0.0
 11
7.999999999999998
 21
-129.2251071685193
 31
0.0
 12
3.999999999999998
 22
-128.5584405018526
 32
0.0
 13
3.999999999999998
 23
-128.5584405018526
 33
0.0
  0
SOLID
  5
10C
330
107
100
AcDbEntity
  8
0
  6
ByBlock
 62
     0
100
AcDbTrace
 10
31.99999999999999
 20
-127.8917738351859
 30
0.0
 11
31.99999999999999
 21
-129.2251071685193
 31
0.0
 12
35.99999999999999
 22
-128.5584405018526
 32
0.0
 13
35.99999999999999
 23
-128.5584405018526
 33
0.0
  0
MTEXT
  5
10D
330
107
100
AcDbEntity
  8
0
  6
ByBlock
 62
     0
100
AcDbMText
 10
19.99999999999999
 20
-125.5584405018526
 30
0.0
 40
3.0
 41
0.0
 71
     5
 72
     1
  1
\A1;32
 73
     1
 44
1.0
1001
ACAD
1000
MTEXTBEGIN
1070
    73
1070
     1
1070
    44
1040
1.0
1070
    74
1070
     0
1000
MTEXTEND
  0
POINT
  5
10E
330
107
100
AcDbEntity
  8
DEFPOINTS
  6
ByBlock
 62
     0
100
AcDbPoint
 10
4.0
 20
-100.0
 30
0.0
  0
POINT
  5
10F
330
107
100
AcDbEntity
  8
DEFPOINTS
  6
ByBlock
 62
     0
100
AcDbPoint
 10
36.0
 20
-55.0
 30
0.0
  0
POINT
  5
110
330
107
100
AcDbEntity
  8
DEFPOINTS
  6
ByBlock
 62
     0
100
AcDbPoint
 10
35.99999999999999
 20
-128.5584405018526
 30
0.0
  0
ENDBLK
  5
112
330
107
100
AcDbEntity
  8
0
100
AcDbBlockEnd
  0
BLOCK
  5
11E
330
114
100
AcDbEntity
  8
0
100
AcDbBlockBegin
  2
*D13
 70
     1
 10
0.0
 20
0.0
 30
0.0
  3
*D13
  1

  0
LINE
  5
115
330
114
100
AcDbEntity
  8
0
  6
ByBlock
 62
     0
100
AcDbLine
 10
36.0
 20
-59.5
 30
0.0
 11
35.99999999999999
 21
-130.0584405018526
 31
0.0
  0
LINE
  5
116
330
114
100
AcDbEntity
  8
0
  6
ByBlock
 62
     0
100
AcDbLine
 10
89.99999999999994
 20
-109.4999999999999
 30
0.0
 11
89.99999999999994
 21
-130.0584405018526
 31
0.0
  0
LINE
  5
117
330
114
100
AcDbEntity
  8
0
  6
ByBlock
 62
     0
100
AcDbLine
 10
39.99999999999999
 20
-128.5584405018526
 30
0.0
 11
85.99999999999994
 21
-128.5584405018526
 31
0.0
  0
SOLID
  5
118
330
114
100
AcDbEntity
  8
0
  6
ByBlock
 62
     0
100
AcDbTrace
 10
39.99999999999999
 20
-127.8917738351859
 30
0.0
 11
39.99999999999999
 21
-129.2251071685193
 31
0.0
 12
35.99999999999999
 22
-128.5584405018526
 32
0.0
 13
35.99999999999999
 23
-128.5584405018526
 33
0.0
  0
SOLID
  5
119
330
114
100
AcDbEntity
  8
0
  6
ByBlock
 62
     0
100
AcDbTrace
 10
85.99999999999994
 20
-127.8917738351859
 30
0.0
 11
85.99999999999994
 21
-129.2251071685193
 31
0.0
 12
89.99999999999994
 22
-128.5584405018526
 32
0.0
 13
89.99999999999994
 23
-128.5584405018526
 33
0.0
  0
MTEXT
  5
11A
330
114
100
AcDbEntity
  8
0
  6
ByBlock
 62
     0
100
AcDbMText
 10
62.99999999999997
 20
-125.5584405018526
 30
0.0
 40
3.0
 41
0.0
 71
     5
 72
     1
  1
\A1;54
 73
     1
 44
1.0
1001
ACAD
1000
MTEXTBEGIN
1070
    73
1070
     1
1070
    44
1040
1.0
1070
    74
1070
     0
1000
MTEXTEND
  0
POINT
  5
11B
330
114
100
AcDbEntity
  8
DEFPOINTS
  6
ByBlock
 62
     0
100
AcDbPoint
 10
36.0
 20
-55.0
 30
0.0
  0
POINT
  5
11C
330
114
100
AcDbEntity
  8
DEFPOINTS
  6
ByBlock
 62
     0
100
AcDbPoint
 10
89.99999999999994
 20
-105.0
 30
0.0
  0
POINT
  5
11D
330
114
100
AcDbEntity
  8
DEFPOINTS
  6
ByBlock
 62
     0
100
AcDbPoint
 10
89.99999999999994
 20
-128.5584405018526
 30
0.0
  0
ENDBLK
  5
11F
330
114
100
AcDbEntity
  8
0
100
AcDbBlockEnd
  0
ENDSEC
  0
SECTION
  2
ENTITIES
  0
LINE
  5
2D
330
2
100
AcDbEntity
  8
ANCON-DSD
  6
Continuous
100
AcDbLine
 10
0.000000000000023
 20
14.99999999999971
 30
0.0
 11
190.0
 21
14.99999999999971
 31
0.0
  0
LINE
  5
2E
330
2
100
AcDbEntity
  8
ANCON-DSD
  6
Continuous
100
AcDbLine
 10
0.0000000000000284
 20
-15.00000000000028
 30
0.0
 11
190.0
 21
-15.00000000000028
 31
0.0
  0
LINE
  5
2F
330
2
100
AcDbEntity
  8
ANCON-GRID
  6
CENTER2
100
AcDbLine
 10
243.3795447832172
 20
0.0
 30
0.0
 11
0.0
 21
0.0
 31
0.0
  0
TEXT
  5
32
330
2
100
AcDbEntity
  8
ANCON-DIMS
100
AcDbText
 10
4.783291204851934
 20
190.7730476827419
 30
0.0
 40
5.0
  1
SPECIFICATION BY PRODUCT
  7
ROMANS
 72
     4
 11
58.23567215723286
 21
193.2730476827419
 31
0.0
100
AcDbText
  0
TEXT
  5
34
330
2
100
AcDbEntity
  8
ANCON-DIMS
100
AcDbText
 10
4.926927814478219
 20
160.8385932182458
 30
0.0
 40
5.0
  1
SPECIFICATION BY DESCRIPTION
  7
ROMANS
 72
     4
 11
64.56978495733536
 21
163.3385932182458
 31
0.0
100
AcDbText
  0
DIMENSION
  5
35
330
2
100
AcDbEntity
  8
ANCON-DIMS
100
AcDbDimension
  2
*D0
 10
230.0
 20
-146.6585776634491
 30
0.0
 11
115.0
 21
-143.6585776634491
 31
0.0
 71
     5
 42
-1.0
  3
1-1
100
AcDbAlignedDimension
 13
0.0000000000000434
 23
-100.0
 33
0.0
 14
230.0
 24
-17.49999999999988
 34
0.0
100
AcDbRotatedDimension
  0
LINE
  5
45
330
2
100
AcDbEntity
  8
ANCON-DSD
100
AcDbLine
 10
230.0
 20
-17.49999999999988
 30
0.0
 11
4.000000000000079
 21
-17.49999999999988
 31
0.0
  0
LINE
  5
46
330
2
100
AcDbEntity
  8
ANCON-DSD
100
AcDbLine
 10
230.0
 20
17.50000000000011
 30
0.0
 11
4.000000000000079
 21
17.50000000000011
 31
0.0
  0
LINE
  5
47
330
2
100
AcDbEntity
  8
ANCON-DSD
  6
Continuous
100
AcDbLine
 10
98.00000000000007
 20
100.0
 30
0.0
 11
82.00000000000004
 21
100.0
 31
0.0
  0
LINE
  5
48
330
2
100
AcDbEntity
  8
ANCON-DSD
  6
Continuous
100
AcDbLine
 10
97.99999999999995
 20
-100.0
 30
0.0
 11
81.99999999999992
 21
-100.0
 31
0.0
  0
LINE
  5
49
330
2
100
AcDbEntity
  8
ANCON-DSD
  6
Continuous
100
AcDbLine
 10
-20.0
 20
35.0
 30
0.0
 11
-20.0
 21
-35.0
 31
0.0
  0
LINE
  5
4A
330
2
100
AcDbEntity
  8
ANCON-DSD
  6
Continuous
100
AcDbLine
 10
-28.0
 20
35.0
 30
0.0
 11
-28.0
 21
-35.0
 31
0.0
  0
LINE
  5
4B
330
2
100
AcDbEntity
  8
ANCON-DSD
  6
Continuous
100
AcDbLine
 10
-62.0
 20
49.99999999999989
 30
0.0
 11
-62.0
 21
14.99999999999971
 31
0.0
  0
LINE
  5
4C
330
2
100
AcDbEntity
  8
ANCON-DSD
  6
Continuous
100
AcDbLine
 10
-45.99999999999999
 20
49.99999999999989
 30
0.0
 11
-46.0
 21
14.99999999999971
 31
0.0
  0
LINE
  5
4D
330
2
100
AcDbEntity
  8
ANCON-DSD
  6
Continuous
100
AcDbLine
 10
-116.9999999999999
 20
100.0
 30
0.0
 11
-117.0
 21
14.99999999999977
 31
0.0
  0
LINE
  5
4E
330
2
100
AcDbEntity
  8
ANCON-DSD
  6
Continuous
100
AcDbLine
 10
-100.9999999999999
 20
100.0
 30
0.0
 11
-101.0
 21
14.99999999999977
 31
0.0
  0
LINE
  5
4F
330
2
100
AcDbEntity
  8
ANCON-CONCRETE
100
AcDbLine
 10
-19.99999999999994
 20
-175.6031504942892
 30
0.0
 11
-20.0
 21
144.8689842418568
 31
0.0
  0
LINE
  5
51
330
2
100
AcDbEntity
  8
ANCON-GRID
  6
CENTER2
100
AcDbLine
 10
36.0
 20
55.0
 30
0.0
 11
36.0
 21
-55.0
 31
0.0
  0
LINE
  5
52
330
2
100
AcDbEntity
  8
ANCON-GRID
  6
CENTER2
100
AcDbLine
 10
90.00000000000005
 20
105.0
 30
0.0
 11
89.99999999999994
 21
-105.0
 31
0.0
  0
LINE
  5
53
330
2
100
AcDbEntity
  8
ANCON-GRID
  6
CENTER2
100
AcDbLine
 10
-54.0
 20
54.99999999999983
 30
0.0
 11
-54.0
 21
-55.00000000000017
 31
0.0
  0
LINE
  5
54
330
2
100
AcDbEntity
  8
ANCON-GRID
  6
CENTER2
100
AcDbLine
 10
-108.9999999999999
 20
105.0
 30
0.0
 11
-109.0
 21
-105.0
 31
0.0
  0
LINE
  5
55
330
2
100
AcDbEntity
  8
ANCON-CONCRETE
100
AcDbLine
 10
0.0000000000000568
 20
-175.5940902136362
 30
0.0
 11
0.0
 21
144.8780445225097
 31
0.0
  0
LINE
  5
56
330
2
100
AcDbEntity
  8
ANCON-DSD
100
AcDbLine
 10
4.0
 20
50.0
 30
0.0
 11
4.0
 21
-50.0
 31
0.0
  0
LINE
  5
57
330
2
100
AcDbEntity
  8
ANCON-DSD
  6
Continuous
100
AcDbLine
 10
44.00000000000001
 20
50.0
 30
0.0
 11
44.0
 21
17.50000000000011
 31
0.0
  0
LINE
  5
58
330
2
100
AcDbEntity
  8
ANCON-DSD
  6
Continuous
100
AcDbLine
 10
28.0
 20
50.0
 30
0.0
 11
28.0
 21
17.50000000000011
 31
0.0
  0
LINE
  5
59
330
2
100
AcDbEntity
  8
ANCON-DSD
  6
Continuous
100
AcDbLine
 10
82.00000000000006
 20
100.0
 30
0.0
 11
82.0
 21
17.50000000000011
 31
0.0
  0
LINE
  5
5A
330
2
100
AcDbEntity
  8
ANCON-DSD
100
AcDbLine
 10
0.0
 20
50.0
 30
0.0
 11
0.0
 21
-50.0
 31
0.0
  0
LINE
  5
5B
330
2
100
AcDbEntity
  8
ANCON-GRID
100
AcDbLine
 10
0.0
 20
35.0
 30
0.0
 11
0.0
 21
-35.0
 31
0.0
  0
LINE
  5
5C
330
2
100
AcDbEntity
  8
ANCON-DSD
  6
Continuous
100
AcDbLine
 10
-210.0
 20
14.99999999999971
 30
0.0
 11
-28.0
 21
14.99999999999971
 31
0.0
  0
LINE
  5
5D
330
2
100
AcDbEntity
  8
ANCON-DSD
  6
Continuous
100
AcDbLine
 10
-210.0
 20
-15.00000000000028
 30
0.0
 11
-28.0
 21
-15.00000000000028
 31
0.0
  0
LINE
  5
5E
330
2
100
AcDbEntity
  8
ANCON-DSD
  6
Continuous
100
AcDbLine
 10
-101.0
 20
-100.0
 30
0.0
 11
-117.0
 21
-100.0
 31
0.0
  0
LINE
  5
5F
330
2
100
AcDbEntity
  8
ANCON-GRID
  6
CENTER2
100
AcDbLine
 10
0.0000000000000257
 20
0.0
 30
0.0
 11
-219.9999999999999
 21
0.0
 31
0.0
  0
DIMENSION
  5
60
330
2
100
AcDbEntity
  8
ANCON-DIMS
100
AcDbDimension
  2
*D1
 10
-54.00000000000001
 20
-128.5584405018526
 30
0.0
 11
-81.50000000000003
 21
-125.5584405018526
 31
0.0
 71
     5
 42
-1.0
  3
1-1
100
AcDbAlignedDimension
 13
-109.0
 23
-105.0
 33
0.0
 14
-54.0
 24
-55.00000000000017
 34
0.0
100
AcDbRotatedDimension
  0
DIMENSION
  5
6D
330
2
100
AcDbEntity
  8
ANCON-DIMS
100
AcDbDimension
  2
*D2
 10
-19.99999999999997
 20
-146.6585776634491
 30
0.0
 11
-114.9999999999999
 21
-143.6585776634491
 31
0.0
 71
     5
 42
-1.0
  3
1-1
100
AcDbAlignedDimension
 13
-210.0
 23
-13.00000000000028
 33
0.0
 14
-19.99999999999996
 24
-35.0
 34
0.0
100
AcDbRotatedDimension
  0
DIMENSION
  5
7A
330
2
100
AcDbEntity
  8
ANCON-GRID
100
AcDbDimension
  2
*D3
 10
-54.00000000000001
 20
-128.5584405018526
 30
0.0
 11
-81.50000000000003
 21
-125.5584405018526
 31
0.0
 71
     5
 42
-1.0
  3
1-1
100
AcDbAlignedDimension
 13
-109.0
 23
-105.0
 33
0.0
 14
-54.0
 24
-55.00000000000017
 34
0.0
100
AcDbRotatedDimension
  0
DIMENSION
  5
87
330
2
100
AcDbEntity
  8
ANCON-GRID
100
AcDbDimension
  2
*D4
 10
-19.99999999999997
 20
-146.6585776634491
 30
0.0
 11
-114.9999999999999
 21
-143.6585776634491
 31
0.0
 71
     5
 42
-1.0
  3
1-1
100
AcDbAlignedDimension
 13
-210.0
 23
-13.00000000000028
 33
0.0
 14
-19.99999999999996
 24
-35.0
 34
0.0
100
AcDbRotatedDimension
  0
LINE
  5
9C
330
2
100
AcDbEntity
  8
ANCON-DSD
  6
Continuous
100
AcDbLine
 10
-210.0
 20
14.99999999999971
 30
0.0
 11
-210.0
 21
-15.00000000000028
 31
0.0
  0
LINE
  5
9D
330
2
100
AcDbEntity
  8
ANCON-DSD
  6
Continuous
100
AcDbLine
 10
-117.0
 20
-15.00000000000022
 30
0.0
 11
-117.0
 21
-100.0
 31
0.0
  0
DIMENSION
  5
9E
330
2
100
AcDbEntity
  8
ANCON-DIMS
100
AcDbDimension
  2
*D5
 10
-0.0000000000000027
 20
-146.5760426093129
 30
0.0
 11
-10.0
 21
-143.5760426093129
 31
0.0
 71
     5
 42
-1.0
  3
1-1
100
AcDbAlignedDimension
 13
-20.0
 23
-82.40057580687775
 33
0.0
 14
0.0
 24
-102.4005758068776
 34
0.0
100
AcDbRotatedDimension
  0
DIMENSION
  5
AB
330
2
100
AcDbEntity
  8
ANCON-GRID
100
AcDbDimension
  2
*D6
 10
0.0000000000000286
 20
-146.6585776634491
 30
0.0
 11
-9.999999999999973
 21
-143.6585776634491
 31
0.0
 71
     5
 42
-1.0
  3
1-1
100
AcDbAlignedDimension
 13
-19.99999999999996
 23
-35.0
 33
0.0
 14
0.0000000000000346
 24
-50.0
 34
0.0
100
AcDbRotatedDimension
  0
LINE
  5
B9
330
2
100
AcDbEntity
  8
ANCON-DSD
  6
Continuous
100
AcDbLine
 10
-20.0
 20
14.99999999999971
 30
0.0
 11
0.000000000000023
 21
14.99999999999971
 31
0.0
  0
LINE
  5
BA
330
2
100
AcDbEntity
  8
ANCON-DSD
  6
Continuous
100
AcDbLine
 10
-20.0
 20
-15.00000000000028
 30
0.0
 11
0.0000000000000284
 21
-15.00000000000028
 31
0.0
  0
DIMENSION
  5
BB
330
2
100
AcDbEntity
  8
ANCON-DIMS
100
AcDbDimension
  2
*D7
 10
0.0000000000000298
 20
-128.5584405018526
 30
0.0
 11
-5.688156394981316
 21
-125.5584405018526
 31
0.0
 70
   128
 71
     5
 42
-1.0
  3
1-1
100
AcDbAlignedDimension
 13
4.0
 23
-50.0
 33
0.0
 14
0.0000000000000346
 24
-50.0
 34
0.0
100
AcDbRotatedDimension
  0
LINE
  5
CA
330
2
100
AcDbEntity
  8
ANCON-DSD
  6
Continuous
100
AcDbLine
 10
-101.0
 20
-15.00000000000022
 30
0.0
 11
-101.0
 21
-100.0
 31
0.0
  0
DIMENSION
  5
CB
330
2
100
AcDbEntity
  8
ANCON-DIMS
100
AcDbDimension
  2
*D8
 10
-28.0
 20
-128.5584405018526
 30
0.0
 11
-41.0
 21
-125.5584405018526
 31
0.0
 71
     5
 42
-1.0
  3
1-1
100
AcDbAlignedDimension
 13
-54.0
 23
-55.00000000000017
 33
0.0
 14
-28.0
 24
-35.0
 34
0.0
100
AcDbRotatedDimension
  0
DIMENSION
  5
D8
330
2
100
AcDbEntity
  8
ANCON-GRID
100
AcDbDimension
  2
*D9
 10
-19.99999999999997
 20
-128.5584405018526
 30
0.0
 11
-13.96513147182954
 21
-125.5584405018526
 31
0.0
 70
   128
 71
     5
 42
-1.0
  3
1-1
100
AcDbAlignedDimension
 13
-28.0
 23
-35.0
 33
0.0
 14
-19.99999999999996
 24
-35.0
 34
0.0
100
AcDbRotatedDimension
  0
DIMENSION
  5
E7
330
2
100
AcDbEntity
  8
ANCON-GRID
100
AcDbDimension
  2
*D10
 10
-28.0
 20
-128.5584405018526
 30
0.0
 11
-41.0
 21
-125.5584405018526
 31
0.0
 71
     5
 42
-1.0
  3
1-1
100
AcDbAlignedDimension
 13
-54.0
 23
-55.00000000000017
 33
0.0
 14
-28.0
 24
-35.0
 34
0.0
100
AcDbRotatedDimension
  0
DIMENSION
  5
F4
330
2
100
AcDbEntity
  8
ANCON-DIMS
100
AcDbDimension
  2
*D11
 10
-19.99999999999997
 20
-128.5584405018526
 30
0.0
 11
-23.99999999999999
 21
-125.5584405018526
 31
0.0
 71
     5
 42
-1.0
  3
1-1
100
AcDbAlignedDimension
 13
-28.0
 23
-35.0
 33
0.0
 14
-19.99999999999996
 24
-35.0
 34
0.0
100
AcDbRotatedDimension
  0
LINE
  5
102
330
2
100
AcDbEntity
  8
ANCON-DSD
  6
Continuous
100
AcDbLine
 10
-46.0
 20
-50.00000000000017
 30
0.0
 11
-62.0
 21
-50.00000000000017
 31
0.0
  0
LINE
  5
103
330
2
100
AcDbEntity
  8
ANCON-DSD
  6
Continuous
100
AcDbLine
 10
-62.0
 20
-15.00000000000028
 30
0.0
 11
-62.0
 21
-50.00000000000017
 31
0.0
  0
LINE
  5
104
330
2
100
AcDbEntity
  8
ANCON-DSD
  6
Continuous
100
AcDbLine
 10
-46.0
 20
-15.00000000000028
 30
0.0
 11
-46.0
 21
-50.00000000000017
 31
0.0
  0
LINE
  5
105
330
2
100
AcDbEntity
  8
ANCON-DSD
  6
Continuous
100
AcDbLine
 10
-19.99999999999996
 20
-35.0
 30
0.0
 11
-28.0
 21
-35.0
 31
0.0
  0
DIMENSION
  5
106
330
2
100
AcDbEntity
  8
ANCON-DIMS
100
AcDbDimension
  2
*D12
 10
35.99999999999999
 20
-128.5584405018526
 30
0.0
 11
19.99999999999999
 21
-125.5584405018526
 31
0.0
 71
     5
 42
-1.0
  3
1-1
100
AcDbAlignedDimension
 13
4.0
 23
-100.0
 33
0.0
 14
36.0
 24
-55.0
 34
0.0
100
AcDbRotatedDimension
  0
DIMENSION
  5
113
330
2
100
AcDbEntity
  8
ANCON-DIMS
100
AcDbDimension
  2
*D13
 10
89.99999999999994
 20
-128.5584405018526
 30
0.0
 11
62.99999999999997
 21
-125.5584405018526
 31
0.0
 71
     5
 42
-1.0
  3
1-1
100
AcDbAlignedDimension
 13
36.0
 23
-55.0
 33
0.0
 14
89.99999999999994
 24
-105.0
 34
0.0
100
AcDbRotatedDimension
  0
LINE
  5
120
330
2
100
AcDbEntity
  8
ANCON-DSD
  6
Continuous
100
AcDbLine
 10
81.99999999999997
 20
-17.49999999999988
 30
0.0
 11
81.99999999999993
 21
-100.0
 31
0.0
  0
LINE
  5
121
330
2
100
AcDbEntity
  8
ANCON-DSD
100
AcDbLine
 10
4.0
 20
-50.0
 30
0.0
 11
0.0
 21
-50.0
 31
0.0
  0
LINE
  5
122
330
2
100
AcDbEntity
  8
ANCON-DSD
  6
Continuous
100
AcDbLine
 10
44.0
 20
-17.49999999999988
 30
0.0
 11
44.0
 21
-50.0
 31
0.0
  0
LINE
  5
123
330
2
100
AcDbEntity
  8
ANCON-DSD
  6
Continuous
100
AcDbLine
 10
28.0
 20
-17.49999999999988
 30
0.0
 11
28.0
 21
-50.0
 31
0.0
  0
LINE
  5
124
330
2
100
AcDbEntity
  8
ANCON-DSD
  6
Continuous
100
AcDbLine
 10
43.99999999999999
 20
-50.0
 30
0.0
 11
28.0
 21
-50.0
 31
0.0
  0
LINE
  5
126
330
2
100
AcDbEntity
  8
ANCON-DSD
  6
Continuous
100
AcDbLine
 10
-100.9999999999999
 20
100.0
 30
0.0
 11
-116.9999999999999
 21
100.0
 31
0.0
  0
TEXT
  5
127
330
2
100
AcDbEntity
  8
ANCON-TEXT
100
AcDbText
 10
-112.986048870657
 20
189.3823147877531
 30
0.0
 40
5.0
  1
SERVICEABILITY
  7
ROMANS
 72
     4
 11
-85.1289060135142
 21
191.8823147877531
 31
0.0
100
AcDbText
  0
LINE
  5
128
330
2
100
AcDbEntity
  8
ANCON-TEXT
100
AcDbLine
 10
-229.0143701255429
 20
146.5449543160704
 30
0.0
 11
-53.63569243368042
 21
146.5449543160703
 31
0.0
  0
LINE
  5
129
330
2
100
AcDbEntity
  8
ANCON-TEXT
100
AcDbLine
 10
-229.0143701255428
 20
173.5724393911175
 30
0.0
 11
-53.63569243368039
 21
173.5724393911175
 31
0.0
  0
LINE
  5
12A
330
2
100
AcDbEntity
  8
ANCON-TEXT
100
AcDbLine
 10
-229.0143701255429
 20
199.6432004501632
 30
0.0
 11
-53.63569243368042
 21
199.6432004501632
 31
0.0
  0
TEXT
  5
12B
330
2
100
AcDbEntity
  8
ANCON-TEXT
100
AcDbText
 10
-109.8908107754189
 20
178.4390358491747
 30
0.0
 40
5.0
  1
LOAD ( kN )
  7
ROMANS
 72
     4
 11
-85.1289060135142
 21
180.5818929920319
 31
0.0
100
AcDbText
  0
LINE
  5
12C
330
2
100
AcDbEntity
  8
ANCON-TEXT
100
AcDbLine
 10
-229.0143701255428
 20
199.6432004501632
 30
0.0
 11
-229.0143701255428
 21
146.5449543160703
 31
0.0
  0
LINE
  5
12D
330
2
100
AcDbEntity
  8
ANCON-TEXT
100
AcDbLine
 10
-179.0143701255428
 20
199.6432004501632
 30
0.0
 11
-179.0143701255428
 21
146.5449543160703
 31
0.0
  0
LINE
  5
12E
330
2
100
AcDbEntity
  8
ANCON-TEXT
100
AcDbLine
 10
-118.50627656848
 20
199.6432004501632
 30
0.0
 11
-118.50627656848
 21
146.5449543160703
 31
0.0
  0
TEXT
  5
12F
330
2
100
AcDbEntity
  8
ANCON-TEXT
100
AcDbText
 10
-219.7717631563713
 20
157.360511409169
 30
0.0
 40
5.0
  1
DSD100
  7
ROMANS
 72
     4
 11
-205.1289060135142
 21
159.8605114091689
 31
0.0
100
AcDbText
  0
TEXT
  5
130
330
2
100
AcDbEntity
  8
ANCON-TEXT
100
AcDbText
 10
-221.8219859764715
 20
189.3774842906216
 30
0.0
 40
5.0
  1
DSD REF:
  7
ROMANS
 72
     4
 11
-203.845795500281
 21
191.8774842906215
 31
0.0
100
AcDbText
  0
TEXT
  5
131
330
2
100
AcDbEntity
  8
ANCON-TEXT
100
AcDbText
 10
-173.9107017606539
 20
189.3774842906216
 30
0.0
 40
5.0
  1
DESIGN JOINT
  7
ROMANS
 72
     4
 11
-147.8392731892254
 21
191.8774842906215
 31
0.0
100
AcDbText
  0
TEXT
  5
132
330
2
100
AcDbEntity
  8
ANCON-TEXT
100
AcDbText
 10
-157.986048870657
 20
157.360511409169
 30
0.0
 40
5.0
  1
20 MM
  7
ROMANS
 72
     4
 11
-145.1289060135142
 21
159.8605114091689
 31
0.0
100
AcDbText
  0
TEXT
  5
133
330
2
100
AcDbEntity
  8
ANCON-TEXT
100
AcDbText
 10
-158.4345112844635
 20
178.4798609030026
 30
0.0
 40
5.0
  1
WIDTH
  7
ROMANS
 72
     4
 11
-147.8392731892254
 21
180.9798609030026
 31
0.0
100
AcDbText
  0
LINE
  5
134
330
2
100
AcDbEntity
  8
ANCON-TEXT
100
AcDbLine
 10
-53.63569243368042
 20
199.6432004501632
 30
0.0
 11
-53.63569243368042
 21
146.5449543160703
 31
0.0
  0
LINE
  5
135
330
2
100
AcDbEntity
  8
ANCON-DSD
  6
Continuous
100
AcDbLine
 10
-45.99999999999999
 20
49.99999999999989
 30
0.0
 11
-62.0
 21
49.99999999999983
 31
0.0
  0
LINE
  5
136
330
2
100
AcDbEntity
  8
ANCON-DSD
  6
Continuous
100
AcDbLine
 10
-19.99999999999998
 20
35.0
 30
0.0
 11
-28.0
 21
35.0
 31
0.0
  0
TEXT
  5
137
330
2
100
AcDbEntity
  8
ANCON-TEXT
100
AcDbText
 10
-96.20033458494278
 20
157.360511409169
 30
0.0
 40
5.0
  1
115.5
  7
ROMANS
 72
     4
 11
-85.1289060135142
 21
159.8605114091689
 31
0.0
100
AcDbText
  0
LINE
  5
138
330
2
100
AcDbEntity
  8
ANCON-DSD
100
AcDbLine
 10
4.0
 20
50.0
 30
0.0
 11
0.0
 21
50.0
 31
0.0
  0
LINE
  5
139
330
2
100
AcDbEntity
  8
ANCON-DSD
  6
Continuous
100
AcDbLine
 10
44.00000000000001
 20
50.0
 30
0.0
 11
27.99999999999999
 21
50.0
 31
0.0
  0
LINE
  5
13A
330
2
100
AcDbEntity
  8
ANCON-DSD
  6
Continuous
100
AcDbLine
 10
98.00000000000006
 20
100.0
 30
0.0
 11
98.00000000000002
 21
17.50000000000011
 31
0.0
  0
LINE
  5
13B
330
2
100
AcDbEntity
  8
ANCON-DSD
  6
Continuous
100
AcDbLine
 10
97.99999999999998
 20
-17.49999999999988
 30
0.0
 11
97.99999999999995
 21
-100.0
 31
0.0
  0
LINE
  5
13C
330
2
100
AcDbEntity
  8
ANCON-DSD
  6
Continuous
100
AcDbLine
 10
190.0
 20
14.99999999999971
 30
0.0
 11
190.0
 21
-15.00000000000028
 31
0.0
  0
LINE
  5
13D
330
2
100
AcDbEntity
  8
ANCON-DSD
100
AcDbLine
 10
230.0
 20
-17.49999999999988
 30
0.0
 11
230.0
 21
17.50000000000011
 31
0.0
  0
LINE
  5
13E
330
2
100
AcDbEntity
  8
ANCON-DSD
100
AcDbLine
 10
230.0
 20
-17.49999999999988
 30
0.0
 11
237.0
 21
-10.5
 31
0.0
  0
LINE
  5
13F
330
2
100
AcDbEntity
  8
ANCON-DSD
100
AcDbLine
 10
237.0
 20
-10.5
 30
0.0
 11
237.0
 21
10.5
 31
0.0
  0
LINE
  5
140
330
2
100
AcDbEntity
  8
ANCON-DSD
100
AcDbLine
 10
230.0
 20
17.50000000000011
 30
0.0
 11
237.0
 21
10.5
 31
0.0
  0
TEXT
  5
141
330
2
100
AcDbEntity
  8
ANCON-TEXT
100
AcDbText
 10
135.9849090546061
 20
140.7969845562612
 30
0.0
 40
5.0
  1
SUITABLE FOR A DESIGN JOINT WIDTH OF ?? MM
  7
ROMANS
 72
     4
 11
230.8658614355586
 21
143.2969845562612
 31
0.0
100
AcDbText
  0
LINE
  5
142
330
2
100
AcDbEntity
  8
ANCON-TEXT
100
AcDbLine
 10
132.3556634957647
 20
170.0436441314916
 30
0.0
 11
334.8426136024051
 21
170.0436441314916
 31
0.0
  0
LINE
  5
143
330
2
100
AcDbEntity
  8
ANCON-TEXT
100
AcDbLine
 10
132.3556634957647
 20
117.0099515459412
 30
0.0
 11
334.8426136024051
 21
117.0099515459412
 31
0.0
  0
TEXT
  5
144
330
2
100
AcDbEntity
  8
ANCON-TEXT
100
AcDbText
 10
136.4393442245563
 20
130.7479271423321
 30
0.0
 40
5.0
  1
AND CAPABLE OF TRANSFERRING A SERVICEABILITY
  7
ROMANS
 72
     4
 11
233.8202966055086
 21
133.2479271423321
 31
0.0
100
AcDbText
  0
TEXT
  5
145
330
2
100
AcDbEntity
  8
ANCON-TEXT
100
AcDbText
 10
135.9262122945485
 20
150.698132265931
 30
0.0
 40
5.0
  1
COMPRISING SLEEVE AND DOWEL COMPONENT
  7
ROMANS
 72
     4
 11
223.9024027707391
 21
153.198132265931
 31
0.0
100
AcDbText
  0
TEXT
  5
146
330
2
100
AcDbEntity
  8
ANCON-TEXT
100
AcDbText
 10
136.6473967006043
 20
160.8028445917216
 30
0.0
 40
5.0
  1
TWO PART STAINLESS STEEL SHEAR CONNECTOR
  7
ROMANS
 72
     4
 11
229.2664443196521
 21
163.3028445917215
 31
0.0
100
AcDbText
  0
LINE
  5
147
330
2
100
AcDbEntity
  8
ANCON-TEXT
100
AcDbLine
 10
132.3556634957647
 20
199.4101577985854
 30
0.0
 11
132.3556634957647
 21
187.4921825065841
 31
0.0
  0
LINE
  5
148
330
2
100
AcDbEntity
  8
ANCON-TEXT
100
AcDbLine
 10
199.9455144185267
 20
199.4101577985854
 30
0.0
 11
199.9455144185267
 21
187.4921825065841
 31
0.0
  0
LINE
  5
149
330
2
100
AcDbEntity
  8
ANCON-TEXT
100
AcDbLine
 10
132.3556634957647
 20
187.4921825065841
 30
0.0
 11
199.9455144185267
 21
187.4921825065842
 31
0.0
  0
TEXT
  5
14A
330
2
100
AcDbEntity
  8
ANCON-TEXT
100
AcDbText
 10
137.6251249808994
 20
120.7130019773698
 30
0.0
 40
5.0
  1
LOAD OF ??? kN
  7
ROMANS
 72
     4
 11
170.244172599947
 21
123.2130019773698
 31
0.0
100
AcDbText
  0
TEXT
  5
14B
330
2
100
AcDbEntity
  8
ANCON-TEXT
100
AcDbText
 10
136.8497731691568
 20
190.7730476827419
 30
0.0
 40
5.0
  1
STAIFIX DSD ??
  7
ROMANS
 72
     4
 11
166.3735826929663
 21
193.2730476827419
 31
0.0
100
AcDbText
  0
LINE
  5
14C
330
2
100
AcDbEntity
  8
ANCON-TEXT
100
AcDbLine
 10
132.3556634957647
 20
170.0436441314916
 30
0.0
 11
132.3556634957647
 21
117.0099515459412
 31
0.0
  0
LINE
  5
14D
330
2
100
AcDbEntity
  8
ANCON-TEXT
100
AcDbLine
 10
132.3556634957647
 20
199.4101577985854
 30
0.0
 11
199.9455144185267
 21
199.4101577985854
 31
0.0
  0
LINE
  5
14E
330
2
100
AcDbEntity
  8
ANCON-TEXT
100
AcDbLine
 10
334.8426136024051
 20
170.0436441314916
 30
0.0
 11
334.8426136024051
 21
117.0099515459412
 31
0.0
  0
ENDSEC
  0
SECTION
  2
OBJECTS
  0
DICTIONARY
  5
26
330
0
100
AcDbDictionary
281
     1
  3
ACAD_GROUP
350
22
  3
ACAD_LAYOUT
350
152
  3
ACAD_MLINESTYLE
350
23
  3
ACAD_PLOTSETTINGS
350
153
  3
ACAD_PLOTSTYLENAME
350
150
  0
DICTIONARY
  5
3
330
2
100
AcDbDictionary
280
     1
281
     1
  3
ACAD_LAYOUTSELFREF
360
183
  0
DICTIONARY
  5
B
330
A
100
AcDbDictionary
280
     1
281
     1
  3
ACAD_LAYOUTSELFREF
360
184
  0
DICTIONARY
  5
22
102
{ACAD_REACTORS
330
26
102
}
330
26
100
AcDbDictionary
281
     1
  0
DICTIONARY
  5
152
102
{ACAD_REACTORS
330
26
102
}
330
26
100
AcDbDictionary
281
     1
  3
Layout1
350
155
  3
Model
350
154
  0
DICTIONARY
  5
23
102
{ACAD_REACTORS
330
26
102
}
330
26
100
AcDbDictionary
281
     1
  3
Standard
350
29
  0
DICTIONARY
  5
153
102
{ACAD_REACTORS
330
26
102
}
330
26
100
AcDbDictionary
281
     1
  0
ACDBDICTIONARYWDFLT
  5
150
102
{ACAD_REACTORS
330
26
102
}
330
26
100
AcDbDictionary
281
     1
  3
Normal
350
151
100
AcDbDictionaryWithDefault
340
151
  0
XRECORD
  5
183
102
{ACAD_REACTORS
330
3
102
}
330
3
100
AcDbXrecord
280
     1
340
2
  0
XRECORD
  5
184
102
{ACAD_REACTORS
330
B
102
}
330
B
100
AcDbXrecord
280
     1
340
A
  0
LAYOUT
  5
155
102
{ACAD_REACTORS
330
152
102
}
330
152
100
AcDbPlotSettings
  1

  2
None
  4

  6

 40
0.0
 41
0.0
 42
0.0
 43
0.0
 44
0.0
 45
0.0
 46
0.0
 47
0.0
 48
0.0
 49
0.0
140
0.0
141
0.0
142
1.0
143
1.0
 70
   688
 72
     0
 73
     0
 74
     5
  7
Std pen settings.ctb
 75
    16
147
1.0
148
0.0
149
0.0
100
AcDbLayout
  1
Layout1
 70
     1
 71
     1
 10
-0.1979161059762549
 20
-0.1979166691697489
 11
16.34375024029589
 21
11.49541603298637
 12
0.0
 22
0.0
 32
0.0
 14
1.614583349603368
 24
1.129749872553066
 34
0.0
 15
14.5312501464303
 25
10.1677488529776
 35
0.0
146
0.0
 13
0.0
 23
0.0
 33
0.0
 16
1.0
 26
0.0
 36
0.0
 17
0.0
 27
1.0
 37
0.0
 76
     0
330
A
  0
LAYOUT
  5
154
102
{ACAD_REACTORS
330
152
102
}
330
152
100
AcDbPlotSettings
  1

  2
None
  4

  6

 40
0.0
 41
0.0
 42
0.0
 43
0.0
 44
0.0
 45
0.0
 46
0.0
 47
0.0
 48
0.0
 49
0.0
140
0.0
141
0.0
142
1.0
143
1.0
 70
  1712
 72
     0
 73
     0
 74
     0
  7
Std pen settings.ctb
 75
     0
147
1.0
148
0.0
149
0.0
100
AcDbLayout
  1
Model
 70
     1
 71
     0
 10
0.0
 20
0.0
 11
12.0
 21
9.0
 12
0.0
 22
0.0
 32
0.0
 14
0.0
 24
0.0
 34
0.0
 15
0.0
 25
0.0
 35
0.0
146
0.0
 13
0.0
 23
0.0
 33
0.0
 16
1.0
 26
0.0
 36
0.0
 17
0.0
 27
1.0
 37
0.0
 76
     0
330
2
  0
MLINESTYLE
  5
29
102
{ACAD_REACTORS
330
23
102
}
330
23
100
AcDbMlineStyle
  2
STANDARD
 70
     0
  3

 62
   256
 51
90.0
 52
90.0
 71
     2
 49
0.5
 62
   256
  6
BYLAYER
 49
-0.5
 62
   256
  6
BYLAYER
  0
ACDBPLACEHOLDER
  5
151
102
{ACAD_REACTORS
330
150
102
}
330
150
  0
ENDSEC
  0
EOF
