  0
SECTION
  2
HEADER
  9
$ACADVER
  1
AC1015
  9
$ACADMAINTVER
 70
    10
  9
$DWGCODEPAGE
  3
ANSI_1252
  9
$INSBASE
 10
-0.0000000000004032
 20
-0.0000000000003926
 30
0.0
  9
$EXTMIN
 10
-110.0760440072941
 20
-261.9378075349627
 30
0.0
  9
$EXTMAX
 10
242.5100872861284
 20
110.0
 30
0.0
  9
$LIMMIN
 10
0.0
 20
0.0
  9
$LIMMAX
 10
420.0
 20
297.0
  9
$ORTHOMODE
 70
     0
  9
$REGENMODE
 70
     1
  9
$FILLMODE
 70
     1
  9
$QTEXTMODE
 70
     0
  9
$MIRRTEXT
 70
     1
  9
$LTSCALE
 40
0.25
  9
$ATTMODE
 70
     1
  9
$TEXTSIZE
 40
5.0
  9
$TRACEWID
 40
10.0
  9
$TEXTSTYLE
  7
ROMANS
  9
$CLAYER
  8
ANCON-DSD
  9
$CELTYPE
  6
BYLAYER
  9
$CECOLOR
 62
   256
  9
$CELTSCALE
 40
1.0
  9
$DISPSILH
 70
     0
  9
$DIMSCALE
 40
0.0
  9
$DIMASZ
 40
4.0
  9
$DIMEXO
 40
3.0
  9
$DIMDLI
 40
10.0
  9
$DIMRND
 40
0.0
  9
$DIMDLE
 40
1.25
  9
$DIMEXE
 40
3.0
  9
$DIMTP
 40
0.0
  9
$DIMTM
 40
0.0
  9
$DIMTXT
 40
3.0
  9
$DIMCEN
 40
-3.0
  9
$DIMTSZ
 40
0.0
  9
$DIMTOL
 70
     0
  9
$DIMLIM
 70
     0
  9
$DIMTIH
 70
     0
  9
$DIMTOH
 70
     0
  9
$DIMSE1
 70
     0
  9
$DIMSE2
 70
     0
  9
$DIMTAD
 70
     1
  9
$DIMZIN
 70
    12
  9
$DIMBLK
  1

  9
$DIMASO
 70
     1
  9
$DIMSHO
 70
     0
  9
$DIMPOST
  1

  9
$DIMAPOST
  1

  9
$DIMALT
 70
     0
  9
$DIMALTD
 70
     2
  9
$DIMALTF
 40
0.039
  9
$DIMLFAC
 40
1.0
  9
$DIMTOFL
 70
     0
  9
$DIMTVP
 40
1.5
  9
$DIMTIX
 70
     0
  9
$DIMSOXD
 70
     0
  9
$DIMSAH
 70
     0
  9
$DIMBLK1
  1

  9
$DIMBLK2
  1

  9
$DIMSTYLE
  2
1-2
  9
$DIMCLRD
 70
     0
  9
$DIMCLRE
 70
     0
  9
$DIMCLRT
 70
     0
  9
$DIMTFAC
 40
0.75
  9
$DIMGAP
 40
1.5
  9
$DIMJUST
 70
     0
  9
$DIMSD1
 70
     0
  9
$DIMSD2
 70
     0
  9
$DIMTOLJ
 70
     1
  9
$DIMTZIN
 70
    12
  9
$DIMALTZ
 70
    12
  9
$DIMALTTZ
 70
    12
  9
$DIMUPT
 70
     0
  9
$DIMDEC
 70
     2
  9
$DIMTDEC
 70
     2
  9
$DIMALTU
 70
     2
  9
$DIMALTTD
 70
     2
  9
$DIMTXSTY
  7
ROMANS
  9
$DIMAUNIT
 70
     0
  9
$DIMADEC
 70
     0
  9
$DIMALTRND
 40
0.0
  9
$DIMAZIN
 70
     0
  9
$DIMDSEP
 70
    46
  9
$DIMATFIT
 70
     3
  9
$DIMFRAC
 70
     0
  9
$DIMLDRBLK
  1

  9
$DIMLUNIT
 70
     2
  9
$DIMLWD
 70
    -2
  9
$DIMLWE
 70
    -2
  9
$DIMTMOVE
 70
     2
  9
$LUNITS
 70
     2
  9
$LUPREC
 70
     2
  9
$SKETCHINC
 40
1.0
  9
$FILLETRAD
 40
0.0
  9
$AUNITS
 70
     0
  9
$AUPREC
 70
     4
  9
$MENU
  1
acad
  9
$ELEVATION
 40
0.0
  9
$PELEVATION
 40
0.0
  9
$THICKNESS
 40
0.0
  9
$LIMCHECK
 70
     0
  9
$CHAMFERA
 40
0.0
  9
$CHAMFERB
 40
0.0
  9
$CHAMFERC
 40
0.0
  9
$CHAMFERD
 40
0.0
  9
$SKPOLY
 70
     0
  9
$TDCREATE
 40
2449527.571155092
  9
$TDUCREATE
 40
2449527.529488425
  9
$TDUPDATE
 40
2452498.482664120
  9
$TDUUPDATE
 40
2452498.440997453
  9
$TDINDWG
 40
0.1925356481
  9
$TDUSRTIMER
 40
0.1925356481
  9
$USRTIMER
 70
     1
  9
$ANGBASE
 50
0.0
  9
$ANGDIR
 70
     0
  9
$PDMODE
 70
     0
  9
$PDSIZE
 40
0.0
  9
$PLINEWID
 40
0.0
  9
$SPLFRAME
 70
     0
  9
$SPLINETYPE
 70
     6
  9
$SPLINESEGS
 70
     8
  9
$HANDSEED
  5
89
  9
$SURFTAB1
 70
    18
  9
$SURFTAB2
 70
    18
  9
$SURFTYPE
 70
     6
  9
$SURFU
 70
    18
  9
$SURFV
 70
    18
  9
$UCSBASE
  2

  9
$UCSNAME
  2

  9
$UCSORG
 10
0.0
 20
0.0
 30
0.0
  9
$UCSXDIR
 10
1.0
 20
0.0
 30
0.0
  9
$UCSYDIR
 10
0.0
 20
1.0
 30
0.0
  9
$UCSORTHOREF
  2

  9
$UCSORTHOVIEW
 70
     0
  9
$UCSORGTOP
 10
0.0
 20
0.0
 30
0.0
  9
$UCSORGBOTTOM
 10
0.0
 20
0.0
 30
0.0
  9
$UCSORGLEFT
 10
0.0
 20
0.0
 30
0.0
  9
$UCSORGRIGHT
 10
0.0
 20
0.0
 30
0.0
  9
$UCSORGFRONT
 10
0.0
 20
0.0
 30
0.0
  9
$UCSORGBACK
 10
0.0
 20
0.0
 30
0.0
  9
$PUCSBASE
  2

  9
$PUCSNAME
  2

  9
$PUCSORG
 10
0.0
 20
0.0
 30
0.0
  9
$PUCSXDIR
 10
1.0
 20
0.0
 30
0.0
  9
$PUCSYDIR
 10
0.0
 20
1.0
 30
0.0
  9
$PUCSORTHOREF
  2

  9
$PUCSORTHOVIEW
 70
     0
  9
$PUCSORGTOP
 10
0.0
 20
0.0
 30
0.0
  9
$PUCSORGBOTTOM
 10
0.0
 20
0.0
 30
0.0
  9
$PUCSORGLEFT
 10
0.0
 20
0.0
 30
0.0
  9
$PUCSORGRIGHT
 10
0.0
 20
0.0
 30
0.0
  9
$PUCSORGFRONT
 10
0.0
 20
0.0
 30
0.0
  9
$PUCSORGBACK
 10
0.0
 20
0.0
 30
0.0
  9
$USERI1
 70
     0
  9
$USERI2
 70
     0
  9
$USERI3
 70
     0
  9
$USERI4
 70
     0
  9
$USERI5
 70
     0
  9
$USERR1
 40
0.0
  9
$USERR2
 40
0.0
  9
$USERR3
 40
0.0
  9
$USERR4
 40
0.0
  9
$USERR5
 40
0.0
  9
$WORLDVIEW
 70
     1
  9
$SHADEDGE
 70
     3
  9
$SHADEDIF
 70
    70
  9
$TILEMODE
 70
     1
  9
$MAXACTVP
 70
    16
  9
$PINSBASE
 10
0.0
 20
0.0
 30
0.0
  9
$PLIMCHECK
 70
     0
  9
$PEXTMIN
 10
1.000000000000000E+20
 20
1.000000000000000E+20
 30
1.000000000000000E+20
  9
$PEXTMAX
 10
-1.000000000000000E+20
 20
-1.000000000000000E+20
 30
-1.000000000000000E+20
  9
$PLIMMIN
 10
0.0
 20
0.0
  9
$PLIMMAX
 10
420.0
 20
297.0
  9
$UNITMODE
 70
     0
  9
$VISRETAIN
 70
     0
  9
$PLINEGEN
 70
     0
  9
$PSLTSCALE
 70
     1
  9
$TREEDEPTH
 70
  3020
  9
$CMLSTYLE
  2
STANDARD
  9
$CMLJUST
 70
     0
  9
$CMLSCALE
 40
1.0
  9
$PROXYGRAPHICS
 70
     1
  9
$MEASUREMENT
 70
     0
  9
$CELWEIGHT
370
    -1
  9
$ENDCAPS
280
     0
  9
$JOINSTYLE
280
     0
  9
$LWDISPLAY
290
     0
  9
$INSUNITS
 70
     0
  9
$HYPERLINKBASE
  1

  9
$STYLESHEET
  1

  9
$XEDIT
290
     1
  9
$CEPSNTYPE
380
     0
  9
$PSTYLEMODE
290
     1
  9
$FINGERPRINTGUID
  2
{627E27C2-AD1D-11D6-AAC6-0010A4A25215}
  9
$VERSIONGUID
  2
{627E27C9-AD1D-11D6-AAC6-0010A4A25215}
  9
$EXTNAMES
290
     1
  9
$PSVPSCALE
 40
0.0
  9
$OLESTARTUP
290
     0
  0
ENDSEC
  0
SECTION
  2
CLASSES
  0
CLASS
  1
DICTIONARYVAR
  2
AcDbDictionaryVar
  3
AutoCAD 2000
 90
    32768
280
     0
281
     0
  0
CLASS
  1
LWPOLYLINE
  2
AcDbPolyline
  3
AutoCAD 2000
 90
    32768
280
     0
281
     1
  0
CLASS
  1
ACDBDICTIONARYWDFLT
  2
AcDbDictionaryWithDefault
  3
AutoCAD 2000
 90
        0
280
     0
281
     0
  0
CLASS
  1
ACDBPLACEHOLDER
  2
AcDbPlaceHolder
  3
AutoCAD 2000
 90
        0
280
     0
281
     0
  0
CLASS
  1
LAYOUT
  2
AcDbLayout
  3
AutoCAD 2000
 90
        0
280
     0
281
     0
  0
ENDSEC
  0
SECTION
  2
TABLES
  0
TABLE
  2
VPORT
  5
12
330
0
100
AcDbSymbolTable
 70
     3
  0
VPORT
  5
88
330
12
100
AcDbSymbolTableRecord
100
AcDbViewportTableRecord
  2
*Active
 70
     0
 10
0.0
 20
0.0
 11
1.0
 21
1.0
 12
166.3400846435212
 22
-76.17669797023217
 13
0.0
 23
0.0
 14
5.0
 24
5.0
 15
10.0
 25
10.0
 16
0.0
 26
0.0
 36
1.0
 17
0.0
 27
0.0
 37
0.0
 40
458.8506205804654
 41
1.760948905109489
 42
50.0
 43
0.0
 44
0.0
 50
0.0
 51
0.0
 71
     0
 72
   100
 73
     1
 74
     1
 75
     0
 76
     0
 77
     0
 78
     0
281
     0
 65
     1
110
0.0
120
0.0
130
0.0
111
1.0
121
0.0
131
0.0
112
0.0
122
1.0
132
0.0
 79
     0
146
0.0
  0
ENDTAB
  0
TABLE
  2
LTYPE
  5
D
330
0
100
AcDbSymbolTable
 70
     2
  0
LTYPE
  5
E
330
D
100
AcDbSymbolTableRecord
100
AcDbLinetypeTableRecord
  2
BYBLOCK
 70
     0
  3

 72
    65
 73
     0
 40
0.0
  0
LTYPE
  5
F
330
D
100
AcDbSymbolTableRecord
100
AcDbLinetypeTableRecord
  2
BYLAYER
 70
     0
  3

 72
    65
 73
     0
 40
0.0
  0
LTYPE
  5
5
330
D
100
AcDbSymbolTableRecord
100
AcDbLinetypeTableRecord
  2
CONTINUOUS
 70
     0
  3
Solid line
 72
    65
 73
     0
 40
0.0
  0
LTYPE
  5
2E
330
D
100
AcDbSymbolTableRecord
100
AcDbLinetypeTableRecord
  2
CENTER2
 70
     0
  3
___ _ ___ _ ___ _ ___ _ ___ _ ___ _ ___ _ ___ _
 72
    65
 73
     4
 40
28.57499999999999
 49
19.05
 74
     0
 49
-3.174999999999999
 74
     0
 49
3.174999999999999
 74
     0
 49
-3.174999999999999
 74
     0
  0
ENDTAB
  0
TABLE
  2
LAYER
  5
A
330
0
100
AcDbSymbolTable
 70
     6
  0
LAYER
  5
4
330
A
100
AcDbSymbolTableRecord
100
AcDbLayerTableRecord
  2
0
 70
     0
 62
     7
  6
CONTINUOUS
370
    -3
390
7F
  0
LAYER
  5
2D
330
A
100
AcDbSymbolTableRecord
100
AcDbLayerTableRecord
  2
ANCON-DIMS
 70
     0
 62
     1
  6
CONTINUOUS
370
    -3
390
7F
  0
LAYER
  5
1B
330
A
100
AcDbSymbolTableRecord
100
AcDbLayerTableRecord
  2
ANCON-DSD
 70
     0
 62
     3
  6
CONTINUOUS
370
    -3
390
7F
  0
LAYER
  5
3D
330
A
100
AcDbSymbolTableRecord
100
AcDbLayerTableRecord
  2
DEFPOINTS
 70
     0
 62
     7
  6
CONTINUOUS
290
     0
370
    -3
390
7F
  0
LAYER
  5
67
330
A
100
AcDbSymbolTableRecord
100
AcDbLayerTableRecord
  2
ORIGIN
 70
     0
 62
     7
  6
CONTINUOUS
370
    -3
390
7F
  0
LAYER
  5
20
330
A
100
AcDbSymbolTableRecord
100
AcDbLayerTableRecord
  2
ANCON-TEXT
 70
     0
 62
     6
  6
CONTINUOUS
370
    -3
390
7F
  0
ENDTAB
  0
TABLE
  2
STYLE
  5
B
330
0
100
AcDbSymbolTable
 70
     2
  0
STYLE
  5
C
330
B
100
AcDbSymbolTableRecord
100
AcDbTextStyleTableRecord
  2
STANDARD
 70
     0
 40
0.0
 41
1.0
 50
0.0
 71
     0
 42
6.0
  3
txt.shx
  4

  0
STYLE
  5
1C
330
B
100
AcDbSymbolTableRecord
100
AcDbTextStyleTableRecord
  2
ROMANS
 70
     0
 40
0.0
 41
1.0
 50
0.0
 71
     0
 42
5.0
  3
romans
  4

  0
ENDTAB
  0
TABLE
  2
VIEW
  5
10
330
0
100
AcDbSymbolTable
 70
     0
  0
ENDTAB
  0
TABLE
  2
UCS
  5
11
330
0
100
AcDbSymbolTable
 70
     0
  0
ENDTAB
  0
TABLE
  2
APPID
  5
14
330
0
100
AcDbSymbolTable
 70
     1
  0
APPID
  5
15
330
14
100
AcDbSymbolTableRecord
100
AcDbRegAppTableRecord
  2
ACAD
 70
     0
  0
ENDTAB
  0
TABLE
  2
DIMSTYLE
  5
16
330
0
100
AcDbSymbolTable
 70
     1
100
AcDbDimStyleTable
 71
     0
  0
DIMSTYLE
105
1E
102
{ACAD_REACTORS
330
34
330
42
102
}
330
16
100
AcDbSymbolTableRecord
100
AcDbDimStyleTableRecord
  2
1-2
 70
     0
 40
0.0
 41
4.0
 42
3.0
 43
10.0
 44
3.0
 46
1.25
 73
     0
 74
     0
 77
     1
 78
    12
140
3.0
141
-3.0
143
0.039
145
1.5
146
0.75
147
1.5
271
     2
272
     2
279
     2
284
    12
285
    12
286
    12
340
1C
  0
ENDTAB
  0
TABLE
  2
BLOCK_RECORD
  5
1
330
0
100
AcDbSymbolTable
 70
     2
  0
BLOCK_RECORD
  5
2
330
1
100
AcDbSymbolTableRecord
100
AcDbBlockTableRecord
  2
*MODEL_SPACE
340
82
  0
BLOCK_RECORD
  5
7
330
1
100
AcDbSymbolTableRecord
100
AcDbBlockTableRecord
  2
*PAPER_SPACE
340
83
  0
BLOCK_RECORD
  5
35
330
1
100
AcDbSymbolTableRecord
100
AcDbBlockTableRecord
  2
*D0
340
0
  0
BLOCK_RECORD
  5
43
330
1
100
AcDbSymbolTableRecord
100
AcDbBlockTableRecord
  2
*D1
340
0
  0
ENDTAB
  0
ENDSEC
  0
SECTION
  2
BLOCKS
  0
BLOCK
  5
3
330
2
100
AcDbEntity
  8
0
100
AcDbBlockBegin
  2
*MODEL_SPACE
 70
     0
 10
0.0
 20
0.0
 30
0.0
  3
*MODEL_SPACE
  1

  0
ENDBLK
  5
6
330
2
100
AcDbEntity
  8
0
100
AcDbBlockEnd
  0
BLOCK
  5
8
330
7
100
AcDbEntity
 67
     1
  8
0
100
AcDbBlockBegin
  2
*PAPER_SPACE
 70
     0
 10
0.0
 20
0.0
 30
0.0
  3
*PAPER_SPACE
  1

  0
ENDBLK
  5
9
330
7
100
AcDbEntity
 67
     1
  8
0
100
AcDbBlockEnd
  0
BLOCK
  5
40
330
35
100
AcDbEntity
  8
0
100
AcDbBlockBegin
  2
*D0
 70
     1
 10
0.0
 20
0.0
 30
0.0
  3
*D0
  1

  0
LINE
  5
36
330
35
100
AcDbEntity
  8
0
  6
ByBlock
 62
     0
100
AcDbLine
 10
-50.07604400729395
 20
-102.9772060008824
 30
0.0
 11
-50.07604400729395
 21
-132.2007103334671
 31
0.0
  0
LINE
  5
37
330
35
100
AcDbEntity
  8
0
  6
ByBlock
 62
     0
100
AcDbLine
 10
50.07604400729395
 20
-102.9999999999999
 30
0.0
 11
50.07604400729395
 21
-132.2007103334671
 31
0.0
  0
LINE
  5
38
330
35
100
AcDbEntity
  8
0
  6
ByBlock
 62
     0
100
AcDbLine
 10
-46.07604400729394
 20
-129.2007103334671
 30
0.0
 11
46.07604400729394
 21
-129.2007103334671
 31
0.0
  0
SOLID
  5
39
330
35
100
AcDbEntity
  8
0
  6
ByBlock
 62
     0
100
AcDbTrace
 10
-46.07604400729394
 20
-128.5340436668005
 30
0.0
 11
-46.07604400729394
 21
-129.8673770001338
 31
0.0
 12
-50.07604400729395
 22
-129.2007103334671
 32
0.0
 13
-50.07604400729395
 23
-129.2007103334671
 33
0.0
  0
SOLID
  5
3A
330
35
100
AcDbEntity
  8
0
  6
ByBlock
 62
     0
100
AcDbTrace
 10
46.07604400729394
 20
-128.5340436668005
 30
0.0
 11
46.07604400729394
 21
-129.8673770001338
 31
0.0
 12
50.07604400729395
 22
-129.2007103334671
 32
0.0
 13
50.07604400729395
 23
-129.2007103334671
 33
0.0
  0
MTEXT
  5
3B
330
35
100
AcDbEntity
  8
0
  6
ByBlock
 62
     0
100
AcDbMText
 10
0.0000000000000002
 20
-126.2007103334671
 30
0.0
 40
3.0
 41
0.0
 71
     5
 72
     1
  1
\A1;100
  7
ROMANS
 73
     1
 44
1.0
  0
POINT
  5
3C
330
35
100
AcDbEntity
  8
DEFPOINTS
  6
ByBlock
 62
     0
100
AcDbPoint
 10
-50.07604400729395
 20
-99.97720600088241
 30
0.0
  0
POINT
  5
3E
330
35
100
AcDbEntity
  8
DEFPOINTS
  6
ByBlock
 62
     0
100
AcDbPoint
 10
50.07604400729395
 20
-99.99999999999994
 30
0.0
  0
POINT
  5
3F
330
35
100
AcDbEntity
  8
DEFPOINTS
  6
ByBlock
 62
     0
100
AcDbPoint
 10
50.07604400729395
 20
-129.2007103334671
 30
0.0
  0
ENDBLK
  5
41
330
35
100
AcDbEntity
  8
0
100
AcDbBlockEnd
  0
BLOCK
  5
4D
330
43
100
AcDbEntity
  8
0
100
AcDbBlockBegin
  2
*D1
 70
     1
 10
0.0
 20
0.0
 30
0.0
  3
*D1
  1

  0
LINE
  5
44
330
43
100
AcDbEntity
  8
0
  6
ByBlock
 62
     0
100
AcDbLine
 10
-100.0760440072941
 20
-10.99999999999994
 30
0.0
 11
-100.0760440072941
 21
-156.3772292583532
 31
0.0
  0
LINE
  5
45
330
43
100
AcDbEntity
  8
0
  6
ByBlock
 62
     0
100
AcDbLine
 10
100.0760440072941
 20
-10.99999999999994
 30
0.0
 11
100.0760440072941
 21
-156.3772292583532
 31
0.0
  0
LINE
  5
46
330
43
100
AcDbEntity
  8
0
  6
ByBlock
 62
     0
100
AcDbLine
 10
-96.07604400729419
 20
-153.3772292583532
 30
0.0
 11
96.07604400729416
 21
-153.3772292583532
 31
0.0
  0
SOLID
  5
47
330
43
100
AcDbEntity
  8
0
  6
ByBlock
 62
     0
100
AcDbTrace
 10
-96.07604400729419
 20
-152.7105625916865
 30
0.0
 11
-96.07604400729419
 21
-154.0438959250198
 31
0.0
 12
-100.0760440072941
 22
-153.3772292583532
 32
0.0
 13
-100.0760440072941
 23
-153.3772292583532
 33
0.0
  0
SOLID
  5
48
330
43
100
AcDbEntity
  8
0
  6
ByBlock
 62
     0
100
AcDbTrace
 10
96.07604400729416
 20
-152.7105625916865
 30
0.0
 11
96.07604400729416
 21
-154.0438959250198
 31
0.0
 12
100.0760440072941
 22
-153.3772292583532
 32
0.0
 13
100.0760440072941
 23
-153.3772292583532
 33
0.0
  0
MTEXT
  5
49
330
43
100
AcDbEntity
  8
0
  6
ByBlock
 62
     0
100
AcDbMText
 10
-0.000000000000014
 20
-150.3772292583532
 30
0.0
 40
3.0
 41
0.0
 71
     5
 72
     1
  1
\A1;200
  7
ROMANS
 73
     1
 44
1.0
  0
POINT
  5
4A
330
43
100
AcDbEntity
  8
DEFPOINTS
  6
ByBlock
 62
     0
100
AcDbPoint
 10
-100.0760440072941
 20
-7.999999999999943
 30
0.0
  0
POINT
  5
4B
330
43
100
AcDbEntity
  8
DEFPOINTS
  6
ByBlock
 62
     0
100
AcDbPoint
 10
100.0760440072941
 20
-7.999999999999943
 30
0.0
  0
POINT
  5
4C
330
43
100
AcDbEntity
  8
DEFPOINTS
  6
ByBlock
 62
     0
100
AcDbPoint
 10
100.0760440072941
 20
-153.3772292583532
 30
0.0
  0
ENDBLK
  5
4E
330
43
100
AcDbEntity
  8
0
100
AcDbBlockEnd
  0
ENDSEC
  0
SECTION
  2
ENTITIES
  0
TEXT
  5
1F
330
2
100
AcDbEntity
  8
ANCON-TEXT
100
AcDbText
 10
137.7112684353453
 20
76.8231239155005
 30
0.0
 40
5.0
  1
WIDTH
  7
ROMANS
 72
     4
 11
148.3065065305834
 21
79.3231239155005
 31
0.0
100
AcDbText
  0
TEXT
  5
21
330
2
100
AcDbEntity
  8
ANCON-TEXT
100
AcDbText
 10
138.6359213253422
 20
55.70377442166682
 30
0.0
 40
5.0
  1
?? MM
  7
ROMANS
 72
     4
 11
151.0168737062945
 21
58.20377442166682
 31
0.0
100
AcDbText
  0
TEXT
  5
22
330
2
100
AcDbEntity
  8
ANCON-TEXT
100
AcDbText
 10
122.2350779591548
 20
87.72074730311942
 30
0.0
 40
5.0
  1
DESIGN JOINT
  7
ROMANS
 72
     4
 11
148.3065065305834
 21
90.22074730311942
 31
0.0
100
AcDbText
  0
LINE
  5
23
330
2
100
AcDbEntity
  8
ANCON-TEXT
100
AcDbLine
 10
67.1314095942659
 20
97.9864634626611
 30
0.0
 11
242.5100872861284
 21
97.98646346266105
 31
0.0
  0
LINE
  5
24
330
2
100
AcDbEntity
  8
ANCON-TEXT
100
AcDbLine
 10
67.13140959426593
 20
71.9157024036154
 30
0.0
 11
242.5100872861284
 21
71.9157024036154
 31
0.0
  0
LINE
  5
25
330
2
100
AcDbEntity
  8
ANCON-TEXT
100
AcDbLine
 10
67.1314095942659
 20
44.88821732856831
 30
0.0
 11
242.5100872861284
 21
44.88821732856826
 31
0.0
  0
TEXT
  5
26
330
2
100
AcDbEntity
  8
ANCON-TEXT
100
AcDbText
 10
31.12291657494651
 20
-238.1507745246428
 30
0.0
 40
5.0
  1
SUITABLE FOR A DESIGN JOINT WIDTH OF ?? MM
  7
ROMANS
 72
     4
 11
126.0038689558989
 21
-235.6507745246428
 31
0.0
100
AcDbText
  0
LINE
  5
27
330
2
100
AcDbEntity
  8
ANCON-TEXT
100
AcDbLine
 10
27.49367101610511
 20
-208.9041149494124
 30
0.0
 11
229.9806211227454
 21
-208.9041149494124
 31
0.0
  0
LINE
  5
28
330
2
100
AcDbEntity
  8
ANCON-TEXT
100
AcDbLine
 10
27.49367101610511
 20
-261.9378075349627
 30
0.0
 11
229.9806211227454
 21
-261.9378075349627
 31
0.0
  0
TEXT
  5
29
330
2
100
AcDbEntity
  8
ANCON-TEXT
100
AcDbText
 10
31.57735174489663
 20
-248.1998319385719
 30
0.0
 40
5.0
  1
AND CAPABLE OF TRANSFERRING A SERVICEABILITY
  7
ROMANS
 72
     4
 11
128.958304125849
 21
-245.6998319385719
 31
0.0
100
AcDbText
  0
TEXT
  5
2A
330
2
100
AcDbEntity
  8
ANCON-TEXT
100
AcDbText
 10
31.06421981488892
 20
-228.249626814973
 30
0.0
 40
5.0
  1
COMPRISING SLEEVE AND DOWEL COMPONENT
  7
ROMANS
 72
     4
 11
119.0404102910794
 21
-225.7496268149731
 31
0.0
100
AcDbText
  0
TEXT
  5
2B
330
2
100
AcDbEntity
  8
ANCON-TEXT
100
AcDbText
 10
31.78540422094469
 20
-218.1449144891824
 30
0.0
 40
5.0
  1
TWO PART STAINLESS STEEL SHEAR CONNECTOR
  7
ROMANS
 72
     4
 11
124.4044518399924
 21
-215.6449144891825
 31
0.0
100
AcDbText
  0
LINE
  5
2C
330
2
100
AcDbEntity
  8
ANCON-DIMS
  6
CENTER2
100
AcDbLine
 10
-0.0000000000007873
 20
110.0
 30
0.0
 11
-0.0000000000000195
 21
-109.9999999999999
 31
0.0
  0
LINE
  5
2F
330
2
100
AcDbEntity
  8
ANCON-DSD
100
AcDbLine
 10
-50.07604400729395
 20
100.0
 30
0.0
 11
-50.07604400729395
 21
-99.99999999999994
 31
0.0
  0
LINE
  5
30
330
2
100
AcDbEntity
  8
ANCON-DSD
100
AcDbLine
 10
50.0760440072944
 20
100.0
 30
0.0
 11
50.07604400729395
 21
-99.99999999999994
 31
0.0
  0
TEXT
  5
31
330
2
100
AcDbEntity
  8
ANCON-TEXT
100
AcDbText
 10
-100.0787012748077
 20
-188.1747113981621
 30
0.0
 40
5.0
  1
SPECIFICATION BY PRODUCT
  7
ROMANS
 72
     4
 11
-46.6263203224268
 21
-185.6747113981621
 31
0.0
100
AcDbText
  0
TEXT
  5
32
330
2
100
AcDbEntity
  8
ANCON-TEXT
100
AcDbText
 10
-99.93506466518145
 20
-218.1091658626582
 30
0.0
 40
5.0
  1
SPECIFICATION BY DESCRIPTION
  7
ROMANS
 72
     4
 11
-40.2922075223243
 21
-215.6091658626582
 31
0.0
100
AcDbText
  0
LINE
  5
33
330
2
100
AcDbEntity
  8
ANCON-DSD
100
AcDbLine
 10
-50.07604400729395
 20
-99.97720600088241
 30
0.0
 11
50.07604400729395
 21
-99.99999999999994
 31
0.0
  0
DIMENSION
  5
34
330
2
100
AcDbEntity
  8
ANCON-DIMS
100
AcDbDimension
  2
*D0
 10
50.07604400729395
 20
-129.2007103334671
 30
0.0
 11
0.0000000000000002
 21
-126.2007103334671
 31
0.0
  1
100
 71
     5
 42
-1.0
  3
1-2
100
AcDbAlignedDimension
 13
-50.07604400729395
 23
-99.97720600088241
 33
0.0
 14
50.07604400729395
 24
-99.99999999999994
 34
0.0
100
AcDbRotatedDimension
  0
DIMENSION
  5
42
330
2
100
AcDbEntity
  8
ANCON-DIMS
100
AcDbDimension
  2
*D1
 10
100.0760440072941
 20
-153.3772292583532
 30
0.0
 11
-0.000000000000014
 21
-150.3772292583532
 31
0.0
  1
200
 71
     5
 42
-1.0
  3
1-2
100
AcDbAlignedDimension
 13
-100.0760440072941
 23
-7.999999999999943
 33
0.0
 14
100.0760440072941
 24
-7.999999999999943
 34
0.0
100
AcDbRotatedDimension
  0
LINE
  5
4F
330
2
100
AcDbEntity
  8
ANCON-DSD
100
AcDbLine
 10
50.07604400729395
 20
-99.99999999999994
 30
0.0
 11
-50.07604400729395
 21
-99.99999999999994
 31
0.0
  0
LINE
  5
50
330
2
100
AcDbEntity
  8
ANCON-DIMS
  6
CENTER2
100
AcDbLine
 10
-110.0760440072941
 20
0.0000000000000568
 30
0.0
 11
110.0760440072941
 21
0.0000000000000568
 31
0.0
  0
LINE
  5
51
330
2
100
AcDbEntity
  8
ANCON-DIMS
  6
CENTER2
100
AcDbLine
 10
-23.00000000000022
 20
-52.49999999999994
 30
0.0
 11
22.99999999999978
 21
-52.49999999999994
 31
0.0
  0
CIRCLE
  5
52
330
2
100
AcDbEntity
  8
ANCON-DSD
100
AcDbCircle
 10
-0.0000000000002202
 20
-52.49999999999995
 30
0.0
 40
20.0
  0
CIRCLE
  5
53
330
2
100
AcDbEntity
  8
ANCON-DSD
100
AcDbCircle
 10
-0.0000000000002202
 20
-52.49999999999995
 30
0.0
 40
18.0
  0
LINE
  5
54
330
2
100
AcDbEntity
  8
ANCON-DSD
100
AcDbLine
 10
-100.0760440072941
 20
8.000000000000056
 30
0.0
 11
-50.07604400729395
 21
8.022793999117595
 31
0.0
  0
LINE
  5
55
330
2
100
AcDbEntity
  8
ANCON-DSD
100
AcDbLine
 10
-100.0760440072941
 20
-7.999999999999943
 30
0.0
 11
-50.07604400729395
 21
-7.977206000882404
 31
0.0
  0
LINE
  5
56
330
2
100
AcDbEntity
  8
ANCON-DSD
100
AcDbLine
 10
-100.0760440072941
 20
8.000000000000056
 30
0.0
 11
-100.0760440072941
 21
-7.999999999999943
 31
0.0
  0
CIRCLE
  5
57
330
2
100
AcDbEntity
  8
ANCON-DSD
100
AcDbCircle
 10
-40.00000000000009
 20
-89.99999999999992
 30
0.0
 40
2.5
  0
LINE
  5
58
330
2
100
AcDbEntity
  8
ANCON-DIMS
  6
CENTER2
100
AcDbLine
 10
-40.0000000000001
 20
-84.49999999999993
 30
0.0
 11
-40.00000000000007
 21
-95.49999999999993
 31
0.0
  0
LINE
  5
59
330
2
100
AcDbEntity
  8
ANCON-DIMS
  6
CENTER2
100
AcDbLine
 10
-45.50000000000009
 20
-89.99999999999994
 30
0.0
 11
-34.50000000000009
 21
-89.99999999999994
 31
0.0
  0
TEXT
  5
5A
330
2
100
AcDbEntity
  8
ANCON-TEXT
100
AcDbText
 10
31.98778068949716
 20
-188.1747113981621
 30
0.0
 40
5.0
  1
STAIFIX DSD ??
  7
ROMANS
 72
     4
 11
61.5115902133067
 21
-185.6747113981621
 31
0.0
100
AcDbText
  0
LINE
  5
5B
330
2
100
AcDbEntity
  8
ANCON-TEXT
100
AcDbLine
 10
27.49367101610511
 20
-191.4555765743198
 30
0.0
 11
95.08352193886706
 21
-191.4555765743198
 31
0.0
  0
LINE
  5
5C
330
2
100
AcDbEntity
  8
ANCON-TEXT
100
AcDbLine
 10
27.49367101610511
 20
-179.5376012823186
 30
0.0
 11
95.08352193886702
 21
-179.5376012823186
 31
0.0
  0
TEXT
  5
5D
330
2
100
AcDbEntity
  8
ANCON-TEXT
100
AcDbText
 10
32.76313250123974
 20
-258.2347571035342
 30
0.0
 40
5.0
  1
LOAD OF ??? kN
  7
ROMANS
 72
     4
 11
65.38218012028735
 21
-255.7347571035342
 31
0.0
100
AcDbText
  0
LINE
  5
5E
330
2
100
AcDbEntity
  8
ANCON-TEXT
100
AcDbLine
 10
27.49367101610511
 20
-208.9041149494124
 30
0.0
 11
27.49367101610511
 21
-261.9378075349627
 31
0.0
  0
LINE
  5
5F
330
2
100
AcDbEntity
  8
ANCON-TEXT
100
AcDbLine
 10
27.49367101610511
 20
-179.5376012823186
 30
0.0
 11
27.49367101610511
 21
-191.4555765743198
 31
0.0
  0
LINE
  5
60
330
2
100
AcDbEntity
  8
ANCON-TEXT
100
AcDbLine
 10
95.08352193886702
 20
-179.5376012823186
 30
0.0
 11
95.08352193886706
 21
-191.4555765743198
 31
0.0
  0
LINE
  5
61
330
2
100
AcDbEntity
  8
ANCON-DSD
100
AcDbLine
 10
50.07604400729395
 20
8.000000000000056
 30
0.0
 11
100.0760440072941
 21
8.000000000000056
 31
0.0
  0
LINE
  5
62
330
2
100
AcDbEntity
  8
ANCON-DSD
100
AcDbLine
 10
50.07604400729395
 20
-7.999999999999943
 30
0.0
 11
100.0760440072941
 21
-7.999999999999943
 31
0.0
  0
CIRCLE
  5
63
330
2
100
AcDbEntity
  8
ANCON-DSD
100
AcDbCircle
 10
39.99999999999991
 20
-89.99999999999994
 30
0.0
 40
2.5
  0
LINE
  5
64
330
2
100
AcDbEntity
  8
ANCON-DIMS
  6
CENTER2
100
AcDbLine
 10
39.99999999999988
 20
-84.49999999999993
 30
0.0
 11
39.99999999999992
 21
-95.49999999999995
 31
0.0
  0
LINE
  5
65
330
2
100
AcDbEntity
  8
ANCON-DIMS
  6
CENTER2
100
AcDbLine
 10
34.4999999999999
 20
-89.99999999999994
 30
0.0
 11
45.4999999999999
 21
-89.99999999999994
 31
0.0
  0
LINE
  5
68
330
2
100
AcDbEntity
  8
ANCON-DSD
100
AcDbLine
 10
100.0760440072941
 20
8.000000000000056
 30
0.0
 11
100.0760440072941
 21
-7.999999999999943
 31
0.0
  0
LINE
  5
69
330
2
100
AcDbEntity
  8
ANCON-DSD
100
AcDbLine
 10
50.07604400729395
 20
100.0
 30
0.0
 11
-50.07604400729395
 21
100.0
 31
0.0
  0
LINE
  5
6A
330
2
100
AcDbEntity
  8
ANCON-DIMS
  6
CENTER2
100
AcDbLine
 10
-23.00000000000058
 20
52.50000000000006
 30
0.0
 11
22.99999999999941
 21
52.50000000000006
 31
0.0
  0
CIRCLE
  5
6B
330
2
100
AcDbEntity
  8
ANCON-DSD
100
AcDbCircle
 10
-0.0000000000005866
 20
52.50000000000007
 30
0.0
 40
20.0
  0
CIRCLE
  5
6C
330
2
100
AcDbEntity
  8
ANCON-DSD
100
AcDbCircle
 10
-0.0000000000005866
 20
52.50000000000007
 30
0.0
 40
18.0
  0
LINE
  5
6D
330
2
100
AcDbEntity
  8
ANCON-DIMS
  6
CENTER2
100
AcDbLine
 10
-45.50000000000071
 20
90.00000000000007
 30
0.0
 11
-34.50000000000072
 21
90.00000000000007
 31
0.0
  0
CIRCLE
  5
6E
330
2
100
AcDbEntity
  8
ANCON-DSD
100
AcDbCircle
 10
-40.00000000000071
 20
90.00000000000005
 30
0.0
 40
2.5
  0
LINE
  5
6F
330
2
100
AcDbEntity
  8
ANCON-DIMS
  6
CENTER2
100
AcDbLine
 10
-40.00000000000073
 20
95.50000000000006
 30
0.0
 11
-40.0000000000007
 21
84.50000000000006
 31
0.0
  0
LINE
  5
70
330
2
100
AcDbEntity
  8
ANCON-TEXT
100
AcDbLine
 10
67.13140959426593
 20
97.98646346266105
 30
0.0
 11
67.13140959426593
 21
44.88821732856826
 31
0.0
  0
CIRCLE
  5
71
330
2
100
AcDbEntity
  8
ANCON-DSD
100
AcDbCircle
 10
39.99999999999928
 20
90.00000000000005
 30
0.0
 40
2.5
  0
LINE
  5
72
330
2
100
AcDbEntity
  8
ANCON-DIMS
  6
CENTER2
100
AcDbLine
 10
34.49999999999928
 20
90.00000000000007
 30
0.0
 11
45.49999999999928
 21
90.00000000000007
 31
0.0
  0
LINE
  5
73
330
2
100
AcDbEntity
  8
ANCON-DIMS
  6
CENTER2
100
AcDbLine
 10
39.99999999999926
 20
95.50000000000006
 30
0.0
 11
39.99999999999929
 21
84.50000000000006
 31
0.0
  0
TEXT
  5
74
330
2
100
AcDbEntity
  8
ANCON-TEXT
100
AcDbText
 10
76.37401656343747
 20
55.70377442166682
 30
0.0
 40
5.0
  1
DSD130
  7
ROMANS
 72
     4
 11
91.01687370629461
 21
58.20377442166682
 31
0.0
100
AcDbText
  0
TEXT
  5
75
330
2
100
AcDbEntity
  8
ANCON-TEXT
100
AcDbText
 10
74.32379374333729
 20
87.72074730311942
 30
0.0
 40
5.0
  1
DSD REF:
  7
ROMANS
 72
     4
 11
92.29998421952776
 21
90.22074730311942
 31
0.0
100
AcDbText
  0
LINE
  5
76
330
2
100
AcDbEntity
  8
ANCON-TEXT
100
AcDbLine
 10
117.1314095942659
 20
97.98646346266105
 30
0.0
 11
117.1314095942659
 21
44.88821732856826
 31
0.0
  0
LINE
  5
77
330
2
100
AcDbEntity
  8
ANCON-TEXT
100
AcDbLine
 10
229.9806211227454
 20
-208.9041149494124
 30
0.0
 11
229.9806211227454
 21
-261.9378075349627
 31
0.0
  0
TEXT
  5
78
330
2
100
AcDbEntity
  8
ANCON-TEXT
100
AcDbText
 10
183.1597308491517
 20
87.72557780025101
 30
0.0
 40
5.0
  1
SERVICEABILITY
  7
ROMANS
 72
     4
 11
211.0168737062946
 21
90.22557780025101
 31
0.0
100
AcDbText
  0
TEXT
  5
79
330
2
100
AcDbEntity
  8
ANCON-TEXT
100
AcDbText
 10
186.2549689443898
 20
76.78229886167267
 30
0.0
 40
5.0
  1
LOAD ( kN )
  7
ROMANS
 72
     4
 11
211.0168737062946
 21
78.92515600452981
 31
0.0
100
AcDbText
  0
LINE
  5
7A
330
2
100
AcDbEntity
  8
ANCON-TEXT
100
AcDbLine
 10
177.6395031513287
 20
97.98646346266105
 30
0.0
 11
177.6395031513287
 21
44.88821732856826
 31
0.0
  0
TEXT
  5
7B
330
2
100
AcDbEntity
  8
ANCON-TEXT
100
AcDbText
 10
204.5883022777231
 20
55.70377442166682
 30
0.0
 40
5.0
  1
???
  7
ROMANS
 72
     4
 11
211.0168737062946
 21
58.20377442166682
 31
0.0
100
AcDbText
  0
LINE
  5
7C
330
2
100
AcDbEntity
  8
ANCON-TEXT
100
AcDbLine
 10
242.5100872861284
 20
97.98646346266105
 30
0.0
 11
242.5100872861284
 21
44.88821732856826
 31
0.0
  0
ENDSEC
  0
SECTION
  2
OBJECTS
  0
DICTIONARY
  5
1A
330
0
100
AcDbDictionary
281
     1
  3
ACAD_GROUP
350
18
  3
ACAD_LAYOUT
350
80
  3
ACAD_MLINESTYLE
350
19
  3
ACAD_PLOTSETTINGS
350
81
  3
ACAD_PLOTSTYLENAME
350
7E
  0
DICTIONARY
  5
18
102
{ACAD_REACTORS
330
1A
102
}
330
1A
100
AcDbDictionary
281
     1
  0
DICTIONARY
  5
80
102
{ACAD_REACTORS
330
1A
102
}
330
1A
100
AcDbDictionary
281
     1
  3
Layout1
350
83
  3
Model
350
82
  0
DICTIONARY
  5
19
102
{ACAD_REACTORS
330
1A
102
}
330
1A
100
AcDbDictionary
281
     1
  3
STANDARD
350
1D
  0
DICTIONARY
  5
81
102
{ACAD_REACTORS
330
1A
102
}
330
1A
100
AcDbDictionary
281
     1
  0
ACDBDICTIONARYWDFLT
  5
7E
102
{ACAD_REACTORS
330
1A
102
}
330
1A
100
AcDbDictionary
281
     1
  3
Normal
350
7F
100
AcDbDictionaryWithDefault
340
7F
  0
LAYOUT
  5
83
102
{ACAD_REACTORS
330
80
102
}
330
80
100
AcDbPlotSettings
  1

  2
Ancon 2
  4

  6

 40
0.0
 41
0.0
 42
0.0
 43
0.0
 44
0.0
 45
0.0
 46
0.0
 47
0.0
 48
0.0
 49
0.0
140
0.0
141
0.0
142
1.0
143
1.0
 70
   688
 72
     0
 73
     0
 74
     5
  7

 75
    16
147
1.0
148
0.0
149
0.0
100
AcDbLayout
  1
Layout1
 70
     1
 71
     1
 10
0.0
 20
0.0
 11
420.0
 21
297.0
 12
0.0
 22
0.0
 32
0.0
 14
1.000000000000000E+20
 24
1.000000000000000E+20
 34
1.000000000000000E+20
 15
-1.000000000000000E+20
 25
-1.000000000000000E+20
 35
-1.000000000000000E+20
146
0.0
 13
0.0
 23
0.0
 33
0.0
 16
1.0
 26
0.0
 36
0.0
 17
0.0
 27
1.0
 37
0.0
 76
     0
330
7
  0
LAYOUT
  5
82
102
{ACAD_REACTORS
330
80
102
}
330
80
100
AcDbPlotSettings
  1

  2
Ancon 2
  4

  6

 40
0.0
 41
0.0
 42
0.0
 43
0.0
 44
0.0
 45
0.0
 46
0.0
 47
0.0
 48
0.0
 49
0.0
140
0.0
141
0.0
142
1.0
143
1.0
 70
  1712
 72
     0
 73
     0
 74
     0
  7

 75
     0
147
1.0
148
0.0
149
0.0
100
AcDbLayout
  1
Model
 70
     1
 71
     0
 10
0.0
 20
0.0
 11
12.0
 21
9.0
 12
0.0
 22
0.0
 32
0.0
 14
0.0
 24
0.0
 34
0.0
 15
0.0
 25
0.0
 35
0.0
146
0.0
 13
0.0
 23
0.0
 33
0.0
 16
1.0
 26
0.0
 36
0.0
 17
0.0
 27
1.0
 37
0.0
 76
     0
330
2
  0
MLINESTYLE
  5
1D
102
{ACAD_REACTORS
330
19
102
}
330
19
100
AcDbMlineStyle
  2
STANDARD
 70
     0
  3

 62
   256
 51
90.0
 52
90.0
 71
     2
 49
0.5
 62
   256
  6
BYLAYER
 49
-0.5
 62
   256
  6
BYLAYER
  0
ACDBPLACEHOLDER
  5
7F
102
{ACAD_REACTORS
330
7E
102
}
330
7E
  0
ENDSEC
  0
EOF
