  0
SECTION
  2
HEADER
  9
$ACADVER
  1
AC1015
  9
$ACADMAINTVER
 70
    10
  9
$DWGCODEPAGE
  3
ANSI_1252
  9
$INSBASE
 10
0.0000000000000568
 20
0.0000000000000568
 30
0.0
  9
$EXTMIN
 10
-360.0
 20
-279.5382443711042
 30
0.0
  9
$EXTMAX
 10
496.5238522134689
 20
264.348175831299
 30
0.0
  9
$LIMMIN
 10
0.0
 20
0.0
  9
$LIMMAX
 10
420.0
 20
297.0
  9
$ORTHOMODE
 70
     1
  9
$REGENMODE
 70
     1
  9
$FILLMODE
 70
     1
  9
$QTEXTMODE
 70
     0
  9
$MIRRTEXT
 70
     1
  9
$LTSCALE
 40
0.25
  9
$ATTMODE
 70
     1
  9
$TEXTSIZE
 40
5.0
  9
$TRACEWID
 40
10.0
  9
$TEXTSTYLE
  7
ROMANS
  9
$CLAYER
  8
ANCON-DSD
  9
$CELTYPE
  6
ByLayer
  9
$CECOLOR
 62
   256
  9
$CELTSCALE
 40
1.0
  9
$DISPSILH
 70
     0
  9
$DIMSCALE
 40
2.0
  9
$DIMASZ
 40
2.0
  9
$DIMEXO
 40
4.5
  9
$DIMDLI
 40
0.0
  9
$DIMRND
 40
0.5
  9
$DIMDLE
 40
0.0
  9
$DIMEXE
 40
1.5
  9
$DIMTP
 40
0.0
  9
$DIMTM
 40
0.0
  9
$DIMTXT
 40
1.8
  9
$DIMCEN
 40
0.0
  9
$DIMTSZ
 40
0.0
  9
$DIMTOL
 70
     0
  9
$DIMLIM
 70
     0
  9
$DIMTIH
 70
     0
  9
$DIMTOH
 70
     0
  9
$DIMSE1
 70
     0
  9
$DIMSE2
 70
     0
  9
$DIMTAD
 70
     1
  9
$DIMZIN
 70
    12
  9
$DIMBLK
  1

  9
$DIMASO
 70
     1
  9
$DIMSHO
 70
     0
  9
$DIMPOST
  1

  9
$DIMAPOST
  1

  9
$DIMALT
 70
     0
  9
$DIMALTD
 70
     0
  9
$DIMALTF
 40
25.4
  9
$DIMLFAC
 40
1.0
  9
$DIMTOFL
 70
     0
  9
$DIMTVP
 40
0.0
  9
$DIMTIX
 70
     0
  9
$DIMSOXD
 70
     0
  9
$DIMSAH
 70
     0
  9
$DIMBLK1
  1

  9
$DIMBLK2
  1

  9
$DIMSTYLE
  2
1-2
  9
$DIMCLRD
 70
     0
  9
$DIMCLRE
 70
     0
  9
$DIMCLRT
 70
     0
  9
$DIMTFAC
 40
1.25
  9
$DIMGAP
 40
0.1
  9
$DIMJUST
 70
     0
  9
$DIMSD1
 70
     0
  9
$DIMSD2
 70
     0
  9
$DIMTOLJ
 70
     1
  9
$DIMTZIN
 70
    12
  9
$DIMALTZ
 70
    12
  9
$DIMALTTZ
 70
    12
  9
$DIMUPT
 70
     0
  9
$DIMDEC
 70
     2
  9
$DIMTDEC
 70
     2
  9
$DIMALTU
 70
     2
  9
$DIMALTTD
 70
     0
  9
$DIMTXSTY
  7
STANDARD
  9
$DIMAUNIT
 70
     0
  9
$DIMADEC
 70
     0
  9
$DIMALTRND
 40
0.0
  9
$DIMAZIN
 70
     0
  9
$DIMDSEP
 70
    46
  9
$DIMATFIT
 70
     3
  9
$DIMFRAC
 70
     0
  9
$DIMLDRBLK
  1

  9
$DIMLUNIT
 70
     2
  9
$DIMLWD
 70
    -2
  9
$DIMLWE
 70
    -2
  9
$DIMTMOVE
 70
     2
  9
$LUNITS
 70
     2
  9
$LUPREC
 70
     2
  9
$SKETCHINC
 40
1.0
  9
$FILLETRAD
 40
0.0
  9
$AUNITS
 70
     0
  9
$AUPREC
 70
     4
  9
$MENU
  1
acad
  9
$ELEVATION
 40
0.0
  9
$PELEVATION
 40
0.0
  9
$THICKNESS
 40
0.0
  9
$LIMCHECK
 70
     0
  9
$CHAMFERA
 40
0.0
  9
$CHAMFERB
 40
0.0
  9
$CHAMFERC
 40
0.0
  9
$CHAMFERD
 40
0.0
  9
$SKPOLY
 70
     0
  9
$TDCREATE
 40
2449527.571155092
  9
$TDUCREATE
 40
2449527.529488425
  9
$TDUPDATE
 40
2452498.541106365
  9
$TDUUPDATE
 40
2452498.499439699
  9
$TDINDWG
 40
0.4977648148
  9
$TDUSRTIMER
 40
0.4977648148
  9
$USRTIMER
 70
     1
  9
$ANGBASE
 50
0.0
  9
$ANGDIR
 70
     0
  9
$PDMODE
 70
     0
  9
$PDSIZE
 40
0.0
  9
$PLINEWID
 40
0.0
  9
$SPLFRAME
 70
     0
  9
$SPLINETYPE
 70
     6
  9
$SPLINESEGS
 70
     8
  9
$HANDSEED
  5
1B4
  9
$SURFTAB1
 70
    18
  9
$SURFTAB2
 70
    18
  9
$SURFTYPE
 70
     6
  9
$SURFU
 70
    18
  9
$SURFV
 70
    18
  9
$UCSBASE
  2

  9
$UCSNAME
  2

  9
$UCSORG
 10
0.0
 20
0.0
 30
0.0
  9
$UCSXDIR
 10
1.0
 20
0.0
 30
0.0
  9
$UCSYDIR
 10
0.0
 20
1.0
 30
0.0
  9
$UCSORTHOREF
  2

  9
$UCSORTHOVIEW
 70
     0
  9
$UCSORGTOP
 10
0.0
 20
0.0
 30
0.0
  9
$UCSORGBOTTOM
 10
0.0
 20
0.0
 30
0.0
  9
$UCSORGLEFT
 10
0.0
 20
0.0
 30
0.0
  9
$UCSORGRIGHT
 10
0.0
 20
0.0
 30
0.0
  9
$UCSORGFRONT
 10
0.0
 20
0.0
 30
0.0
  9
$UCSORGBACK
 10
0.0
 20
0.0
 30
0.0
  9
$PUCSBASE
  2

  9
$PUCSNAME
  2

  9
$PUCSORG
 10
0.0
 20
0.0
 30
0.0
  9
$PUCSXDIR
 10
1.0
 20
0.0
 30
0.0
  9
$PUCSYDIR
 10
0.0
 20
1.0
 30
0.0
  9
$PUCSORTHOREF
  2

  9
$PUCSORTHOVIEW
 70
     0
  9
$PUCSORGTOP
 10
0.0
 20
0.0
 30
0.0
  9
$PUCSORGBOTTOM
 10
0.0
 20
0.0
 30
0.0
  9
$PUCSORGLEFT
 10
0.0
 20
0.0
 30
0.0
  9
$PUCSORGRIGHT
 10
0.0
 20
0.0
 30
0.0
  9
$PUCSORGFRONT
 10
0.0
 20
0.0
 30
0.0
  9
$PUCSORGBACK
 10
0.0
 20
0.0
 30
0.0
  9
$USERI1
 70
     0
  9
$USERI2
 70
     0
  9
$USERI3
 70
     0
  9
$USERI4
 70
     0
  9
$USERI5
 70
     0
  9
$USERR1
 40
0.0
  9
$USERR2
 40
0.0
  9
$USERR3
 40
0.0
  9
$USERR4
 40
0.0
  9
$USERR5
 40
0.0
  9
$WORLDVIEW
 70
     1
  9
$SHADEDGE
 70
     3
  9
$SHADEDIF
 70
    70
  9
$TILEMODE
 70
     1
  9
$MAXACTVP
 70
    16
  9
$PINSBASE
 10
0.0
 20
0.0
 30
0.0
  9
$PLIMCHECK
 70
     0
  9
$PEXTMIN
 10
1.614583349603368
 20
1.129749872553066
 30
0.0
  9
$PEXTMAX
 10
14.5312501464303
 20
10.1677488529776
 30
0.0
  9
$PLIMMIN
 10
-0.1979161059762549
 20
-0.1979166691697489
  9
$PLIMMAX
 10
16.34375024029589
 20
11.49541603298637
  9
$UNITMODE
 70
     0
  9
$VISRETAIN
 70
     0
  9
$PLINEGEN
 70
     0
  9
$PSLTSCALE
 70
     1
  9
$TREEDEPTH
 70
  3020
  9
$CMLSTYLE
  2
Standard
  9
$CMLJUST
 70
     0
  9
$CMLSCALE
 40
1.0
  9
$PROXYGRAPHICS
 70
     1
  9
$MEASUREMENT
 70
     0
  9
$CELWEIGHT
370
    -1
  9
$ENDCAPS
280
     0
  9
$JOINSTYLE
280
     0
  9
$LWDISPLAY
290
     0
  9
$INSUNITS
 70
     0
  9
$HYPERLINKBASE
  1

  9
$STYLESHEET
  1

  9
$XEDIT
290
     1
  9
$CEPSNTYPE
380
     0
  9
$PSTYLEMODE
290
     1
  9
$FINGERPRINTGUID
  2
{228E55DC-2544-4FA1-ABDD-EB2A1DC852BB}
  9
$VERSIONGUID
  2
{627E2854-AD1D-11D6-AAC6-0010A4A25215}
  9
$EXTNAMES
290
     1
  9
$PSVPSCALE
 40
0.0
  9
$OLESTARTUP
290
     0
  0
ENDSEC
  0
SECTION
  2
CLASSES
  0
CLASS
  1
ACDBDICTIONARYWDFLT
  2
AcDbDictionaryWithDefault
  3
AutoCAD 2000
 90
        0
280
     1
281
     0
  0
CLASS
  1
ACDBPLACEHOLDER
  2
AcDbPlaceHolder
  3
AutoCAD 2000
 90
        0
280
     1
281
     0
  0
CLASS
  1
LAYOUT
  2
AcDbLayout
  3
AutoCAD 2000
 90
        0
280
     1
281
     0
  0
CLASS
  1
LONG_TRANSACTION
  2
AcDbLongTransaction
  3
AutoCAD 2000
 90
    32768
280
     1
281
     0
  0
CLASS
  1
LWPOLYLINE
  2
AcDbPolyline
  3
AutoCAD 2000
 90
    32768
280
     0
281
     1
  0
CLASS
  1
HATCH
  2
AcDbHatch
  3
AutoCAD 2000
 90
    32768
280
     0
281
     1
  0
CLASS
  1
XRECORD
  2
AcDbXrecord
  3
AutoCAD 2000
 90
    32768
280
     0
281
     0
  0
CLASS
  1
LONG_TRANSACTION
  2
AcDbLongTransaction
  3
AutoCAD 2000
 90
    32768
280
     0
281
     0
  0
CLASS
  1
LWPOLYLINE
  2
AcDbPolyline
  3
AutoCAD 2000
 90
    32768
280
     0
281
     1
  0
CLASS
  1
HATCH
  2
AcDbHatch
  3
AutoCAD 2000
 90
    32768
280
     0
281
     1
  0
CLASS
  1
XRECORD
  2
AcDbXrecord
  3
AutoCAD 2000
 90
    32768
280
     0
281
     0
  0
ENDSEC
  0
SECTION
  2
TABLES
  0
TABLE
  2
VPORT
  5
1C
330
0
100
AcDbSymbolTable
 70
     3
  0
VPORT
  5
1B3
330
1C
100
AcDbSymbolTableRecord
100
AcDbViewportTableRecord
  2
*Active
 70
     0
 10
0.0
 20
0.0
 11
1.0
 21
1.0
 12
131.793443057155
 22
19.89092961685105
 13
0.0
 23
0.0
 14
5.0
 24
5.0
 15
10.0
 25
10.0
 16
0.0
 26
0.0
 36
1.0
 17
0.0
 27
0.0
 37
0.0
 40
767.1885819329068
 41
1.760948905109489
 42
50.0
 43
0.0
 44
0.0
 50
0.0
 51
0.0
 71
     0
 72
   100
 73
     1
 74
     1
 75
     0
 76
     0
 77
     0
 78
     0
281
     0
 65
     1
110
0.0
120
0.0
130
0.0
111
1.0
121
0.0
131
0.0
112
0.0
122
1.0
132
0.0
 79
     0
146
0.0
  0
ENDTAB
  0
TABLE
  2
LTYPE
  5
13
330
0
100
AcDbSymbolTable
 70
     3
  0
LTYPE
  5
14
330
13
100
AcDbSymbolTableRecord
100
AcDbLinetypeTableRecord
  2
ByBlock
 70
     0
  3

 72
    65
 73
     0
 40
0.0
  0
LTYPE
  5
17
330
13
100
AcDbSymbolTableRecord
100
AcDbLinetypeTableRecord
  2
ByLayer
 70
     0
  3

 72
    65
 73
     0
 40
0.0
  0
LTYPE
  5
8
330
13
100
AcDbSymbolTableRecord
100
AcDbLinetypeTableRecord
  2
CONTINUOUS
 70
     0
  3
Solid line
 72
    65
 73
     0
 40
0.0
  0
LTYPE
  5
57
330
13
100
AcDbSymbolTableRecord
100
AcDbLinetypeTableRecord
  2
CENTER2
 70
     0
  3
___ _ ___ _ ___ _ ___ _ ___ _ ___ _ ___ _ ___ _
 72
    65
 73
     4
 40
28.57499999999999
 49
19.05
 74
     0
 49
-3.174999999999999
 74
     0
 49
3.174999999999999
 74
     0
 49
-3.174999999999999
 74
     0
  0
LTYPE
  5
52
330
13
100
AcDbSymbolTableRecord
100
AcDbLinetypeTableRecord
  2
HIDDEN
 70
     0
  3
__ __ __ __ __ __ __ __ __ __ __ __ __ __ __ __
 72
    65
 73
     2
 40
9.524999999999998
 49
6.349999999999999
 74
     0
 49
-3.174999999999999
 74
     0
  0
ENDTAB
  0
TABLE
  2
LAYER
  5
10
330
0
100
AcDbSymbolTable
 70
     9
  0
LAYER
  5
7
330
10
100
AcDbSymbolTableRecord
100
AcDbLayerTableRecord
  2
0
 70
     0
 62
     7
  6
CONTINUOUS
370
    -3
390
172
  0
LAYER
  5
33
330
10
100
AcDbSymbolTableRecord
100
AcDbLayerTableRecord
  2
DIMS
 70
     0
 62
     1
  6
CONTINUOUS
370
    -3
390
172
  0
LAYER
  5
27
330
10
100
AcDbSymbolTableRecord
100
AcDbLayerTableRecord
  2
ANCON-DSD
 70
     0
 62
     3
  6
CONTINUOUS
370
    -3
390
172
  0
LAYER
  5
3C
330
10
100
AcDbSymbolTableRecord
100
AcDbLayerTableRecord
  2
DEFPOINTS
 70
     0
 62
     7
  6
CONTINUOUS
290
     0
370
    -3
390
172
  0
LAYER
  5
92
330
10
100
AcDbSymbolTableRecord
100
AcDbLayerTableRecord
  2
CONCRETE
 70
     0
 62
     2
  6
CONTINUOUS
370
    -3
390
172
  0
LAYER
  5
51
330
10
100
AcDbSymbolTableRecord
100
AcDbLayerTableRecord
  2
20MM-JOINT
 70
     0
 62
     7
  6
CONTINUOUS
370
    -3
390
172
  0
LAYER
  5
6E
330
10
100
AcDbSymbolTableRecord
100
AcDbLayerTableRecord
  2
20MM-DIMS
 70
     0
 62
     1
  6
CONTINUOUS
370
    -3
390
172
  0
LAYER
  5
2F
330
10
100
AcDbSymbolTableRecord
100
AcDbLayerTableRecord
  2
SPECP
 70
     0
 62
     6
  6
CONTINUOUS
370
    -3
390
172
  0
LAYER
  5
31
330
10
100
AcDbSymbolTableRecord
100
AcDbLayerTableRecord
  2
SPECD
 70
     0
 62
     6
  6
CONTINUOUS
370
    -3
390
172
  0
ENDTAB
  0
TABLE
  2
STYLE
  5
11
330
0
100
AcDbSymbolTable
 70
     2
  0
STYLE
  5
12
330
11
100
AcDbSymbolTableRecord
100
AcDbTextStyleTableRecord
  2
STANDARD
 70
     0
 40
0.0
 41
1.0
 50
0.0
 71
     0
 42
6.0
  3
txt.shx
  4

  0
STYLE
  5
28
330
11
100
AcDbSymbolTableRecord
100
AcDbTextStyleTableRecord
  2
ROMANS
 70
     0
 40
0.0
 41
1.0
 50
0.0
 71
     0
 42
5.0
  3
romans
  4

  0
ENDTAB
  0
TABLE
  2
VIEW
  5
1A
330
0
100
AcDbSymbolTable
 70
     0
  0
ENDTAB
  0
TABLE
  2
UCS
  5
1B
330
0
100
AcDbSymbolTable
 70
     0
  0
ENDTAB
  0
TABLE
  2
APPID
  5
1E
330
0
100
AcDbSymbolTable
 70
     1
  0
APPID
  5
1F
330
1E
100
AcDbSymbolTableRecord
100
AcDbRegAppTableRecord
  2
ACAD
 70
     0
  0
ENDTAB
  0
TABLE
  2
DIMSTYLE
  5
20
330
0
100
AcDbSymbolTable
 70
     1
100
AcDbDimStyleTable
 71
     0
  0
DIMSTYLE
105
2A
102
{ACAD_REACTORS
330
124
330
117
330
15E
330
59
330
10A
330
43
330
B4
330
32
330
136
330
6D
330
7B
330
D1
330
9F
330
C4
102
}
330
20
100
AcDbSymbolTableRecord
100
AcDbDimStyleTableRecord
  2
1-2
 70
     0
 40
2.0
 41
2.0
 42
4.5
 43
0.0
 44
1.5
 45
0.5
 73
     0
 74
     0
 77
     1
 78
    12
140
1.8
141
0.0
146
1.25
147
0.1
171
     0
271
     2
272
     2
274
     0
279
     2
284
    12
285
    12
286
    12
340
12
  0
ENDTAB
  0
TABLE
  2
BLOCK_RECORD
  5
1
330
0
100
AcDbSymbolTable
 70
    15
  0
BLOCK_RECORD
  5
2
102
{ACAD_XDICTIONARY
360
3
102
}
330
1
100
AcDbSymbolTableRecord
100
AcDbBlockTableRecord
  2
*Model_Space
340
175
  0
BLOCK_RECORD
  5
A
102
{ACAD_XDICTIONARY
360
B
102
}
330
1
100
AcDbSymbolTableRecord
100
AcDbBlockTableRecord
  2
*Paper_Space
340
176
  0
BLOCK_RECORD
  5
5A
330
1
100
AcDbSymbolTableRecord
100
AcDbBlockTableRecord
  2
*D0
340
0
  0
BLOCK_RECORD
  5
118
330
1
100
AcDbSymbolTableRecord
100
AcDbBlockTableRecord
  2
*D1
340
0
  0
BLOCK_RECORD
  5
125
330
1
100
AcDbSymbolTableRecord
100
AcDbBlockTableRecord
  2
*D2
340
0
  0
BLOCK_RECORD
  5
15F
330
1
100
AcDbSymbolTableRecord
100
AcDbBlockTableRecord
  2
*D3
340
0
  0
BLOCK_RECORD
  5
34
330
1
100
AcDbSymbolTableRecord
100
AcDbBlockTableRecord
  2
*D4
340
0
  0
BLOCK_RECORD
  5
137
330
1
100
AcDbSymbolTableRecord
100
AcDbBlockTableRecord
  2
*D5
340
0
  0
BLOCK_RECORD
  5
B5
330
1
100
AcDbSymbolTableRecord
100
AcDbBlockTableRecord
  2
*D6
340
0
  0
BLOCK_RECORD
  5
D2
330
1
100
AcDbSymbolTableRecord
100
AcDbBlockTableRecord
  2
*D7
340
0
  0
BLOCK_RECORD
  5
A0
330
1
100
AcDbSymbolTableRecord
100
AcDbBlockTableRecord
  2
*D8
340
0
  0
BLOCK_RECORD
  5
C5
330
1
100
AcDbSymbolTableRecord
100
AcDbBlockTableRecord
  2
*D9
340
0
  0
BLOCK_RECORD
  5
44
330
1
100
AcDbSymbolTableRecord
100
AcDbBlockTableRecord
  2
*D10
340
0
  0
BLOCK_RECORD
  5
10B
330
1
100
AcDbSymbolTableRecord
100
AcDbBlockTableRecord
  2
*D11
340
0
  0
BLOCK_RECORD
  5
7C
330
1
100
AcDbSymbolTableRecord
100
AcDbBlockTableRecord
  2
*D12
340
0
  0
BLOCK_RECORD
  5
6F
330
1
100
AcDbSymbolTableRecord
100
AcDbBlockTableRecord
  2
*D13
340
0
  0
BLOCK_RECORD
  5
94
330
1
100
AcDbSymbolTableRecord
100
AcDbBlockTableRecord
  2
A$C6BE937E7
340
0
  0
ENDTAB
  0
ENDSEC
  0
SECTION
  2
BLOCKS
  0
BLOCK
  5
6
330
2
100
AcDbEntity
  8
0
100
AcDbBlockBegin
  2
*Model_Space
 70
     0
 10
0.0
 20
0.0
 30
0.0
  3
*Model_Space
  1

  0
ENDBLK
  5
9
330
2
100
AcDbEntity
  8
0
100
AcDbBlockEnd
  0
BLOCK
  5
E
330
A
100
AcDbEntity
 67
     1
  8
0
100
AcDbBlockBegin
  2
*Paper_Space
 70
     0
 10
0.0
 20
0.0
 30
0.0
  3
*Paper_Space
  1

  0
ENDBLK
  5
F
330
A
100
AcDbEntity
 67
     1
  8
0
100
AcDbBlockEnd
  0
BLOCK
  5
64
330
5A
100
AcDbEntity
  8
0
100
AcDbBlockBegin
  2
*D0
 70
     1
 10
0.0
 20
0.0
 30
0.0
  3
*D0
  1

  0
LINE
  5
5B
330
5A
100
AcDbEntity
  8
0
  6
ByBlock
 62
     0
100
AcDbLine
 10
14.0
 20
140.0
 30
0.0
 11
496.5238522134689
 21
140.0
 31
0.0
  0
LINE
  5
5C
330
5A
100
AcDbEntity
  8
0
  6
ByBlock
 62
     0
100
AcDbLine
 10
14.0
 20
-140.0
 30
0.0
 11
496.5238522134689
 21
-140.0
 31
0.0
  0
LINE
  5
5D
330
5A
100
AcDbEntity
  8
0
  6
ByBlock
 62
     0
100
AcDbLine
 10
493.5238522134689
 20
136.0
 30
0.0
 11
493.5238522134689
 21
-136.0
 31
0.0
  0
SOLID
  5
5E
330
5A
100
AcDbEntity
  8
0
  6
ByBlock
 62
     0
100
AcDbTrace
 10
492.8571855468022
 20
136.0
 30
0.0
 11
494.1905188801356
 21
136.0
 31
0.0
 12
493.5238522134689
 22
140.0
 32
0.0
 13
493.5238522134689
 23
140.0
 33
0.0
  0
SOLID
  5
5F
330
5A
100
AcDbEntity
  8
0
  6
ByBlock
 62
     0
100
AcDbTrace
 10
492.8571855468022
 20
-136.0
 30
0.0
 11
494.1905188801356
 21
-136.0
 31
0.0
 12
493.5238522134689
 22
-140.0
 32
0.0
 13
493.5238522134689
 23
-140.0
 33
0.0
  0
TEXT
  5
60
330
5A
100
AcDbEntity
  8
0
  6
ByBlock
 62
     0
100
AcDbText
 10
491.7238522134688
 20
-5.142857142857155
 30
0.0
 40
3.6
  1
280
 50
90.0
  7
ROMANS
 72
     1
 11
489.9238522134688
 21
-0.0000000000000142
 31
0.0
100
AcDbText
 73
     2
  0
POINT
  5
61
330
5A
100
AcDbEntity
  8
DEFPOINTS
  6
ByBlock
 62
     0
100
AcDbPoint
 10
5.0
 20
140.0
 30
0.0
  0
POINT
  5
62
330
5A
100
AcDbEntity
  8
DEFPOINTS
  6
ByBlock
 62
     0
100
AcDbPoint
 10
5.0
 20
-140.0
 30
0.0
  0
POINT
  5
63
330
5A
100
AcDbEntity
  8
DEFPOINTS
  6
ByBlock
 62
     0
100
AcDbPoint
 10
493.5238522134689
 20
-140.0
 30
0.0
  0
ENDBLK
  5
65
330
5A
100
AcDbEntity
  8
0
100
AcDbBlockEnd
  0
BLOCK
  5
122
330
118
100
AcDbEntity
  8
0
100
AcDbBlockBegin
  2
*D1
 70
     1
 10
0.0
 20
0.0
 30
0.0
  3
*D1
  1

  0
LINE
  5
119
330
118
100
AcDbEntity
  8
0
  6
ByBlock
 62
     0
100
AcDbLine
 10
359.0
 20
-51.50000000000003
 30
0.0
 11
401.1753285103582
 21
-51.50000000000003
 31
0.0
  0
LINE
  5
11A
330
118
100
AcDbEntity
  8
0
  6
ByBlock
 62
     0
100
AcDbLine
 10
359.0
 20
51.5
 30
0.0
 11
401.1753285103582
 21
51.5
 31
0.0
  0
LINE
  5
11B
330
118
100
AcDbEntity
  8
0
  6
ByBlock
 62
     0
100
AcDbLine
 10
398.1753285103582
 20
-47.50000000000002
 30
0.0
 11
398.1753285103582
 21
47.5
 31
0.0
  0
SOLID
  5
11C
330
118
100
AcDbEntity
  8
0
  6
ByBlock
 62
     0
100
AcDbTrace
 10
397.5086618436915
 20
-47.50000000000002
 30
0.0
 11
398.8419951770249
 21
-47.50000000000002
 31
0.0
 12
398.1753285103582
 22
-51.50000000000003
 32
0.0
 13
398.1753285103582
 23
-51.50000000000003
 33
0.0
  0
SOLID
  5
11D
330
118
100
AcDbEntity
  8
0
  6
ByBlock
 62
     0
100
AcDbTrace
 10
397.5086618436915
 20
47.5
 30
0.0
 11
398.8419951770249
 21
47.5
 31
0.0
 12
398.1753285103582
 22
51.5
 32
0.0
 13
398.1753285103582
 23
51.5
 33
0.0
  0
TEXT
  5
11E
330
118
100
AcDbEntity
  8
0
  6
ByBlock
 62
     0
100
AcDbText
 10
396.3753285103582
 20
-5.400000000000013
 30
0.0
 40
3.6
  1
103
 50
90.0
  7
ROMANS
 72
     1
 11
394.5753285103581
 21
-0.0000000000000142
 31
0.0
100
AcDbText
 73
     2
  0
POINT
  5
11F
330
118
100
AcDbEntity
  8
DEFPOINTS
  6
ByBlock
 62
     0
100
AcDbPoint
 10
350.0
 20
-51.50000000000003
 30
0.0
  0
POINT
  5
120
330
118
100
AcDbEntity
  8
DEFPOINTS
  6
ByBlock
 62
     0
100
AcDbPoint
 10
350.0
 20
51.5
 30
0.0
  0
POINT
  5
121
330
118
100
AcDbEntity
  8
DEFPOINTS
  6
ByBlock
 62
     0
100
AcDbPoint
 10
398.1753285103582
 20
51.5
 30
0.0
  0
ENDBLK
  5
123
330
118
100
AcDbEntity
  8
0
100
AcDbBlockEnd
  0
BLOCK
  5
12F
330
125
100
AcDbEntity
  8
0
100
AcDbBlockBegin
  2
*D2
 70
     1
 10
0.0
 20
0.0
 30
0.0
  3
*D2
  1

  0
LINE
  5
126
330
125
100
AcDbEntity
  8
0
  6
ByBlock
 62
     0
100
AcDbLine
 10
374.0
 20
-79.99999999999997
 30
0.0
 11
445.4956103424337
 21
-79.99999999999997
 31
0.0
  0
LINE
  5
127
330
125
100
AcDbEntity
  8
0
  6
ByBlock
 62
     0
100
AcDbLine
 10
374.0
 20
79.99999999999994
 30
0.0
 11
445.4956103424337
 21
79.99999999999994
 31
0.0
  0
LINE
  5
128
330
125
100
AcDbEntity
  8
0
  6
ByBlock
 62
     0
100
AcDbLine
 10
442.4956103424338
 20
-75.99999999999997
 30
0.0
 11
442.4956103424338
 21
75.99999999999994
 31
0.0
  0
SOLID
  5
129
330
125
100
AcDbEntity
  8
0
  6
ByBlock
 62
     0
100
AcDbTrace
 10
441.8289436757671
 20
-75.99999999999997
 30
0.0
 11
443.1622770091005
 21
-75.99999999999997
 31
0.0
 12
442.4956103424338
 22
-79.99999999999997
 32
0.0
 13
442.4956103424338
 23
-79.99999999999997
 33
0.0
  0
SOLID
  5
12A
330
125
100
AcDbEntity
  8
0
  6
ByBlock
 62
     0
100
AcDbTrace
 10
441.8289436757671
 20
75.99999999999994
 30
0.0
 11
443.1622770091005
 21
75.99999999999994
 31
0.0
 12
442.4956103424338
 22
79.99999999999994
 32
0.0
 13
442.4956103424338
 23
79.99999999999994
 33
0.0
  0
TEXT
  5
12B
330
125
100
AcDbEntity
  8
0
  6
ByBlock
 62
     0
100
AcDbText
 10
440.6956103424337
 20
-5.400000000000013
 30
0.0
 40
3.6
  1
160
 50
90.0
  7
ROMANS
 72
     1
 11
438.8956103424337
 21
-0.0000000000000142
 31
0.0
100
AcDbText
 73
     2
  0
POINT
  5
12C
330
125
100
AcDbEntity
  8
DEFPOINTS
  6
ByBlock
 62
     0
100
AcDbPoint
 10
365.0
 20
-79.99999999999997
 30
0.0
  0
POINT
  5
12D
330
125
100
AcDbEntity
  8
DEFPOINTS
  6
ByBlock
 62
     0
100
AcDbPoint
 10
365.0
 20
79.99999999999994
 30
0.0
  0
POINT
  5
12E
330
125
100
AcDbEntity
  8
DEFPOINTS
  6
ByBlock
 62
     0
100
AcDbPoint
 10
442.4956103424338
 20
79.99999999999994
 30
0.0
  0
ENDBLK
  5
130
330
125
100
AcDbEntity
  8
0
100
AcDbBlockEnd
  0
BLOCK
  5
169
330
15F
100
AcDbEntity
  8
0
100
AcDbBlockBegin
  2
*D3
 70
     1
 10
0.0
 20
0.0
 30
0.0
  3
*D3
  1

  0
LINE
  5
160
330
15F
100
AcDbEntity
  8
0
  6
ByBlock
 62
     0
100
AcDbLine
 10
359.0
 20
51.5
 30
0.0
 11
401.1753285103582
 21
51.5
 31
0.0
  0
LINE
  5
161
330
15F
100
AcDbEntity
  8
0
  6
ByBlock
 62
     0
100
AcDbLine
 10
374.0
 20
79.99999999999994
 30
0.0
 11
401.1753285103582
 21
79.99999999999994
 31
0.0
  0
LINE
  5
162
330
15F
100
AcDbEntity
  8
0
  6
ByBlock
 62
     0
100
AcDbLine
 10
398.1753285103582
 20
55.5
 30
0.0
 11
398.1753285103582
 21
75.99999999999994
 31
0.0
  0
SOLID
  5
163
330
15F
100
AcDbEntity
  8
0
  6
ByBlock
 62
     0
100
AcDbTrace
 10
397.5086618436915
 20
55.5
 30
0.0
 11
398.8419951770249
 21
55.5
 31
0.0
 12
398.1753285103582
 22
51.5
 32
0.0
 13
398.1753285103582
 23
51.5
 33
0.0
  0
SOLID
  5
164
330
15F
100
AcDbEntity
  8
0
  6
ByBlock
 62
     0
100
AcDbTrace
 10
397.5086618436915
 20
75.99999999999994
 30
0.0
 11
398.8419951770249
 21
75.99999999999994
 31
0.0
 12
398.1753285103582
 22
79.99999999999994
 32
0.0
 13
398.1753285103582
 23
79.99999999999994
 33
0.0
  0
TEXT
  5
165
330
15F
100
AcDbEntity
  8
0
  6
ByBlock
 62
     0
100
AcDbText
 10
396.3753285103582
 20
59.74999999999997
 30
0.0
 40
3.6
  1
28.5
 50
90.0
  7
ROMANS
 72
     1
 11
394.5753285103581
 21
65.74999999999997
 31
0.0
100
AcDbText
 73
     2
  0
POINT
  5
166
330
15F
100
AcDbEntity
  8
DEFPOINTS
  6
ByBlock
 62
     0
100
AcDbPoint
 10
350.0
 20
51.5
 30
0.0
  0
POINT
  5
167
330
15F
100
AcDbEntity
  8
DEFPOINTS
  6
ByBlock
 62
     0
100
AcDbPoint
 10
365.0
 20
79.99999999999994
 30
0.0
  0
POINT
  5
168
330
15F
100
AcDbEntity
  8
DEFPOINTS
  6
ByBlock
 62
     0
100
AcDbPoint
 10
398.1753285103582
 20
79.99999999999994
 30
0.0
  0
ENDBLK
  5
16A
330
15F
100
AcDbEntity
  8
0
100
AcDbBlockEnd
  0
BLOCK
  5
41
330
34
100
AcDbEntity
  8
0
100
AcDbBlockBegin
  2
*D4
 70
     1
 10
0.0
 20
0.0
 30
0.0
  3
*D4
  1

  0
LINE
  5
35
330
34
100
AcDbEntity
  8
0
  6
ByBlock
 62
     0
100
AcDbLine
 10
0.0000000000000393
 20
-149.0
 30
0.0
 11
0.0000000000000393
 21
-205.6604560269773
 31
0.0
  0
LINE
  5
36
330
34
100
AcDbEntity
  8
0
  6
ByBlock
 62
     0
100
AcDbLine
 10
350.0
 20
-117.5
 30
0.0
 11
350.0
 21
-205.6604560269773
 31
0.0
  0
LINE
  5
37
330
34
100
AcDbEntity
  8
0
  6
ByBlock
 62
     0
100
AcDbLine
 10
4.000000000000039
 20
-202.6604560269773
 30
0.0
 11
346.0
 21
-202.6604560269773
 31
0.0
  0
SOLID
  5
38
330
34
100
AcDbEntity
  8
0
  6
ByBlock
 62
     0
100
AcDbTrace
 10
4.000000000000039
 20
-201.9937893603107
 30
0.0
 11
4.000000000000039
 21
-203.327122693644
 31
0.0
 12
0.0000000000000393
 22
-202.6604560269773
 32
0.0
 13
0.0000000000000393
 23
-202.6604560269773
 33
0.0
  0
SOLID
  5
39
330
34
100
AcDbEntity
  8
0
  6
ByBlock
 62
     0
100
AcDbTrace
 10
346.0
 20
-201.9937893603107
 30
0.0
 11
346.0
 21
-203.327122693644
 31
0.0
 12
350.0
 22
-202.6604560269773
 32
0.0
 13
350.0
 23
-202.6604560269773
 33
0.0
  0
TEXT
  5
3A
330
34
100
AcDbEntity
  8
0
  6
ByBlock
 62
     0
100
AcDbText
 10
169.8571428571428
 20
-200.8604560269773
 30
0.0
 40
3.6
  1
350
  7
ROMANS
 72
     1
 11
175.0
 21
-199.0604560269773
 31
0.0
100
AcDbText
 73
     2
  0
POINT
  5
3B
330
34
100
AcDbEntity
  8
DEFPOINTS
  6
ByBlock
 62
     0
100
AcDbPoint
 10
0.0000000000000393
 20
-140.0
 30
0.0
  0
POINT
  5
3F
330
34
100
AcDbEntity
  8
DEFPOINTS
  6
ByBlock
 62
     0
100
AcDbPoint
 10
350.0
 20
-108.5
 30
0.0
  0
POINT
  5
40
330
34
100
AcDbEntity
  8
DEFPOINTS
  6
ByBlock
 62
     0
100
AcDbPoint
 10
350.0
 20
-202.6604560269773
 30
0.0
  0
ENDBLK
  5
42
330
34
100
AcDbEntity
  8
0
100
AcDbBlockEnd
  0
BLOCK
  5
141
330
137
100
AcDbEntity
  8
0
100
AcDbBlockBegin
  2
*D5
 70
     1
 10
0.0
 20
0.0
 30
0.0
  3
*D5
  1

  0
LINE
  5
138
330
137
100
AcDbEntity
  8
0
  6
ByBlock
 62
     0
100
AcDbLine
 10
359.0
 20
-51.50000000000003
 30
0.0
 11
401.1753285103582
 21
-51.50000000000003
 31
0.0
  0
LINE
  5
139
330
137
100
AcDbEntity
  8
0
  6
ByBlock
 62
     0
100
AcDbLine
 10
374.0
 20
-79.99999999999997
 30
0.0
 11
401.1753285103582
 21
-79.99999999999997
 31
0.0
  0
LINE
  5
13A
330
137
100
AcDbEntity
  8
0
  6
ByBlock
 62
     0
100
AcDbLine
 10
398.1753285103582
 20
-55.50000000000003
 30
0.0
 11
398.1753285103582
 21
-75.99999999999997
 31
0.0
  0
SOLID
  5
13B
330
137
100
AcDbEntity
  8
0
  6
ByBlock
 62
     0
100
AcDbTrace
 10
397.5086618436915
 20
-55.50000000000003
 30
0.0
 11
398.8419951770249
 21
-55.50000000000003
 31
0.0
 12
398.1753285103582
 22
-51.50000000000003
 32
0.0
 13
398.1753285103582
 23
-51.50000000000003
 33
0.0
  0
SOLID
  5
13C
330
137
100
AcDbEntity
  8
0
  6
ByBlock
 62
     0
100
AcDbTrace
 10
397.5086618436915
 20
-75.99999999999997
 30
0.0
 11
398.8419951770249
 21
-75.99999999999997
 31
0.0
 12
398.1753285103582
 22
-79.99999999999997
 32
0.0
 13
398.1753285103582
 23
-79.99999999999997
 33
0.0
  0
TEXT
  5
13D
330
137
100
AcDbEntity
  8
0
  6
ByBlock
 62
     0
100
AcDbText
 10
396.3753285103582
 20
-71.75
 30
0.0
 40
3.6
  1
28.5
 50
90.0
  7
ROMANS
 72
     1
 11
394.5753285103581
 21
-65.75
 31
0.0
100
AcDbText
 73
     2
  0
POINT
  5
13E
330
137
100
AcDbEntity
  8
DEFPOINTS
  6
ByBlock
 62
     0
100
AcDbPoint
 10
350.0
 20
-51.50000000000003
 30
0.0
  0
POINT
  5
13F
330
137
100
AcDbEntity
  8
DEFPOINTS
  6
ByBlock
 62
     0
100
AcDbPoint
 10
365.0
 20
-79.99999999999997
 30
0.0
  0
POINT
  5
140
330
137
100
AcDbEntity
  8
DEFPOINTS
  6
ByBlock
 62
     0
100
AcDbPoint
 10
398.1753285103582
 20
-79.99999999999997
 30
0.0
  0
ENDBLK
  5
142
330
137
100
AcDbEntity
  8
0
100
AcDbBlockEnd
  0
BLOCK
  5
C0
330
B5
100
AcDbEntity
  8
0
100
AcDbBlockBegin
  2
*D6
 70
     1
 10
0.0
 20
0.0
 30
0.0
  3
*D6
  1

  0
LINE
  5
B6
330
B5
100
AcDbEntity
  8
0
  6
ByBlock
 62
     0
100
AcDbLine
 10
5.0
 20
-149.0
 30
0.0
 11
5.0
 21
-184.2303864691846
 31
0.0
  0
LINE
  5
B7
330
B5
100
AcDbEntity
  8
0
  6
ByBlock
 62
     0
100
AcDbLine
 10
0.0000000000000393
 20
-149.0
 30
0.0
 11
0.0000000000000393
 21
-184.2303864691846
 31
0.0
  0
LINE
  5
B8
330
B5
100
AcDbEntity
  8
0
  6
ByBlock
 62
     0
100
AcDbLine
 10
9.0
 20
-181.2303864691846
 30
0.0
 11
13.0
 21
-181.2303864691846
 31
0.0
  0
LINE
  5
B9
330
B5
100
AcDbEntity
  8
0
  6
ByBlock
 62
     0
100
AcDbLine
 10
-3.99999999999996
 20
-181.2303864691846
 30
0.0
 11
-7.99999999999996
 21
-181.2303864691846
 31
0.0
  0
SOLID
  5
BA
330
B5
100
AcDbEntity
  8
0
  6
ByBlock
 62
     0
100
AcDbTrace
 10
9.0
 20
-180.563719802518
 30
0.0
 11
9.0
 21
-181.8970531358513
 31
0.0
 12
5.0
 22
-181.2303864691846
 32
0.0
 13
5.0
 23
-181.2303864691846
 33
0.0
  0
SOLID
  5
BB
330
B5
100
AcDbEntity
  8
0
  6
ByBlock
 62
     0
100
AcDbTrace
 10
-3.99999999999996
 20
-180.563719802518
 30
0.0
 11
-3.99999999999996
 21
-181.8970531358513
 31
0.0
 12
0.0000000000000393
 22
-181.2303864691846
 32
0.0
 13
0.0000000000000393
 23
-181.2303864691846
 33
0.0
  0
TEXT
  5
BC
330
B5
100
AcDbEntity
  8
0
  6
ByBlock
 62
     0
100
AcDbText
 10
-7.583820517674525
 20
-179.4303864691846
 30
0.0
 40
3.6
  1
5
  7
ROMANS
 72
     1
 11
-5.869534803388812
 21
-177.6303864691846
 31
0.0
100
AcDbText
 73
     2
  0
POINT
  5
BD
330
B5
100
AcDbEntity
  8
DEFPOINTS
  6
ByBlock
 62
     0
100
AcDbPoint
 10
5.0
 20
-140.0
 30
0.0
  0
POINT
  5
BE
330
B5
100
AcDbEntity
  8
DEFPOINTS
  6
ByBlock
 62
     0
100
AcDbPoint
 10
0.0000000000000393
 20
-140.0
 30
0.0
  0
POINT
  5
BF
330
B5
100
AcDbEntity
  8
DEFPOINTS
  6
ByBlock
 62
     0
100
AcDbPoint
 10
0.0000000000000393
 20
-181.2303864691846
 30
0.0
  0
ENDBLK
  5
C1
330
B5
100
AcDbEntity
  8
0
100
AcDbBlockEnd
  0
BLOCK
  5
DC
330
D2
100
AcDbEntity
  8
0
100
AcDbBlockBegin
  2
*D7
 70
     1
 10
0.0
 20
0.0
 30
0.0
  3
*D7
  1

  0
LINE
  5
D3
330
D2
100
AcDbEntity
  8
0
  6
ByBlock
 62
     0
100
AcDbLine
 10
-30.0
 20
-134.0000000000001
 30
0.0
 11
-30.0
 21
-184.2303864691846
 31
0.0
  0
LINE
  5
D4
330
D2
100
AcDbEntity
  8
0
  6
ByBlock
 62
     0
100
AcDbLine
 10
-19.99999999999996
 20
-134.0000000000001
 30
0.0
 11
-19.99999999999996
 21
-184.2303864691846
 31
0.0
  0
LINE
  5
D5
330
D2
100
AcDbEntity
  8
0
  6
ByBlock
 62
     0
100
AcDbLine
 10
-26.0
 20
-181.2303864691846
 30
0.0
 11
-23.99999999999996
 21
-181.2303864691846
 31
0.0
  0
SOLID
  5
D6
330
D2
100
AcDbEntity
  8
0
  6
ByBlock
 62
     0
100
AcDbTrace
 10
-26.0
 20
-180.563719802518
 30
0.0
 11
-26.0
 21
-181.8970531358513
 31
0.0
 12
-30.0
 22
-181.2303864691846
 32
0.0
 13
-30.0
 23
-181.2303864691846
 33
0.0
  0
SOLID
  5
D7
330
D2
100
AcDbEntity
  8
0
  6
ByBlock
 62
     0
100
AcDbTrace
 10
-23.99999999999996
 20
-180.563719802518
 30
0.0
 11
-23.99999999999996
 21
-181.8970531358513
 31
0.0
 12
-19.99999999999996
 22
-181.2303864691846
 32
0.0
 13
-19.99999999999996
 23
-181.2303864691846
 33
0.0
  0
TEXT
  5
D8
330
D2
100
AcDbEntity
  8
0
  6
ByBlock
 62
     0
100
AcDbText
 10
-28.76737501343793
 20
-179.4303864691846
 30
0.0
 40
3.6
  1
10
  7
ROMANS
 72
     1
 11
-25.08166072772364
 21
-177.6303864691846
 31
0.0
100
AcDbText
 73
     2
  0
POINT
  5
D9
330
D2
100
AcDbEntity
  8
DEFPOINTS
  6
ByBlock
 62
     0
100
AcDbPoint
 10
-30.0
 20
-125.0000000000001
 30
0.0
  0
POINT
  5
DA
330
D2
100
AcDbEntity
  8
DEFPOINTS
  6
ByBlock
 62
     0
100
AcDbPoint
 10
-19.99999999999996
 20
-125.0000000000001
 30
0.0
  0
POINT
  5
DB
330
D2
100
AcDbEntity
  8
DEFPOINTS
  6
ByBlock
 62
     0
100
AcDbPoint
 10
-19.99999999999996
 20
-181.2303864691846
 30
0.0
  0
ENDBLK
  5
DD
330
D2
100
AcDbEntity
  8
0
100
AcDbBlockEnd
  0
BLOCK
  5
AA
330
A0
100
AcDbEntity
  8
0
100
AcDbBlockBegin
  2
*D8
 70
     1
 10
0.0
 20
0.0
 30
0.0
  3
*D8
  1

  0
LINE
  5
A1
330
A0
100
AcDbEntity
  8
0
  6
ByBlock
 62
     0
100
AcDbLine
 10
-350.0
 20
-113.0000000000001
 30
0.0
 11
-350.0
 21
-205.6604560269773
 31
0.0
  0
LINE
  5
A2
330
A0
100
AcDbEntity
  8
0
  6
ByBlock
 62
     0
100
AcDbLine
 10
-20.0
 20
-134.0000000000001
 30
0.0
 11
-20.0
 21
-205.6604560269773
 31
0.0
  0
LINE
  5
A3
330
A0
100
AcDbEntity
  8
0
  6
ByBlock
 62
     0
100
AcDbLine
 10
-346.0
 20
-202.6604560269773
 30
0.0
 11
-24.0
 21
-202.6604560269773
 31
0.0
  0
SOLID
  5
A4
330
A0
100
AcDbEntity
  8
0
  6
ByBlock
 62
     0
100
AcDbTrace
 10
-346.0
 20
-201.9937893603107
 30
0.0
 11
-346.0
 21
-203.327122693644
 31
0.0
 12
-350.0
 22
-202.6604560269773
 32
0.0
 13
-350.0
 23
-202.6604560269773
 33
0.0
  0
SOLID
  5
A5
330
A0
100
AcDbEntity
  8
0
  6
ByBlock
 62
     0
100
AcDbTrace
 10
-24.0
 20
-201.9937893603107
 30
0.0
 11
-24.0
 21
-203.327122693644
 31
0.0
 12
-20.0
 22
-202.6604560269773
 32
0.0
 13
-20.0
 23
-202.6604560269773
 33
0.0
  0
TEXT
  5
A6
330
A0
100
AcDbEntity
  8
0
  6
ByBlock
 62
     0
100
AcDbText
 10
-190.1428571428571
 20
-200.8604560269773
 30
0.0
 40
3.6
  1
330
  7
ROMANS
 72
     1
 11
-185.0
 21
-199.0604560269773
 31
0.0
100
AcDbText
 73
     2
  0
POINT
  5
A7
330
A0
100
AcDbEntity
  8
DEFPOINTS
  6
ByBlock
 62
     0
100
AcDbPoint
 10
-350.0
 20
-104.0000000000001
 30
0.0
  0
POINT
  5
A8
330
A0
100
AcDbEntity
  8
DEFPOINTS
  6
ByBlock
 62
     0
100
AcDbPoint
 10
-20.0
 20
-125.0000000000001
 30
0.0
  0
POINT
  5
A9
330
A0
100
AcDbEntity
  8
DEFPOINTS
  6
ByBlock
 62
     0
100
AcDbPoint
 10
-20.0
 20
-202.6604560269773
 30
0.0
  0
ENDBLK
  5
AB
330
A0
100
AcDbEntity
  8
0
100
AcDbBlockEnd
  0
BLOCK
  5
CF
330
C5
100
AcDbEntity
  8
0
100
AcDbBlockBegin
  2
*D9
 70
     1
 10
0.0
 20
0.0
 30
0.0
  3
*D9
  1

  0
LINE
  5
C6
330
C5
100
AcDbEntity
  8
0
  6
ByBlock
 62
     0
100
AcDbLine
 10
-20.0
 20
-134.0000000000001
 30
0.0
 11
-20.0
 21
-205.6604560269773
 31
0.0
  0
LINE
  5
C7
330
C5
100
AcDbEntity
  8
0
  6
ByBlock
 62
     0
100
AcDbLine
 10
0.0
 20
-149.0
 30
0.0
 11
0.0
 21
-205.6604560269773
 31
0.0
  0
LINE
  5
C8
330
C5
100
AcDbEntity
  8
0
  6
ByBlock
 62
     0
100
AcDbLine
 10
-16.0
 20
-202.6604560269773
 30
0.0
 11
-4.0
 21
-202.6604560269773
 31
0.0
  0
SOLID
  5
C9
330
C5
100
AcDbEntity
  8
0
  6
ByBlock
 62
     0
100
AcDbTrace
 10
-16.0
 20
-201.9937893603107
 30
0.0
 11
-16.0
 21
-203.327122693644
 31
0.0
 12
-20.0
 22
-202.6604560269773
 32
0.0
 13
-20.0
 23
-202.6604560269773
 33
0.0
  0
SOLID
  5
CA
330
C5
100
AcDbEntity
  8
0
  6
ByBlock
 62
     0
100
AcDbTrace
 10
-4.0
 20
-201.9937893603107
 30
0.0
 11
-4.0
 21
-203.327122693644
 31
0.0
 12
0.0
 22
-202.6604560269773
 32
0.0
 13
0.0
 23
-202.6604560269773
 33
0.0
  0
TEXT
  5
CB
330
C5
100
AcDbEntity
  8
0
  6
ByBlock
 62
     0
100
AcDbText
 10
-13.42857142857142
 20
-200.8604560269773
 30
0.0
 40
3.6
  1
20
  7
ROMANS
 72
     1
 11
-10.0
 21
-199.0604560269773
 31
0.0
100
AcDbText
 73
     2
  0
POINT
  5
CC
330
C5
100
AcDbEntity
  8
DEFPOINTS
  6
ByBlock
 62
     0
100
AcDbPoint
 10
-20.0
 20
-125.0000000000001
 30
0.0
  0
POINT
  5
CD
330
C5
100
AcDbEntity
  8
DEFPOINTS
  6
ByBlock
 62
     0
100
AcDbPoint
 10
0.0
 20
-140.0
 30
0.0
  0
POINT
  5
CE
330
C5
100
AcDbEntity
  8
DEFPOINTS
  6
ByBlock
 62
     0
100
AcDbPoint
 10
0.0
 20
-202.6604560269773
 30
0.0
  0
ENDBLK
  5
D0
330
C5
100
AcDbEntity
  8
0
100
AcDbBlockEnd
  0
BLOCK
  5
4E
330
44
100
AcDbEntity
  8
0
100
AcDbBlockBegin
  2
*D10
 70
     1
 10
0.0
 20
0.0
 30
0.0
  3
*D10
  1

  0
LINE
  5
45
330
44
100
AcDbEntity
  8
0
  6
ByBlock
 62
     0
100
AcDbLine
 10
5.0
 20
-149.0
 30
0.0
 11
5.0
 21
-184.2303864691846
 31
0.0
  0
LINE
  5
46
330
44
100
AcDbEntity
  8
0
  6
ByBlock
 62
     0
100
AcDbLine
 10
70.0
 20
-22.00000000000002
 30
0.0
 11
70.0
 21
-184.2303864691846
 31
0.0
  0
LINE
  5
47
330
44
100
AcDbEntity
  8
0
  6
ByBlock
 62
     0
100
AcDbLine
 10
9.0
 20
-181.2303864691846
 30
0.0
 11
66.0
 21
-181.2303864691846
 31
0.0
  0
SOLID
  5
48
330
44
100
AcDbEntity
  8
0
  6
ByBlock
 62
     0
100
AcDbTrace
 10
9.0
 20
-180.563719802518
 30
0.0
 11
9.0
 21
-181.8970531358513
 31
0.0
 12
5.0
 22
-181.2303864691846
 32
0.0
 13
5.0
 23
-181.2303864691846
 33
0.0
  0
SOLID
  5
49
330
44
100
AcDbEntity
  8
0
  6
ByBlock
 62
     0
100
AcDbTrace
 10
66.0
 20
-180.563719802518
 30
0.0
 11
66.0
 21
-181.8970531358513
 31
0.0
 12
70.0
 22
-181.2303864691846
 32
0.0
 13
70.0
 23
-181.2303864691846
 33
0.0
  0
TEXT
  5
4A
330
44
100
AcDbEntity
  8
0
  6
ByBlock
 62
     0
100
AcDbText
 10
33.98571428571429
 20
-179.4303864691846
 30
0.0
 40
3.6
  1
65
  7
ROMANS
 72
     1
 11
37.5
 21
-177.6303864691846
 31
0.0
100
AcDbText
 73
     2
  0
POINT
  5
4B
330
44
100
AcDbEntity
  8
DEFPOINTS
  6
ByBlock
 62
     0
100
AcDbPoint
 10
5.0
 20
-140.0
 30
0.0
  0
POINT
  5
4C
330
44
100
AcDbEntity
  8
DEFPOINTS
  6
ByBlock
 62
     0
100
AcDbPoint
 10
70.0
 20
-13.00000000000002
 30
0.0
  0
POINT
  5
4D
330
44
100
AcDbEntity
  8
DEFPOINTS
  6
ByBlock
 62
     0
100
AcDbPoint
 10
70.0
 20
-181.2303864691846
 30
0.0
  0
ENDBLK
  5
4F
330
44
100
AcDbEntity
  8
0
100
AcDbBlockEnd
  0
BLOCK
  5
115
330
10B
100
AcDbEntity
  8
0
100
AcDbBlockBegin
  2
*D11
 70
     1
 10
0.0
 20
0.0
 30
0.0
  3
*D11
  1

  0
LINE
  5
10C
330
10B
100
AcDbEntity
  8
0
  6
ByBlock
 62
     0
100
AcDbLine
 10
70.0
 20
-22.00000000000002
 30
0.0
 11
70.0
 21
-184.2303864691846
 31
0.0
  0
LINE
  5
10D
330
10B
100
AcDbEntity
  8
0
  6
ByBlock
 62
     0
100
AcDbLine
 10
155.0
 20
-22.00000000000002
 30
0.0
 11
155.0
 21
-184.2303864691846
 31
0.0
  0
LINE
  5
10E
330
10B
100
AcDbEntity
  8
0
  6
ByBlock
 62
     0
100
AcDbLine
 10
74.0
 20
-181.2303864691846
 30
0.0
 11
151.0
 21
-181.2303864691846
 31
0.0
  0
SOLID
  5
10F
330
10B
100
AcDbEntity
  8
0
  6
ByBlock
 62
     0
100
AcDbTrace
 10
74.0
 20
-180.563719802518
 30
0.0
 11
74.0
 21
-181.8970531358513
 31
0.0
 12
70.0
 22
-181.2303864691846
 32
0.0
 13
70.0
 23
-181.2303864691846
 33
0.0
  0
SOLID
  5
110
330
10B
100
AcDbEntity
  8
0
  6
ByBlock
 62
     0
100
AcDbTrace
 10
151.0
 20
-180.563719802518
 30
0.0
 11
151.0
 21
-181.8970531358513
 31
0.0
 12
155.0
 22
-181.2303864691846
 32
0.0
 13
155.0
 23
-181.2303864691846
 33
0.0
  0
TEXT
  5
111
330
10B
100
AcDbEntity
  8
0
  6
ByBlock
 62
     0
100
AcDbText
 10
109.0714285714285
 20
-179.4303864691846
 30
0.0
 40
3.6
  1
85
  7
ROMANS
 72
     1
 11
112.5
 21
-177.6303864691846
 31
0.0
100
AcDbText
 73
     2
  0
POINT
  5
112
330
10B
100
AcDbEntity
  8
DEFPOINTS
  6
ByBlock
 62
     0
100
AcDbPoint
 10
70.0
 20
-13.00000000000002
 30
0.0
  0
POINT
  5
113
330
10B
100
AcDbEntity
  8
DEFPOINTS
  6
ByBlock
 62
     0
100
AcDbPoint
 10
155.0
 20
-13.00000000000002
 30
0.0
  0
POINT
  5
114
330
10B
100
AcDbEntity
  8
DEFPOINTS
  6
ByBlock
 62
     0
100
AcDbPoint
 10
155.0
 20
-181.2303864691846
 30
0.0
  0
ENDBLK
  5
116
330
10B
100
AcDbEntity
  8
0
100
AcDbBlockEnd
  0
BLOCK
  5
86
330
7C
100
AcDbEntity
  8
0
100
AcDbBlockBegin
  2
*D12
 70
     1
 10
0.0
 20
0.0
 30
0.0
  3
*D12
  1

  0
LINE
  5
7D
330
7C
100
AcDbEntity
  8
0
  6
ByBlock
 62
     0
100
AcDbLine
 10
-90.0
 20
-22.00000000000018
 30
0.0
 11
-90.0
 21
-184.2303864691846
 31
0.0
  0
LINE
  5
7E
330
7C
100
AcDbEntity
  8
0
  6
ByBlock
 62
     0
100
AcDbLine
 10
-30.0
 20
-134.0000000000001
 30
0.0
 11
-30.0
 21
-184.2303864691846
 31
0.0
  0
LINE
  5
7F
330
7C
100
AcDbEntity
  8
0
  6
ByBlock
 62
     0
100
AcDbLine
 10
-86.0
 20
-181.2303864691846
 30
0.0
 11
-34.0
 21
-181.2303864691846
 31
0.0
  0
SOLID
  5
80
330
7C
100
AcDbEntity
  8
0
  6
ByBlock
 62
     0
100
AcDbTrace
 10
-86.0
 20
-180.563719802518
 30
0.0
 11
-86.0
 21
-181.8970531358513
 31
0.0
 12
-90.0
 22
-181.2303864691846
 32
0.0
 13
-90.0
 23
-181.2303864691846
 33
0.0
  0
SOLID
  5
81
330
7C
100
AcDbEntity
  8
0
  6
ByBlock
 62
     0
100
AcDbTrace
 10
-34.0
 20
-180.563719802518
 30
0.0
 11
-34.0
 21
-181.8970531358513
 31
0.0
 12
-30.0
 22
-181.2303864691846
 32
0.0
 13
-30.0
 23
-181.2303864691846
 33
0.0
  0
TEXT
  5
82
330
7C
100
AcDbEntity
  8
0
  6
ByBlock
 62
     0
100
AcDbText
 10
-63.51428571428571
 20
-179.4303864691846
 30
0.0
 40
3.6
  1
60
  7
ROMANS
 72
     1
 11
-60.0
 21
-177.6303864691846
 31
0.0
100
AcDbText
 73
     2
  0
POINT
  5
83
330
7C
100
AcDbEntity
  8
DEFPOINTS
  6
ByBlock
 62
     0
100
AcDbPoint
 10
-90.0
 20
-13.00000000000018
 30
0.0
  0
POINT
  5
84
330
7C
100
AcDbEntity
  8
DEFPOINTS
  6
ByBlock
 62
     0
100
AcDbPoint
 10
-30.0
 20
-125.0000000000001
 30
0.0
  0
POINT
  5
85
330
7C
100
AcDbEntity
  8
DEFPOINTS
  6
ByBlock
 62
     0
100
AcDbPoint
 10
-30.0
 20
-181.2303864691846
 30
0.0
  0
ENDBLK
  5
87
330
7C
100
AcDbEntity
  8
0
100
AcDbBlockEnd
  0
BLOCK
  5
79
330
6F
100
AcDbEntity
  8
0
100
AcDbBlockBegin
  2
*D13
 70
     1
 10
0.0
 20
0.0
 30
0.0
  3
*D13
  1

  0
LINE
  5
70
330
6F
100
AcDbEntity
  8
0
  6
ByBlock
 62
     0
100
AcDbLine
 10
-179.9999999999999
 20
-22.00000000000018
 30
0.0
 11
-179.9999999999999
 21
-184.2303864691846
 31
0.0
  0
LINE
  5
71
330
6F
100
AcDbEntity
  8
0
  6
ByBlock
 62
     0
100
AcDbLine
 10
-90.0
 20
-22.00000000000018
 30
0.0
 11
-90.0
 21
-184.2303864691846
 31
0.0
  0
LINE
  5
72
330
6F
100
AcDbEntity
  8
0
  6
ByBlock
 62
     0
100
AcDbLine
 10
-175.9999999999999
 20
-181.2303864691846
 30
0.0
 11
-94.0
 21
-181.2303864691846
 31
0.0
  0
SOLID
  5
73
330
6F
100
AcDbEntity
  8
0
  6
ByBlock
 62
     0
100
AcDbTrace
 10
-175.9999999999999
 20
-180.563719802518
 30
0.0
 11
-175.9999999999999
 21
-181.8970531358513
 31
0.0
 12
-179.9999999999999
 22
-181.2303864691846
 32
0.0
 13
-179.9999999999999
 23
-181.2303864691846
 33
0.0
  0
SOLID
  5
74
330
6F
100
AcDbEntity
  8
0
  6
ByBlock
 62
     0
100
AcDbTrace
 10
-94.0
 20
-180.563719802518
 30
0.0
 11
-94.0
 21
-181.8970531358513
 31
0.0
 12
-90.0
 22
-181.2303864691846
 32
0.0
 13
-90.0
 23
-181.2303864691846
 33
0.0
  0
TEXT
  5
75
330
6F
100
AcDbEntity
  8
0
  6
ByBlock
 62
     0
100
AcDbText
 10
-138.4285714285714
 20
-179.4303864691846
 30
0.0
 40
3.6
  1
90
  7
ROMANS
 72
     1
 11
-135.0
 21
-177.6303864691846
 31
0.0
100
AcDbText
 73
     2
  0
POINT
  5
76
330
6F
100
AcDbEntity
  8
DEFPOINTS
  6
ByBlock
 62
     0
100
AcDbPoint
 10
-179.9999999999999
 20
-13.00000000000018
 30
0.0
  0
POINT
  5
77
330
6F
100
AcDbEntity
  8
DEFPOINTS
  6
ByBlock
 62
     0
100
AcDbPoint
 10
-90.0
 20
-13.00000000000018
 30
0.0
  0
POINT
  5
78
330
6F
100
AcDbEntity
  8
DEFPOINTS
  6
ByBlock
 62
     0
100
AcDbPoint
 10
-90.0
 20
-181.2303864691846
 30
0.0
  0
ENDBLK
  5
7A
330
6F
100
AcDbEntity
  8
0
100
AcDbBlockEnd
  0
BLOCK
  5
9D
330
94
100
AcDbEntity
  8
0
 62
     1
100
AcDbBlockBegin
  2
A$C6BE937E7
 70
     0
 10
0.0
 20
0.0
 30
0.0
  3
A$C6BE937E7
  1

  0
TEXT
  5
95
330
94
100
AcDbEntity
  8
SPECD
 62
     6
100
AcDbText
 10
4.668392196768905
 20
18.71588358345923
 30
0.0
 40
5.0
  1
AND 20mm-JOINT. AND UNFREEZE DESIRED NEW 
  7
ROMANS
 72
     4
 11
102.5255350539117
 21
21.21588358345923
 31
0.0
100
AcDbText
  0
LINE
  5
96
330
94
100
AcDbEntity
  8
SPECD
 62
     6
100
AcDbLine
 10
0.0000004097963711
 20
53.03369301694681
 30
0.0
 11
202.4869505164367
 21
53.03369301694681
 31
0.0
  0
LINE
  5
97
330
94
100
AcDbEntity
  8
SPECD
 62
     6
100
AcDbLine
 10
0.0000004097963711
 20
0.0000004313964723
 30
0.0
 11
202.4869505164367
 21
0.0000004313964723
 31
0.0
  0
TEXT
  5
98
330
94
100
AcDbEntity
  8
SPECD
 62
     6
100
AcDbText
 10
4.207581425801549
 20
28.3361790613278
 30
0.0
 40
5.0
  1
FOR OTHER WIDTHS, FREEZE LAYERS 20mm-DIMS
  7
ROMANS
 72
     4
 11
101.3504385686587
 21
30.35998858513733
 31
0.0
100
AcDbText
  0
TEXT
  5
99
330
94
100
AcDbEntity
  8
SPECD
 62
     6
100
AcDbText
 10
4.215424032625506
 20
43.79289347717675
 30
0.0
 40
5.0
  1
DRAWING SHOWS 20mm JOINT.
  7
ROMANS
 72
     4
 11
63.73923355643501
 21
46.29289347717675
 31
0.0
100
AcDbText
  0
TEXT
  5
9A
330
94
100
AcDbEntity
  8
SPECD
 62
     6
100
AcDbText
 10
4.481432930145061
 20
8.212600757984517
 30
0.0
 40
5.0
  1
JOINT AND DIMS LAYERS.
  7
ROMANS
 72
     4
 11
52.33857578728794
 21
10.71260075798451
 31
0.0
100
AcDbText
  0
LINE
  5
9B
330
94
100
AcDbEntity
  8
SPECD
 62
     6
100
AcDbLine
 10
0.0000004097963711
 20
53.03369301694681
 30
0.0
 11
0.0000004097963711
 21
0.0000004313964723
 31
0.0
  0
LINE
  5
9C
330
94
100
AcDbEntity
  8
SPECD
 62
     6
100
AcDbLine
 10
202.4869505164367
 20
53.03369301694681
 30
0.0
 11
202.4869505164367
 21
0.0000004313964723
 31
0.0
  0
ENDBLK
  5
9E
330
94
100
AcDbEntity
  8
0
 62
     1
100
AcDbBlockEnd
  0
ENDSEC
  0
SECTION
  2
ENTITIES
  0
CIRCLE
  5
2D
330
2
100
AcDbEntity
  8
ANCON-DSD
100
AcDbCircle
 10
70.0
 20
-0.0000000000000284
 30
0.0
 40
10.0
  0
TEXT
  5
2E
330
2
100
AcDbEntity
  8
SPECP
 62
     1
100
AcDbText
 10
25.62682000765394
 20
255.7110657154554
 30
0.0
 40
5.0
  1
SPECIFICATION BY PRODUCT
  7
ROMANS
 72
     4
 11
79.07920096003488
 21
258.2110657154554
 31
0.0
100
AcDbText
  0
TEXT
  5
30
330
2
100
AcDbEntity
  8
SPECD
 62
     1
100
AcDbText
 10
25.77045661728024
 20
225.7766112509593
 30
0.0
 40
5.0
  1
SPECIFICATION BY DESCRIPTION
  7
ROMANS
 72
     4
 11
85.41331376013738
 21
228.2766112509593
 31
0.0
100
AcDbText
  0
DIMENSION
  5
32
330
2
100
AcDbEntity
  8
DIMS
100
AcDbDimension
  2
*D4
 10
350.0
 20
-202.6604560269773
 30
0.0
 11
175.0
 21
-199.0604560269773
 31
0.0
 71
     5
 42
-1.0
  3
1-2
100
AcDbAlignedDimension
 13
0.0000000000000393
 23
-140.0
 33
0.0
 14
350.0
 24
-108.5
 34
0.0
100
AcDbRotatedDimension
  0
DIMENSION
  5
43
330
2
100
AcDbEntity
  8
DIMS
100
AcDbDimension
  2
*D10
 10
70.0
 20
-181.2303864691846
 30
0.0
 11
37.5
 21
-177.6303864691846
 31
0.0
 71
     5
 42
-1.0
  3
1-2
100
AcDbAlignedDimension
 13
5.0
 23
-140.0
 33
0.0
 14
70.0
 24
-13.00000000000002
 34
0.0
100
AcDbRotatedDimension
  0
LINE
  5
50
330
2
100
AcDbEntity
  8
20MM-JOINT
  6
HIDDEN
 62
     3
100
AcDbLine
 10
0.0000000000000351
 20
-106.0000000000001
 30
0.0
 11
308.0
 21
-106.0000000000001
 31
0.0
  0
LINE
  5
53
330
2
100
AcDbEntity
  8
20MM-JOINT
  6
HIDDEN
 62
     3
100
AcDbLine
 10
0.0000000000000285
 20
-54.00000000000019
 30
0.0
 11
308.0
 21
-54.00000000000019
 31
0.0
  0
LINE
  5
54
330
2
100
AcDbEntity
  8
20MM-JOINT
  6
HIDDEN
 62
     3
100
AcDbLine
 10
0.000000000000015
 20
53.9999999999998
 30
0.0
 11
308.0
 21
53.9999999999998
 31
0.0
  0
LINE
  5
55
330
2
100
AcDbEntity
  8
20MM-JOINT
  6
HIDDEN
 62
     3
100
AcDbLine
 10
0.0000000000000084
 20
105.9999999999998
 30
0.0
 11
308.0
 21
105.9999999999998
 31
0.0
  0
LINE
  5
56
330
2
100
AcDbEntity
  8
20MM-JOINT
  6
CENTER2
 62
     1
100
AcDbLine
 10
-360.0
 20
-80.00000000000019
 30
0.0
 11
320.0
 21
-80.00000000000019
 31
0.0
  0
LINE
  5
58
330
2
100
AcDbEntity
  8
20MM-JOINT
  6
CENTER2
 62
     1
100
AcDbLine
 10
-360.0
 20
79.99999999999982
 30
0.0
 11
320.0
 21
79.9999999999997
 31
0.0
  0
DIMENSION
  5
59
330
2
100
AcDbEntity
  8
DIMS
100
AcDbDimension
  2
*D0
 10
493.5238522134689
 20
-140.0
 30
0.0
 11
489.9238522134688
 21
-0.0000000000000142
 31
0.0
 71
     5
 42
-1.0
  3
1-2
100
AcDbAlignedDimension
 13
5.0
 23
140.0
 33
0.0
 14
5.0
 24
-140.0
 34
0.0
 50
90.0
100
AcDbRotatedDimension
  0
LINE
  5
66
330
2
100
AcDbEntity
  8
DIMS
  6
CENTER2
100
AcDbLine
 10
83.0
 20
-0.0000000000000284
 30
0.0
 11
57.0
 21
-0.0000000000000284
 31
0.0
  0
LINE
  5
67
330
2
100
AcDbEntity
  8
ANCON-DSD
100
AcDbLine
 10
350.0
 20
-51.50000000000003
 30
0.0
 11
5.0
 21
-51.50000000000003
 31
0.0
  0
LINE
  5
68
330
2
100
AcDbEntity
  8
ANCON-DSD
100
AcDbLine
 10
350.0
 20
-108.5
 30
0.0
 11
5.0
 21
-108.5
 31
0.0
  0
LINE
  5
69
330
2
100
AcDbEntity
  8
DIMS
  6
CENTER2
100
AcDbLine
 10
365.0
 20
-79.99999999999997
 30
0.0
 11
0.0
 21
-79.99999999999997
 31
0.0
  0
LINE
  5
6A
330
2
100
AcDbEntity
  8
ANCON-DSD
100
AcDbLine
 10
350.0
 20
108.4999999999999
 30
0.0
 11
5.0
 21
108.4999999999999
 31
0.0
  0
LINE
  5
6B
330
2
100
AcDbEntity
  8
ANCON-DSD
100
AcDbLine
 10
350.0
 20
51.5
 30
0.0
 11
5.0
 21
51.5
 31
0.0
  0
LINE
  5
6C
330
2
100
AcDbEntity
  8
DIMS
  6
CENTER2
100
AcDbLine
 10
365.0
 20
79.99999999999994
 30
0.0
 11
0.0
 21
79.99999999999994
 31
0.0
  0
DIMENSION
  5
6D
330
2
100
AcDbEntity
  8
20MM-DIMS
100
AcDbDimension
  2
*D13
 10
-90.0
 20
-181.2303864691846
 30
0.0
 11
-135.0
 21
-177.6303864691846
 31
0.0
 71
     5
 42
-1.0
  3
1-2
100
AcDbAlignedDimension
 13
-179.9999999999999
 23
-13.00000000000018
 33
0.0
 14
-90.0
 24
-13.00000000000018
 34
0.0
100
AcDbRotatedDimension
  0
DIMENSION
  5
7B
330
2
100
AcDbEntity
  8
20MM-DIMS
100
AcDbDimension
  2
*D12
 10
-30.0
 20
-181.2303864691846
 30
0.0
 11
-60.0
 21
-177.6303864691846
 31
0.0
 71
     5
 42
-1.0
  3
1-2
100
AcDbAlignedDimension
 13
-90.0
 23
-13.00000000000018
 33
0.0
 14
-30.0
 24
-125.0000000000001
 34
0.0
100
AcDbRotatedDimension
  0
LINE
  5
88
330
2
100
AcDbEntity
  8
20MM-JOINT
 62
     3
100
AcDbLine
 10
-20.0
 20
-54.00000000000019
 30
0.0
 11
-20.0
 21
53.99999999999981
 31
0.0
  0
LINE
  5
89
330
2
100
AcDbEntity
  8
20MM-JOINT
 62
     3
100
AcDbLine
 10
-30.0
 20
53.99999999999981
 30
0.0
 11
-30.0
 21
-54.00000000000019
 31
0.0
  0
LINE
  5
8A
330
2
100
AcDbEntity
  8
20MM-JOINT
 62
     3
100
AcDbLine
 10
-20.0
 20
53.99999999999981
 30
0.0
 11
-20.0
 21
-54.00000000000019
 31
0.0
  0
LINE
  5
8B
330
2
100
AcDbEntity
  8
20MM-JOINT
 62
     3
100
AcDbLine
 10
-30.0
 20
53.99999999999981
 30
0.0
 11
-30.0
 21
-54.00000000000019
 31
0.0
  0
LINE
  5
8C
330
2
100
AcDbEntity
  8
20MM-JOINT
 62
     3
100
AcDbLine
 10
-210.0
 20
53.99999999999981
 30
0.0
 11
-210.0
 21
-54.00000000000019
 31
0.0
  0
LINE
  5
8D
330
2
100
AcDbEntity
  8
ANCON-DSD
100
AcDbLine
 10
5.0
 20
140.0
 30
0.0
 11
5.0
 21
-140.0
 31
0.0
  0
LINE
  5
8E
330
2
100
AcDbEntity
  8
ANCON-DSD
100
AcDbLine
 10
0.0
 20
140.0
 30
0.0
 11
0.0
 21
-140.0
 31
0.0
  0
LINE
  5
8F
330
2
100
AcDbEntity
  8
ANCON-DSD
100
AcDbLine
 10
5.0
 20
54.0
 30
0.0
 11
5.0
 21
-54.00000000000003
 31
0.0
  0
LINE
  5
90
330
2
100
AcDbEntity
  8
20MM-JOINT
 62
     2
100
AcDbLine
 10
-19.99999999999994
 20
-279.5382443711042
 30
0.0
 11
-20.0
 21
173.2884415238361
 31
0.0
  0
LINE
  5
91
330
2
100
AcDbEntity
  8
CONCRETE
100
AcDbLine
 10
0.0000000000000568
 20
-279.5291840904512
 30
0.0
 11
0.0
 21
173.297501804489
 31
0.0
  0
DIMENSION
  5
9F
330
2
100
AcDbEntity
  8
20MM-DIMS
100
AcDbDimension
  2
*D8
 10
-20.0
 20
-202.6604560269773
 30
0.0
 11
-185.0
 21
-199.0604560269773
 31
0.0
 71
     5
 42
-1.0
  3
1-2
100
AcDbAlignedDimension
 13
-350.0
 23
-104.0000000000001
 33
0.0
 14
-20.0
 24
-125.0000000000001
 34
0.0
100
AcDbRotatedDimension
  0
LINE
  5
AC
330
2
100
AcDbEntity
  8
20MM-JOINT
 62
     3
100
AcDbLine
 10
-349.9999999999999
 20
-106.0000000000001
 30
0.0
 11
-30.0
 21
-106.0000000000001
 31
0.0
  0
LINE
  5
AD
330
2
100
AcDbEntity
  8
20MM-JOINT
 62
     3
100
AcDbLine
 10
-350.0
 20
-54.00000000000019
 30
0.0
 11
-30.0
 21
-54.00000000000019
 31
0.0
  0
LINE
  5
AE
330
2
100
AcDbEntity
  8
20MM-JOINT
 62
     3
100
AcDbLine
 10
-350.0
 20
-54.00000000000019
 30
0.0
 11
-350.0
 21
-106.0000000000002
 31
0.0
  0
LINE
  5
AF
330
2
100
AcDbEntity
  8
20MM-JOINT
 62
     3
100
AcDbLine
 10
-20.0
 20
-125.0000000000001
 30
0.0
 11
-20.0
 21
-106.0000000000001
 31
0.0
  0
LINE
  5
B0
330
2
100
AcDbEntity
  8
20MM-JOINT
 62
     3
100
AcDbLine
 10
-30.0
 20
-106.0000000000001
 30
0.0
 11
-30.0
 21
-125.0000000000001
 31
0.0
  0
LINE
  5
B1
330
2
100
AcDbEntity
  8
20MM-JOINT
 62
     3
100
AcDbLine
 10
-30.0
 20
-106.0000000000001
 30
0.0
 11
-30.0
 21
-125.0000000000001
 31
0.0
  0
LINE
  5
B2
330
2
100
AcDbEntity
  8
20MM-JOINT
 62
     3
100
AcDbLine
 10
-20.0
 20
-106.0000000000001
 30
0.0
 11
-20.0
 21
-125.0000000000001
 31
0.0
  0
LINE
  5
B3
330
2
100
AcDbEntity
  8
ANCON-DSD
100
AcDbLine
 10
5.0
 20
-106.0
 30
0.0
 11
5.0
 21
-140.0
 31
0.0
  0
DIMENSION
  5
B4
330
2
100
AcDbEntity
  8
DIMS
100
AcDbDimension
  2
*D6
 10
0.0000000000000393
 20
-181.2303864691846
 30
0.0
 11
-5.869534803388812
 21
-177.6303864691846
 31
0.0
 70
   128
 71
     5
 42
-1.0
  3
1-2
100
AcDbAlignedDimension
 13
5.0
 23
-140.0
 33
0.0
 14
0.0000000000000393
 24
-140.0
 34
0.0
100
AcDbRotatedDimension
  0
LINE
  5
C2
330
2
100
AcDbEntity
  8
ANCON-DSD
100
AcDbLine
 10
5.0
 20
-140.0
 30
0.0
 11
0.0
 21
-140.0
 31
0.0
  0
LINE
  5
C3
330
2
100
AcDbEntity
  8
ANCON-DSD
100
AcDbLine
 10
5.0
 20
-140.0
 30
0.0
 11
0.0
 21
-140.0
 31
0.0
  0
DIMENSION
  5
C4
330
2
100
AcDbEntity
  8
20MM-DIMS
100
AcDbDimension
  2
*D9
 10
0.0
 20
-202.6604560269773
 30
0.0
 11
-10.0
 21
-199.0604560269773
 31
0.0
 71
     5
 42
-1.0
  3
1-2
100
AcDbAlignedDimension
 13
-20.0
 23
-125.0000000000001
 33
0.0
 14
0.0
 24
-140.0
 34
0.0
100
AcDbRotatedDimension
  0
DIMENSION
  5
D1
330
2
100
AcDbEntity
  8
20MM-DIMS
100
AcDbDimension
  2
*D7
 10
-19.99999999999996
 20
-181.2303864691846
 30
0.0
 11
-25.08166072772364
 21
-177.6303864691846
 31
0.0
 70
   128
 71
     5
 42
-1.0
  3
1-2
100
AcDbAlignedDimension
 13
-30.0
 23
-125.0000000000001
 33
0.0
 14
-19.99999999999996
 24
-125.0000000000001
 34
0.0
100
AcDbRotatedDimension
  0
LINE
  5
DE
330
2
100
AcDbEntity
  8
20MM-JOINT
 62
     3
100
AcDbLine
 10
-30.0
 20
-125.0000000000001
 30
0.0
 11
-20.0
 21
-125.0000000000001
 31
0.0
  0
LINE
  5
DF
330
2
100
AcDbEntity
  8
20MM-JOINT
 62
     3
100
AcDbLine
 10
-30.0
 20
-125.0000000000001
 30
0.0
 11
-20.0
 21
-125.0000000000001
 31
0.0
  0
LINE
  5
E0
330
2
100
AcDbEntity
  8
20MM-JOINT
 62
     3
100
AcDbLine
 10
-20.0
 20
-54.00000000000019
 30
0.0
 11
-20.0
 21
-106.0000000000001
 31
0.0
  0
LINE
  5
E1
330
2
100
AcDbEntity
  8
20MM-JOINT
 62
     3
100
AcDbLine
 10
-30.0
 20
-54.00000000000019
 30
0.0
 11
-30.0
 21
-106.0000000000001
 31
0.0
  0
LINE
  5
E2
330
2
100
AcDbEntity
  8
20MM-JOINT
 62
     3
100
AcDbLine
 10
-20.0
 20
-106.0000000000001
 30
0.0
 11
0.0000000000000351
 21
-106.0000000000001
 31
0.0
  0
LINE
  5
E3
330
2
100
AcDbEntity
  8
20MM-JOINT
 62
     3
100
AcDbLine
 10
-20.0
 20
-54.00000000000019
 30
0.0
 11
0.0000000000000285
 21
-54.00000000000019
 31
0.0
  0
LINE
  5
E4
330
2
100
AcDbEntity
  8
20MM-JOINT
 62
     6
100
AcDbLine
 10
-235.2659676469724
 20
263.6852928117719
 30
0.0
 11
-59.88728995510997
 21
263.6852928117719
 31
0.0
  0
LINE
  5
E5
330
2
100
AcDbEntity
  8
20MM-JOINT
 62
     6
100
AcDbLine
 10
-235.2659676469724
 20
237.6145317527262
 30
0.0
 11
-59.88728995510994
 21
237.6145317527262
 31
0.0
  0
LINE
  5
E6
330
2
100
AcDbEntity
  8
20MM-JOINT
 62
     6
100
AcDbLine
 10
-235.2659676469724
 20
210.5870466776791
 30
0.0
 11
-59.88728995510997
 21
210.587046677679
 31
0.0
  0
TEXT
  5
E7
330
2
100
AcDbEntity
  8
20MM-JOINT
 62
     6
100
AcDbText
 10
-228.073583497901
 20
253.4195766522303
 30
0.0
 40
5.0
  1
DSD REF:
  7
ROMANS
 72
     4
 11
-210.0973930217105
 21
255.9195766522303
 31
0.0
100
AcDbText
  0
TEXT
  5
E8
330
2
100
AcDbEntity
  8
20MM-JOINT
 62
     6
100
AcDbText
 10
-226.0233606778009
 20
221.4026037707777
 30
0.0
 40
5.0
  1
DSD400
  7
ROMANS
 72
     4
 11
-211.3805035349437
 21
223.9026037707777
 31
0.0
100
AcDbText
  0
LINE
  5
E9
330
2
100
AcDbEntity
  8
20MM-JOINT
 62
     3
100
AcDbLine
 10
-350.0
 20
105.9999999999998
 30
0.0
 11
-30.0
 21
105.9999999999998
 31
0.0
  0
LINE
  5
EA
330
2
100
AcDbEntity
  8
20MM-JOINT
 62
     3
100
AcDbLine
 10
-350.0
 20
53.99999999999981
 30
0.0
 11
-30.0
 21
53.99999999999981
 31
0.0
  0
LINE
  5
EB
330
2
100
AcDbEntity
  8
20MM-JOINT
 62
     3
100
AcDbLine
 10
-350.0
 20
105.9999999999998
 30
0.0
 11
-350.0
 21
53.99999999999981
 31
0.0
  0
LINE
  5
EC
330
2
100
AcDbEntity
  8
20MM-JOINT
 62
     6
100
AcDbLine
 10
-235.2659676469724
 20
263.6852928117719
 30
0.0
 11
-235.2659676469724
 21
210.587046677679
 31
0.0
  0
CIRCLE
  5
ED
330
2
100
AcDbEntity
  8
20MM-JOINT
 62
     3
100
AcDbCircle
 10
-180.0
 20
-0.0000000000001847
 30
0.0
 40
10.0
  0
LINE
  5
EE
330
2
100
AcDbEntity
  8
20MM-JOINT
  6
CENTER2
 62
     1
100
AcDbLine
 10
-180.0
 20
12.99999999999981
 30
0.0
 11
-179.9999999999999
 21
-13.00000000000018
 31
0.0
  0
LINE
  5
EF
330
2
100
AcDbEntity
  8
20MM-JOINT
  6
CENTER2
 62
     1
100
AcDbLine
 10
-193.0
 20
-0.0000000000001847
 30
0.0
 11
-167.0
 21
-0.0000000000001847
 31
0.0
  0
CIRCLE
  5
F0
330
2
100
AcDbEntity
  8
20MM-JOINT
 62
     3
100
AcDbCircle
 10
-90.0
 20
-0.0000000000001847
 30
0.0
 40
10.0
  0
LINE
  5
F1
330
2
100
AcDbEntity
  8
20MM-JOINT
  6
CENTER2
 62
     1
100
AcDbLine
 10
-103.0
 20
-0.0000000000001847
 30
0.0
 11
-77.0
 21
-0.0000000000001847
 31
0.0
  0
LINE
  5
F2
330
2
100
AcDbEntity
  8
20MM-JOINT
  6
CENTER2
 62
     1
100
AcDbLine
 10
-90.0
 20
12.99999999999981
 30
0.0
 11
-90.0
 21
-13.00000000000018
 31
0.0
  0
LINE
  5
F3
330
2
100
AcDbEntity
  8
20MM-JOINT
 62
     3
100
AcDbLine
 10
-20.0
 20
105.9999999999998
 30
0.0
 11
-20.0
 21
53.99999999999981
 31
0.0
  0
LINE
  5
F4
330
2
100
AcDbEntity
  8
20MM-JOINT
 62
     3
100
AcDbLine
 10
-30.0
 20
105.9999999999998
 30
0.0
 11
-30.0
 21
53.99999999999981
 31
0.0
  0
LINE
  5
F6
330
2
100
AcDbEntity
  8
20MM-JOINT
 62
     3
100
AcDbLine
 10
-20.0
 20
53.99999999999981
 30
0.0
 11
0.000000000000015
 21
53.9999999999998
 31
0.0
  0
LINE
  5
F7
330
2
100
AcDbEntity
  8
ANCON-DSD
100
AcDbLine
 10
5.0
 20
140.0
 30
0.0
 11
0.0
 21
140.0
 31
0.0
  0
LINE
  5
F8
330
2
100
AcDbEntity
  8
ANCON-DSD
100
AcDbLine
 10
0.0
 20
140.0
 30
0.0
 11
5.0
 21
140.0
 31
0.0
  0
LINE
  5
F9
330
2
100
AcDbEntity
  8
20MM-JOINT
 62
     3
100
AcDbLine
 10
-20.0
 20
105.9999999999998
 30
0.0
 11
0.0000000000000084
 21
105.9999999999998
 31
0.0
  0
LINE
  5
FA
330
2
100
AcDbEntity
  8
20MM-JOINT
 62
     3
100
AcDbLine
 10
-30.0
 20
124.9999999999998
 30
0.0
 11
-30.0
 21
105.9999999999998
 31
0.0
  0
LINE
  5
FB
330
2
100
AcDbEntity
  8
20MM-JOINT
 62
     3
100
AcDbLine
 10
-20.0
 20
105.9999999999998
 30
0.0
 11
-20.0
 21
124.9999999999998
 31
0.0
  0
LINE
  5
FC
330
2
100
AcDbEntity
  8
20MM-JOINT
 62
     3
100
AcDbLine
 10
-30.0
 20
124.9999999999998
 30
0.0
 11
-30.0
 21
105.9999999999998
 31
0.0
  0
LINE
  5
FD
330
2
100
AcDbEntity
  8
20MM-JOINT
 62
     3
100
AcDbLine
 10
-20.0
 20
124.9999999999998
 30
0.0
 11
-20.0
 21
105.9999999999998
 31
0.0
  0
LINE
  5
FE
330
2
100
AcDbEntity
  8
20MM-JOINT
 62
     3
100
AcDbLine
 10
-20.0
 20
124.9999999999998
 30
0.0
 11
-30.0
 21
124.9999999999998
 31
0.0
  0
LINE
  5
FF
330
2
100
AcDbEntity
  8
20MM-JOINT
 62
     3
100
AcDbLine
 10
-30.0
 20
124.9999999999998
 30
0.0
 11
-20.0
 21
124.9999999999998
 31
0.0
  0
LINE
  5
100
330
2
100
AcDbEntity
  8
ANCON-DSD
100
AcDbLine
 10
5.0
 20
140.0
 30
0.0
 11
5.0
 21
106.0
 31
0.0
  0
TEXT
  5
101
330
2
100
AcDbEntity
  8
20MM-JOINT
 62
     6
100
AcDbText
 10
-119.2376463920866
 20
253.4244071493618
 30
0.0
 40
5.0
  1
SERVICEABILITY
  7
ROMANS
 72
     4
 11
-91.38050353494376
 21
255.9244071493618
 31
0.0
100
AcDbText
  0
TEXT
  5
102
330
2
100
AcDbEntity
  8
20MM-JOINT
 62
     6
100
AcDbText
 10
-180.1622992820835
 20
253.4195766522303
 30
0.0
 40
5.0
  1
DESIGN JOINT
  7
ROMANS
 72
     4
 11
-154.0908707106549
 21
255.9195766522303
 31
0.0
100
AcDbText
  0
LINE
  5
103
330
2
100
AcDbEntity
  8
20MM-JOINT
 62
     6
100
AcDbLine
 10
-185.2659676469724
 20
263.6852928117719
 30
0.0
 11
-185.2659676469724
 21
210.587046677679
 31
0.0
  0
TEXT
  5
104
330
2
100
AcDbEntity
  8
20MM-JOINT
 62
     6
100
AcDbText
 10
-164.2376463920866
 20
221.4026037707777
 30
0.0
 40
5.0
  1
20 MM
  7
ROMANS
 72
     4
 11
-151.3805035349437
 21
223.9026037707777
 31
0.0
100
AcDbText
  0
TEXT
  5
105
330
2
100
AcDbEntity
  8
20MM-JOINT
 62
     6
100
AcDbText
 10
-164.686108805893
 20
242.5219532646113
 30
0.0
 40
5.0
  1
WIDTH
  7
ROMANS
 72
     4
 11
-154.0908707106549
 21
245.0219532646113
 31
0.0
100
AcDbText
  0
LINE
  5
106
330
2
100
AcDbEntity
  8
20MM-JOINT
 62
     6
100
AcDbLine
 10
-124.7578740899095
 20
263.6852928117719
 30
0.0
 11
-124.7578740899095
 21
210.587046677679
 31
0.0
  0
TEXT
  5
107
330
2
100
AcDbEntity
  8
20MM-JOINT
 62
     6
100
AcDbText
 10
-101.3805035349437
 20
221.4026037707777
 30
0.0
 40
5.0
  1
299.1
  7
ROMANS
 72
     4
 11
-91.38050353494376
 21
223.9026037707777
 31
0.0
100
AcDbText
  0
TEXT
  5
108
330
2
100
AcDbEntity
  8
20MM-JOINT
 62
     6
100
AcDbText
 10
-116.1424082968485
 20
242.4811282107835
 30
0.0
 40
5.0
  1
LOAD ( kN )
  7
ROMANS
 72
     4
 11
-91.38050353494376
 21
244.6239853536406
 31
0.0
100
AcDbText
  0
LINE
  5
109
330
2
100
AcDbEntity
  8
20MM-JOINT
 62
     6
100
AcDbLine
 10
-59.88728995510997
 20
263.6852928117719
 30
0.0
 11
-59.88728995510997
 21
210.587046677679
 31
0.0
  0
DIMENSION
  5
10A
330
2
100
AcDbEntity
  8
DIMS
100
AcDbDimension
  2
*D11
 10
155.0
 20
-181.2303864691846
 30
0.0
 11
112.5
 21
-177.6303864691846
 31
0.0
 71
     5
 42
-1.0
  3
1-2
100
AcDbAlignedDimension
 13
70.0
 23
-13.00000000000002
 33
0.0
 14
155.0
 24
-13.00000000000002
 34
0.0
100
AcDbRotatedDimension
  0
DIMENSION
  5
117
330
2
100
AcDbEntity
  8
DIMS
100
AcDbDimension
  2
*D1
 10
398.1753285103582
 20
51.5
 30
0.0
 11
394.5753285103581
 21
-0.0000000000000142
 31
0.0
 71
     5
 42
-1.0
  3
1-2
100
AcDbAlignedDimension
 13
350.0
 23
-51.50000000000003
 33
0.0
 14
350.0
 24
51.5
 34
0.0
 50
90.0
100
AcDbRotatedDimension
  0
DIMENSION
  5
124
330
2
100
AcDbEntity
  8
DIMS
100
AcDbDimension
  2
*D2
 10
442.4956103424338
 20
79.99999999999994
 30
0.0
 11
438.8956103424337
 21
-0.0000000000000142
 31
0.0
 71
     5
 42
-1.0
  3
1-2
100
AcDbAlignedDimension
 13
365.0
 23
-79.99999999999997
 33
0.0
 14
365.0
 24
79.99999999999994
 34
0.0
 50
90.0
100
AcDbRotatedDimension
  0
LINE
  5
131
330
2
100
AcDbEntity
  8
ANCON-DSD
100
AcDbLine
 10
185.0
 20
51.5
 30
0.0
 11
185.0
 21
-51.50000000000005
 31
0.0
  0
LINE
  5
132
330
2
100
AcDbEntity
  8
20MM-JOINT
  6
HIDDEN
 62
     3
100
AcDbLine
 10
308.0
 20
-54.00000000000019
 30
0.0
 11
308.0
 21
-106.0000000000001
 31
0.0
  0
LINE
  5
133
330
2
100
AcDbEntity
  8
20MM-JOINT
  6
HIDDEN
 62
     3
100
AcDbLine
 10
310.0
 20
-56.00000000000019
 30
0.0
 11
310.0
 21
-104.0000000000001
 31
0.0
  0
LINE
  5
134
330
2
100
AcDbEntity
  8
20MM-JOINT
  6
HIDDEN
 62
     3
100
AcDbLine
 10
308.0
 20
-106.0000000000001
 30
0.0
 11
310.0
 21
-104.0000000000001
 31
0.0
  0
LINE
  5
135
330
2
100
AcDbEntity
  8
20MM-JOINT
  6
HIDDEN
 62
     3
100
AcDbLine
 10
310.0
 20
-56.00000000000019
 30
0.0
 11
308.0
 21
-54.00000000000019
 31
0.0
  0
DIMENSION
  5
136
330
2
100
AcDbEntity
  8
DIMS
100
AcDbDimension
  2
*D5
 10
398.1753285103582
 20
-79.99999999999997
 30
0.0
 11
394.5753285103581
 21
-65.75
 31
0.0
 71
     5
 42
-1.0
  3
1-2
100
AcDbAlignedDimension
 13
350.0
 23
-51.50000000000003
 33
0.0
 14
365.0
 24
-79.99999999999997
 34
0.0
 50
90.0
100
AcDbRotatedDimension
  0
LINE
  5
143
330
2
100
AcDbEntity
  8
ANCON-DSD
100
AcDbLine
 10
355.0
 20
-52.5
 30
0.0
 11
355.0
 21
-107.5
 31
0.0
  0
LINE
  5
144
330
2
100
AcDbEntity
  8
ANCON-DSD
100
AcDbLine
 10
350.0
 20
-51.50000000000003
 30
0.0
 11
350.0
 21
-108.5
 31
0.0
  0
LINE
  5
145
330
2
100
AcDbEntity
  8
ANCON-DSD
100
AcDbLine
 10
350.0
 20
-54.00000000000003
 30
0.0
 11
350.0
 21
-105.9733064958091
 31
0.0
  0
LINE
  5
146
330
2
100
AcDbEntity
  8
ANCON-DSD
100
AcDbLine
 10
355.0000000000002
 20
-107.4999999999999
 30
0.0
 11
350.0
 21
-107.4999999999999
 31
0.0
  0
LINE
  5
147
330
2
100
AcDbEntity
  8
ANCON-DSD
100
AcDbLine
 10
355.0
 20
-52.5
 30
0.0
 11
350.0
 21
-52.5
 31
0.0
  0
TEXT
  5
148
330
2
100
AcDbEntity
  8
SPECD
 62
     6
100
AcDbText
 10
156.8284378574082
 20
205.7350025889747
 30
0.0
 40
5.0
  1
SUITABLE FOR A DESIGN JOINT WIDTH OF ?? MM
  7
ROMANS
 72
     4
 11
251.7093902383606
 21
208.2350025889747
 31
0.0
100
AcDbText
  0
LINE
  5
149
330
2
100
AcDbEntity
  8
SPECD
 62
     6
100
AcDbLine
 10
153.1991922985668
 20
234.9816621642051
 30
0.0
 11
355.6861424052072
 21
234.9816621642051
 31
0.0
  0
LINE
  5
14A
330
2
100
AcDbEntity
  8
SPECD
 62
     6
100
AcDbLine
 10
153.1991922985668
 20
181.9479695786547
 30
0.0
 11
355.6861424052072
 21
181.9479695786547
 31
0.0
  0
TEXT
  5
14B
330
2
100
AcDbEntity
  8
SPECD
 62
     6
100
AcDbText
 10
157.2828730273583
 20
195.6859451750456
 30
0.0
 40
5.0
  1
AND CAPABLE OF TRANSFERRING A SERVICEABILITY
  7
ROMANS
 72
     4
 11
254.6638254083107
 21
198.1859451750456
 31
0.0
100
AcDbText
  0
TEXT
  5
14C
330
2
100
AcDbEntity
  8
SPECD
 62
     6
100
AcDbText
 10
157.4909255034063
 20
225.7408626244351
 30
0.0
 40
5.0
  1
TWO PART STAINLESS STEEL SHEAR CONNECTOR
  7
ROMANS
 72
     4
 11
250.1099731224541
 21
228.2408626244351
 31
0.0
100
AcDbText
  0
LINE
  5
14D
330
2
100
AcDbEntity
  8
DIMS
  6
CENTER2
100
AcDbLine
 10
70.0
 20
12.99999999999997
 30
0.0
 11
70.0
 21
-13.00000000000002
 31
0.0
  0
CIRCLE
  5
14E
330
2
100
AcDbEntity
  8
ANCON-DSD
100
AcDbCircle
 10
155.0
 20
-0.0000000000000284
 30
0.0
 40
10.0
  0
LINE
  5
14F
330
2
100
AcDbEntity
  8
DIMS
  6
CENTER2
100
AcDbLine
 10
155.0
 20
12.99999999999997
 30
0.0
 11
155.0
 21
-13.00000000000002
 31
0.0
  0
LINE
  5
150
330
2
100
AcDbEntity
  8
DIMS
  6
CENTER2
100
AcDbLine
 10
168.0
 20
0.0
 30
0.0
 11
142.0
 21
0.0
 31
0.0
  0
LINE
  5
151
330
2
100
AcDbEntity
  8
20MM-JOINT
  6
HIDDEN
 62
     3
100
AcDbLine
 10
308.0
 20
105.9999999999998
 30
0.0
 11
308.0
 21
53.99999999999981
 31
0.0
  0
LINE
  5
152
330
2
100
AcDbEntity
  8
20MM-JOINT
  6
HIDDEN
 62
     3
100
AcDbLine
 10
310.0
 20
103.9999999999998
 30
0.0
 11
310.0
 21
55.99999999999981
 31
0.0
  0
LINE
  5
153
330
2
100
AcDbEntity
  8
20MM-JOINT
  6
HIDDEN
 62
     3
100
AcDbLine
 10
308.0
 20
53.99999999999981
 30
0.0
 11
308.0
 21
53.99999999999981
 31
0.0
  0
LINE
  5
154
330
2
100
AcDbEntity
  8
20MM-JOINT
  6
HIDDEN
 62
     3
100
AcDbLine
 10
308.0
 20
53.99999999999981
 30
0.0
 11
310.0
 21
55.99999999999981
 31
0.0
  0
LINE
  5
155
330
2
100
AcDbEntity
  8
20MM-JOINT
  6
HIDDEN
 62
     3
100
AcDbLine
 10
310.0
 20
103.9999999999998
 30
0.0
 11
308.0
 21
105.9999999999998
 31
0.0
  0
TEXT
  5
156
330
2
100
AcDbEntity
  8
SPECP
 62
     6
100
AcDbText
 10
157.6933019719588
 20
255.7110657154554
 30
0.0
 40
5.0
  1
STAIFIX DSD ??
  7
ROMANS
 72
     4
 11
187.2171114957684
 21
258.2110657154554
 31
0.0
100
AcDbText
  0
LINE
  5
157
330
2
100
AcDbEntity
  8
SPECP
 62
     6
100
AcDbLine
 10
153.1991922985668
 20
252.4302005392976
 30
0.0
 11
220.7890432213287
 21
252.4302005392976
 31
0.0
  0
LINE
  5
158
330
2
100
AcDbEntity
  8
SPECP
 62
     6
100
AcDbLine
 10
153.1991922985668
 20
264.348175831299
 30
0.0
 11
220.7890432213287
 21
264.348175831299
 31
0.0
  0
TEXT
  5
159
330
2
100
AcDbEntity
  8
SPECD
 62
     6
100
AcDbText
 10
156.7697410973506
 20
215.6361502986445
 30
0.0
 40
5.0
  1
COMPRISING SLEEVE AND DOWEL COMPONENT
  7
ROMANS
 72
     4
 11
244.7459315735411
 21
218.1361502986445
 31
0.0
100
AcDbText
  0
TEXT
  5
15A
330
2
100
AcDbEntity
  8
SPECD
 62
     6
100
AcDbText
 10
158.4686537837014
 20
185.6510200100833
 30
0.0
 40
5.0
  1
LOAD OF ??? kN
  7
ROMANS
 72
     4
 11
191.087701402749
 21
188.1510200100833
 31
0.0
100
AcDbText
  0
LINE
  5
15B
330
2
100
AcDbEntity
  8
SPECD
 62
     6
100
AcDbLine
 10
153.1991922985668
 20
234.9816621642051
 30
0.0
 11
153.1991922985668
 21
181.9479695786547
 31
0.0
  0
LINE
  5
15C
330
2
100
AcDbEntity
  8
SPECP
 62
     6
100
AcDbLine
 10
153.1991922985668
 20
264.348175831299
 30
0.0
 11
153.1991922985668
 21
252.4302005392976
 31
0.0
  0
LINE
  5
15D
330
2
100
AcDbEntity
  8
SPECP
 62
     6
100
AcDbLine
 10
220.7890432213287
 20
264.348175831299
 30
0.0
 11
220.7890432213287
 21
252.4302005392976
 31
0.0
  0
DIMENSION
  5
15E
330
2
100
AcDbEntity
  8
DIMS
100
AcDbDimension
  2
*D3
 10
398.1753285103582
 20
79.99999999999994
 30
0.0
 11
394.5753285103581
 21
65.74999999999997
 31
0.0
 71
     5
 42
-1.0
  3
1-2
100
AcDbAlignedDimension
 13
350.0
 23
51.5
 33
0.0
 14
365.0
 24
79.99999999999994
 34
0.0
 50
90.0
100
AcDbRotatedDimension
  0
LINE
  5
16B
330
2
100
AcDbEntity
  8
ANCON-DSD
100
AcDbLine
 10
355.0
 20
52.49999999999994
 30
0.0
 11
355.0
 21
107.4999999999999
 31
0.0
  0
LINE
  5
16C
330
2
100
AcDbEntity
  8
ANCON-DSD
100
AcDbLine
 10
350.0
 20
51.5
 30
0.0
 11
350.0
 21
108.4999999999999
 31
0.0
  0
LINE
  5
16D
330
2
100
AcDbEntity
  8
ANCON-DSD
100
AcDbLine
 10
355.0
 20
52.49999999999994
 30
0.0
 11
350.0
 21
52.49999999999994
 31
0.0
  0
LINE
  5
16E
330
2
100
AcDbEntity
  8
ANCON-DSD
100
AcDbLine
 10
355.0
 20
107.4999999999999
 30
0.0
 11
350.0000000000002
 21
107.4999999999999
 31
0.0
  0
LINE
  5
16F
330
2
100
AcDbEntity
  8
SPECD
 62
     6
100
AcDbLine
 10
355.6861424052072
 20
234.9816621642051
 30
0.0
 11
355.6861424052072
 21
181.9479695786547
 31
0.0
  0
ENDSEC
  0
SECTION
  2
OBJECTS
  0
DICTIONARY
  5
26
330
0
100
AcDbDictionary
281
     1
  3
ACAD_GROUP
350
22
  3
ACAD_LAYOUT
350
173
  3
ACAD_MLINESTYLE
350
23
  3
ACAD_PLOTSETTINGS
350
174
  3
ACAD_PLOTSTYLENAME
350
171
  0
DICTIONARY
  5
3
330
2
100
AcDbDictionary
280
     1
281
     1
  3
ACAD_LAYOUTSELFREF
360
1A4
  0
DICTIONARY
  5
B
330
A
100
AcDbDictionary
280
     1
281
     1
  3
ACAD_LAYOUTSELFREF
360
1A5
  0
DICTIONARY
  5
22
102
{ACAD_REACTORS
330
26
102
}
330
26
100
AcDbDictionary
281
     1
  0
DICTIONARY
  5
173
102
{ACAD_REACTORS
330
26
102
}
330
26
100
AcDbDictionary
281
     1
  3
Layout1
350
176
  3
Model
350
175
  0
DICTIONARY
  5
23
102
{ACAD_REACTORS
330
26
102
}
330
26
100
AcDbDictionary
281
     1
  3
Standard
350
29
  0
DICTIONARY
  5
174
102
{ACAD_REACTORS
330
26
102
}
330
26
100
AcDbDictionary
281
     1
  0
ACDBDICTIONARYWDFLT
  5
171
102
{ACAD_REACTORS
330
26
102
}
330
26
100
AcDbDictionary
281
     1
  3
Normal
350
172
100
AcDbDictionaryWithDefault
340
172
  0
XRECORD
  5
1A4
102
{ACAD_REACTORS
330
3
102
}
330
3
100
AcDbXrecord
280
     1
340
2
  0
XRECORD
  5
1A5
102
{ACAD_REACTORS
330
B
102
}
330
B
100
AcDbXrecord
280
     1
340
A
  0
LAYOUT
  5
176
102
{ACAD_REACTORS
330
173
102
}
330
173
100
AcDbPlotSettings
  1

  2
None
  4

  6

 40
0.0
 41
0.0
 42
0.0
 43
0.0
 44
0.0
 45
0.0
 46
0.0
 47
0.0
 48
0.0
 49
0.0
140
0.0
141
0.0
142
1.0
143
1.0
 70
   688
 72
     0
 73
     0
 74
     5
  7
Std pen settings.ctb
 75
    16
147
1.0
148
0.0
149
0.0
100
AcDbLayout
  1
Layout1
 70
     1
 71
     1
 10
-0.1979161059762549
 20
-0.1979166691697489
 11
16.34375024029589
 21
11.49541603298637
 12
0.0
 22
0.0
 32
0.0
 14
1.614583349603368
 24
1.129749872553066
 34
0.0
 15
14.5312501464303
 25
10.1677488529776
 35
0.0
146
0.0
 13
0.0
 23
0.0
 33
0.0
 16
1.0
 26
0.0
 36
0.0
 17
0.0
 27
1.0
 37
0.0
 76
     0
330
A
  0
LAYOUT
  5
175
102
{ACAD_REACTORS
330
173
102
}
330
173
100
AcDbPlotSettings
  1

  2
None
  4

  6

 40
0.0
 41
0.0
 42
0.0
 43
0.0
 44
0.0
 45
0.0
 46
0.0
 47
0.0
 48
0.0
 49
0.0
140
0.0
141
0.0
142
1.0
143
1.0
 70
  1712
 72
     0
 73
     0
 74
     0
  7
Std pen settings.ctb
 75
     0
147
1.0
148
0.0
149
0.0
100
AcDbLayout
  1
Model
 70
     1
 71
     0
 10
0.0
 20
0.0
 11
12.0
 21
9.0
 12
0.0
 22
0.0
 32
0.0
 14
0.0
 24
0.0
 34
0.0
 15
0.0
 25
0.0
 35
0.0
146
0.0
 13
0.0
 23
0.0
 33
0.0
 16
1.0
 26
0.0
 36
0.0
 17
0.0
 27
1.0
 37
0.0
 76
     0
330
2
  0
MLINESTYLE
  5
29
102
{ACAD_REACTORS
330
23
102
}
330
23
100
AcDbMlineStyle
  2
STANDARD
 70
     0
  3

 62
   256
 51
90.0
 52
90.0
 71
     2
 49
0.5
 62
   256
  6
BYLAYER
 49
-0.5
 62
   256
  6
BYLAYER
  0
ACDBPLACEHOLDER
  5
172
102
{ACAD_REACTORS
330
171
102
}
330
171
  0
ENDSEC
  0
EOF
