  0
SECTION
  2
HEADER
  9
$ACADVER
  1
AC1015
  9
$ACADMAINTVER
 70
    10
  9
$DWGCODEPAGE
  3
ANSI_1252
  9
$INSBASE
 10
0.0
 20
0.0090602806530171
 30
0.0
  9
$EXTMIN
 10
-226.3332993766102
 20
-144.7641999031492
 30
-0.0000000349181948
  9
$EXTMAX
 10
339.4968012051883
 20
164.4262527597577
 30
0.0000000814935746
  9
$LIMMIN
 10
0.0
 20
0.0
  9
$LIMMAX
 10
420.0
 20
297.0
  9
$ORTHOMODE
 70
     1
  9
$REGENMODE
 70
     1
  9
$FILLMODE
 70
     1
  9
$QTEXTMODE
 70
     0
  9
$MIRRTEXT
 70
     1
  9
$LTSCALE
 40
0.25
  9
$ATTMODE
 70
     1
  9
$TEXTSIZE
 40
5.0
  9
$TRACEWID
 40
10.0
  9
$TEXTSTYLE
  7
ROMANS
  9
$CLAYER
  8
CONCRETE
  9
$CELTYPE
  6
ByLayer
  9
$CECOLOR
 62
     1
  9
$CELTSCALE
 40
1.0
  9
$DISPSILH
 70
     0
  9
$DIMSCALE
 40
0.0
  9
$DIMASZ
 40
4.0
  9
$DIMEXO
 40
3.0
  9
$DIMDLI
 40
10.0
  9
$DIMRND
 40
0.0
  9
$DIMDLE
 40
1.25
  9
$DIMEXE
 40
3.0
  9
$DIMTP
 40
0.0
  9
$DIMTM
 40
0.0
  9
$DIMTXT
 40
3.0
  9
$DIMCEN
 40
-3.0
  9
$DIMTSZ
 40
0.0
  9
$DIMTOL
 70
     0
  9
$DIMLIM
 70
     0
  9
$DIMTIH
 70
     0
  9
$DIMTOH
 70
     0
  9
$DIMSE1
 70
     0
  9
$DIMSE2
 70
     0
  9
$DIMTAD
 70
     1
  9
$DIMZIN
 70
    12
  9
$DIMBLK
  1

  9
$DIMASO
 70
     1
  9
$DIMSHO
 70
     0
  9
$DIMPOST
  1

  9
$DIMAPOST
  1

  9
$DIMALT
 70
     0
  9
$DIMALTD
 70
     2
  9
$DIMALTF
 40
0.039
  9
$DIMLFAC
 40
1.0
  9
$DIMTOFL
 70
     0
  9
$DIMTVP
 40
1.5
  9
$DIMTIX
 70
     0
  9
$DIMSOXD
 70
     0
  9
$DIMSAH
 70
     0
  9
$DIMBLK1
  1

  9
$DIMBLK2
  1

  9
$DIMSTYLE
  2
1-2
  9
$DIMCLRD
 70
     0
  9
$DIMCLRE
 70
     0
  9
$DIMCLRT
 70
     0
  9
$DIMTFAC
 40
0.75
  9
$DIMGAP
 40
1.5
  9
$DIMJUST
 70
     0
  9
$DIMSD1
 70
     0
  9
$DIMSD2
 70
     0
  9
$DIMTOLJ
 70
     1
  9
$DIMTZIN
 70
    12
  9
$DIMALTZ
 70
    12
  9
$DIMALTTZ
 70
    12
  9
$DIMUPT
 70
     0
  9
$DIMDEC
 70
     2
  9
$DIMTDEC
 70
     2
  9
$DIMALTU
 70
     2
  9
$DIMALTTD
 70
     2
  9
$DIMTXSTY
  7
STANDARD
  9
$DIMAUNIT
 70
     0
  9
$DIMADEC
 70
     0
  9
$DIMALTRND
 40
0.0
  9
$DIMAZIN
 70
     0
  9
$DIMDSEP
 70
    46
  9
$DIMATFIT
 70
     3
  9
$DIMFRAC
 70
     0
  9
$DIMLDRBLK
  1

  9
$DIMLUNIT
 70
     2
  9
$DIMLWD
 70
    -2
  9
$DIMLWE
 70
    -2
  9
$DIMTMOVE
 70
     2
  9
$LUNITS
 70
     2
  9
$LUPREC
 70
     2
  9
$SKETCHINC
 40
1.0
  9
$FILLETRAD
 40
0.0
  9
$AUNITS
 70
     0
  9
$AUPREC
 70
     4
  9
$MENU
  1
acad
  9
$ELEVATION
 40
0.0
  9
$PELEVATION
 40
0.0
  9
$THICKNESS
 40
0.0
  9
$LIMCHECK
 70
     0
  9
$CHAMFERA
 40
0.0
  9
$CHAMFERB
 40
0.0
  9
$CHAMFERC
 40
0.0
  9
$CHAMFERD
 40
0.0
  9
$SKPOLY
 70
     0
  9
$TDCREATE
 40
2449527.571155092
  9
$TDUCREATE
 40
2449527.529488425
  9
$TDUPDATE
 40
2452498.552607639
  9
$TDUUPDATE
 40
2452498.510940972
  9
$TDINDWG
 40
0.2524222222
  9
$TDUSRTIMER
 40
0.2524222222
  9
$USRTIMER
 70
     1
  9
$ANGBASE
 50
0.0
  9
$ANGDIR
 70
     0
  9
$PDMODE
 70
     0
  9
$PDSIZE
 40
0.0
  9
$PLINEWID
 40
0.0
  9
$SPLFRAME
 70
     0
  9
$SPLINETYPE
 70
     6
  9
$SPLINESEGS
 70
     8
  9
$HANDSEED
  5
1AD
  9
$SURFTAB1
 70
    18
  9
$SURFTAB2
 70
    18
  9
$SURFTYPE
 70
     6
  9
$SURFU
 70
    18
  9
$SURFV
 70
    18
  9
$UCSBASE
  2

  9
$UCSNAME
  2

  9
$UCSORG
 10
0.0
 20
0.0
 30
0.0
  9
$UCSXDIR
 10
1.0
 20
0.0
 30
0.0
  9
$UCSYDIR
 10
0.0
 20
1.0
 30
0.0
  9
$UCSORTHOREF
  2

  9
$UCSORTHOVIEW
 70
     0
  9
$UCSORGTOP
 10
0.0
 20
0.0
 30
0.0
  9
$UCSORGBOTTOM
 10
0.0
 20
0.0
 30
0.0
  9
$UCSORGLEFT
 10
0.0
 20
0.0
 30
0.0
  9
$UCSORGRIGHT
 10
0.0
 20
0.0
 30
0.0
  9
$UCSORGFRONT
 10
0.0
 20
0.0
 30
0.0
  9
$UCSORGBACK
 10
0.0
 20
0.0
 30
0.0
  9
$PUCSBASE
  2

  9
$PUCSNAME
  2

  9
$PUCSORG
 10
0.0
 20
0.0
 30
0.0
  9
$PUCSXDIR
 10
1.0
 20
0.0
 30
0.0
  9
$PUCSYDIR
 10
0.0
 20
1.0
 30
0.0
  9
$PUCSORTHOREF
  2

  9
$PUCSORTHOVIEW
 70
     0
  9
$PUCSORGTOP
 10
0.0
 20
0.0
 30
0.0
  9
$PUCSORGBOTTOM
 10
0.0
 20
0.0
 30
0.0
  9
$PUCSORGLEFT
 10
0.0
 20
0.0
 30
0.0
  9
$PUCSORGRIGHT
 10
0.0
 20
0.0
 30
0.0
  9
$PUCSORGFRONT
 10
0.0
 20
0.0
 30
0.0
  9
$PUCSORGBACK
 10
0.0
 20
0.0
 30
0.0
  9
$USERI1
 70
     0
  9
$USERI2
 70
     0
  9
$USERI3
 70
     0
  9
$USERI4
 70
     0
  9
$USERI5
 70
     0
  9
$USERR1
 40
0.0
  9
$USERR2
 40
0.0
  9
$USERR3
 40
0.0
  9
$USERR4
 40
0.0
  9
$USERR5
 40
0.0
  9
$WORLDVIEW
 70
     1
  9
$SHADEDGE
 70
     3
  9
$SHADEDIF
 70
    70
  9
$TILEMODE
 70
     1
  9
$MAXACTVP
 70
    16
  9
$PINSBASE
 10
0.0
 20
0.0
 30
0.0
  9
$PLIMCHECK
 70
     0
  9
$PEXTMIN
 10
1.614583349603368
 20
1.129749872553066
 30
0.0
  9
$PEXTMAX
 10
14.5312501464303
 20
10.1677488529776
 30
0.0
  9
$PLIMMIN
 10
-0.1979161059762549
 20
-0.1979166691697489
  9
$PLIMMAX
 10
16.34375024029589
 20
11.49541603298637
  9
$UNITMODE
 70
     0
  9
$VISRETAIN
 70
     0
  9
$PLINEGEN
 70
     0
  9
$PSLTSCALE
 70
     1
  9
$TREEDEPTH
 70
  3020
  9
$CMLSTYLE
  2
Standard
  9
$CMLJUST
 70
     0
  9
$CMLSCALE
 40
1.0
  9
$PROXYGRAPHICS
 70
     1
  9
$MEASUREMENT
 70
     0
  9
$CELWEIGHT
370
    -1
  9
$ENDCAPS
280
     0
  9
$JOINSTYLE
280
     0
  9
$LWDISPLAY
290
     0
  9
$INSUNITS
 70
     0
  9
$HYPERLINKBASE
  1

  9
$STYLESHEET
  1

  9
$XEDIT
290
     1
  9
$CEPSNTYPE
380
     0
  9
$PSTYLEMODE
290
     1
  9
$FINGERPRINTGUID
  2
{2EF155D2-F0FB-425F-AB49-177A6C3906EC}
  9
$VERSIONGUID
  2
{627E2908-AD1D-11D6-AAC6-0010A4A25215}
  9
$EXTNAMES
290
     1
  9
$PSVPSCALE
 40
0.0
  9
$OLESTARTUP
290
     0
  0
ENDSEC
  0
SECTION
  2
CLASSES
  0
CLASS
  1
ACDBDICTIONARYWDFLT
  2
AcDbDictionaryWithDefault
  3
AutoCAD 2000
 90
        0
280
     1
281
     0
  0
CLASS
  1
ACDBPLACEHOLDER
  2
AcDbPlaceHolder
  3
AutoCAD 2000
 90
        0
280
     1
281
     0
  0
CLASS
  1
LAYOUT
  2
AcDbLayout
  3
AutoCAD 2000
 90
        0
280
     1
281
     0
  0
CLASS
  1
LONG_TRANSACTION
  2
AcDbLongTransaction
  3
AutoCAD 2000
 90
    32768
280
     1
281
     0
  0
CLASS
  1
LWPOLYLINE
  2
AcDbPolyline
  3
AutoCAD 2000
 90
    32768
280
     0
281
     1
  0
CLASS
  1
HATCH
  2
AcDbHatch
  3
AutoCAD 2000
 90
    32768
280
     0
281
     1
  0
CLASS
  1
XRECORD
  2
AcDbXrecord
  3
AutoCAD 2000
 90
    32768
280
     0
281
     0
  0
CLASS
  1
LONG_TRANSACTION
  2
AcDbLongTransaction
  3
AutoCAD 2000
 90
    32768
280
     0
281
     0
  0
CLASS
  1
LWPOLYLINE
  2
AcDbPolyline
  3
AutoCAD 2000
 90
    32768
280
     0
281
     1
  0
CLASS
  1
HATCH
  2
AcDbHatch
  3
AutoCAD 2000
 90
    32768
280
     0
281
     1
  0
CLASS
  1
XRECORD
  2
AcDbXrecord
  3
AutoCAD 2000
 90
    32768
280
     0
281
     0
  0
ENDSEC
  0
SECTION
  2
TABLES
  0
TABLE
  2
VPORT
  5
1C
330
0
100
AcDbSymbolTable
 70
     3
  0
VPORT
  5
1AC
330
1C
100
AcDbSymbolTableRecord
100
AcDbViewportTableRecord
  2
*Active
 70
     0
 10
0.0
 20
0.0
 11
1.0
 21
1.0
 12
56.58175091428905
 22
9.831026428304255
 13
0.0
 23
0.0
 14
5.0
 24
5.0
 15
10.0
 25
10.0
 16
0.0
 26
0.0
 36
1.0
 17
0.0
 27
0.0
 37
0.0
 40
323.3153473797543
 41
1.760948905109489
 42
50.0
 43
0.0
 44
0.0
 50
0.0
 51
0.0
 71
     0
 72
   100
 73
     1
 74
     1
 75
     0
 76
     0
 77
     0
 78
     0
281
     0
 65
     1
110
0.0
120
0.0
130
0.0
111
1.0
121
0.0
131
0.0
112
0.0
122
1.0
132
0.0
 79
     0
146
0.0
  0
ENDTAB
  0
TABLE
  2
LTYPE
  5
13
330
0
100
AcDbSymbolTable
 70
     3
  0
LTYPE
  5
14
330
13
100
AcDbSymbolTableRecord
100
AcDbLinetypeTableRecord
  2
ByBlock
 70
     0
  3

 72
    65
 73
     0
 40
0.0
  0
LTYPE
  5
17
330
13
100
AcDbSymbolTableRecord
100
AcDbLinetypeTableRecord
  2
ByLayer
 70
     0
  3

 72
    65
 73
     0
 40
0.0
  0
LTYPE
  5
8
330
13
100
AcDbSymbolTableRecord
100
AcDbLinetypeTableRecord
  2
CONTINUOUS
 70
     0
  3
Solid line
 72
    65
 73
     0
 40
0.0
  0
LTYPE
  5
57
330
13
100
AcDbSymbolTableRecord
100
AcDbLinetypeTableRecord
  2
CENTER2
 70
     0
  3
___ _ ___ _ ___ _ ___ _ ___ _ ___ _ ___ _ ___ _
 72
    65
 73
     4
 40
28.57499999999999
 49
19.05
 74
     0
 49
-3.174999999999999
 74
     0
 49
3.174999999999999
 74
     0
 49
-3.174999999999999
 74
     0
  0
LTYPE
  5
52
330
13
100
AcDbSymbolTableRecord
100
AcDbLinetypeTableRecord
  2
HIDDEN
 70
     0
  3
__ __ __ __ __ __ __ __ __ __ __ __ __ __ __ __
 72
    65
 73
     2
 40
9.524999999999998
 49
6.349999999999999
 74
     0
 49
-3.174999999999999
 74
     0
  0
ENDTAB
  0
TABLE
  2
LAYER
  5
10
330
0
100
AcDbSymbolTable
 70
    10
  0
LAYER
  5
7
330
10
100
AcDbSymbolTableRecord
100
AcDbLayerTableRecord
  2
0
 70
     0
 62
     7
  6
CONTINUOUS
370
    -3
390
16B
  0
LAYER
  5
2E
330
10
100
AcDbSymbolTableRecord
100
AcDbLayerTableRecord
  2
DIMS
 70
     0
 62
     1
  6
CONTINUOUS
370
    -3
390
16B
  0
LAYER
  5
3F
330
10
100
AcDbSymbolTableRecord
100
AcDbLayerTableRecord
  2
ANCON-DSD
 70
     0
 62
     3
  6
CONTINUOUS
370
    -3
390
16B
  0
LAYER
  5
37
330
10
100
AcDbSymbolTableRecord
100
AcDbLayerTableRecord
  2
DEFPOINTS
 70
     0
 62
     7
  6
CONTINUOUS
290
     0
370
    -3
390
16B
  0
LAYER
  5
27
330
10
100
AcDbSymbolTableRecord
100
AcDbLayerTableRecord
  2
CONCRETE
 70
     0
 62
     2
  6
CONTINUOUS
370
    -3
390
16B
  0
LAYER
  5
BA
330
10
100
AcDbSymbolTableRecord
100
AcDbLayerTableRecord
  2
ORIGIN
 70
     0
 62
     7
  6
CONTINUOUS
370
    -3
390
16B
  0
LAYER
  5
51
330
10
100
AcDbSymbolTableRecord
100
AcDbLayerTableRecord
  2
20MM-JOINT
 70
     0
 62
     7
  6
CONTINUOUS
370
    -3
390
16B
  0
LAYER
  5
162
330
10
100
AcDbSymbolTableRecord
100
AcDbLayerTableRecord
  2
SPECP
 70
     0
 62
     6
  6
CONTINUOUS
370
    -3
390
16B
  0
LAYER
  5
73
330
10
100
AcDbSymbolTableRecord
100
AcDbLayerTableRecord
  2
SPECD
 70
     0
 62
     6
  6
CONTINUOUS
370
    -3
390
16B
  0
LAYER
  5
7E
330
10
100
AcDbSymbolTableRecord
100
AcDbLayerTableRecord
  2
20MM-DIMS
 70
     0
 62
     1
  6
CONTINUOUS
370
    -3
390
16B
  0
ENDTAB
  0
TABLE
  2
STYLE
  5
11
330
0
100
AcDbSymbolTable
 70
     2
  0
STYLE
  5
12
330
11
100
AcDbSymbolTableRecord
100
AcDbTextStyleTableRecord
  2
STANDARD
 70
     0
 40
0.0
 41
1.0
 50
0.0
 71
     0
 42
6.0
  3
txt.shx
  4

  0
STYLE
  5
28
330
11
100
AcDbSymbolTableRecord
100
AcDbTextStyleTableRecord
  2
ROMANS
 70
     0
 40
0.0
 41
1.0
 50
0.0
 71
     0
 42
5.0
  3
romans
  4

  0
ENDTAB
  0
TABLE
  2
VIEW
  5
1A
330
0
100
AcDbSymbolTable
 70
     0
  0
ENDTAB
  0
TABLE
  2
UCS
  5
1B
330
0
100
AcDbSymbolTable
 70
     0
  0
ENDTAB
  0
TABLE
  2
APPID
  5
1E
330
0
100
AcDbSymbolTable
 70
     1
  0
APPID
  5
1F
330
1E
100
AcDbSymbolTableRecord
100
AcDbRegAppTableRecord
  2
ACAD
 70
     0
  0
ENDTAB
  0
TABLE
  2
DIMSTYLE
  5
20
330
0
100
AcDbSymbolTable
 70
     1
100
AcDbDimStyleTable
 71
     0
  0
DIMSTYLE
105
2A
102
{ACAD_REACTORS
330
5B
330
13D
330
C8
330
BB
330
D7
330
7D
330
A8
330
43
330
130
330
9A
330
ED
330
2D
330
121
330
110
102
}
330
20
100
AcDbSymbolTableRecord
100
AcDbDimStyleTableRecord
  2
1-2
 70
     0
 40
0.0
 41
4.0
 42
3.0
 43
10.0
 44
3.0
 46
1.25
 73
     0
 74
     0
 77
     1
 78
    12
140
3.0
141
-3.0
143
0.039
145
1.5
146
0.75
147
1.5
271
     2
272
     2
279
     2
284
    12
285
    12
286
    12
340
12
  0
ENDTAB
  0
TABLE
  2
BLOCK_RECORD
  5
1
330
0
100
AcDbSymbolTable
 70
    15
  0
BLOCK_RECORD
  5
2
102
{ACAD_XDICTIONARY
360
3
102
}
330
1
100
AcDbSymbolTableRecord
100
AcDbBlockTableRecord
  2
*Model_Space
340
16E
  0
BLOCK_RECORD
  5
A
102
{ACAD_XDICTIONARY
360
B
102
}
330
1
100
AcDbSymbolTableRecord
100
AcDbBlockTableRecord
  2
*Paper_Space
340
16F
  0
BLOCK_RECORD
  5
13E
330
1
100
AcDbSymbolTableRecord
100
AcDbBlockTableRecord
  2
*D0
340
0
  0
BLOCK_RECORD
  5
C9
330
1
100
AcDbSymbolTableRecord
100
AcDbBlockTableRecord
  2
*D1
340
0
  0
BLOCK_RECORD
  5
BC
330
1
100
AcDbSymbolTableRecord
100
AcDbBlockTableRecord
  2
*D2
340
0
  0
BLOCK_RECORD
  5
D8
330
1
100
AcDbSymbolTableRecord
100
AcDbBlockTableRecord
  2
*D3
340
0
  0
BLOCK_RECORD
  5
44
330
1
100
AcDbSymbolTableRecord
100
AcDbBlockTableRecord
  2
*D4
340
0
  0
BLOCK_RECORD
  5
131
330
1
100
AcDbSymbolTableRecord
100
AcDbBlockTableRecord
  2
*D5
340
0
  0
BLOCK_RECORD
  5
EE
330
1
100
AcDbSymbolTableRecord
100
AcDbBlockTableRecord
  2
*D6
340
0
  0
BLOCK_RECORD
  5
5C
330
1
100
AcDbSymbolTableRecord
100
AcDbBlockTableRecord
  2
*D7
340
0
  0
BLOCK_RECORD
  5
2F
330
1
100
AcDbSymbolTableRecord
100
AcDbBlockTableRecord
  2
*D8
340
0
  0
BLOCK_RECORD
  5
122
330
1
100
AcDbSymbolTableRecord
100
AcDbBlockTableRecord
  2
*D9
340
0
  0
BLOCK_RECORD
  5
111
330
1
100
AcDbSymbolTableRecord
100
AcDbBlockTableRecord
  2
*D10
340
0
  0
BLOCK_RECORD
  5
9B
330
1
100
AcDbSymbolTableRecord
100
AcDbBlockTableRecord
  2
*D11
340
0
  0
BLOCK_RECORD
  5
7F
330
1
100
AcDbSymbolTableRecord
100
AcDbBlockTableRecord
  2
*D12
340
0
  0
BLOCK_RECORD
  5
A9
330
1
100
AcDbSymbolTableRecord
100
AcDbBlockTableRecord
  2
*D13
340
0
  0
BLOCK_RECORD
  5
71
330
1
100
AcDbSymbolTableRecord
100
AcDbBlockTableRecord
  2
A$C6BE937E7
340
0
  0
ENDTAB
  0
ENDSEC
  0
SECTION
  2
BLOCKS
  0
BLOCK
  5
6
330
2
100
AcDbEntity
  8
0
 62
     1
100
AcDbBlockBegin
  2
*Model_Space
 70
     0
 10
0.0
 20
0.0
 30
0.0
  3
*Model_Space
  1

  0
ENDBLK
  5
9
330
2
100
AcDbEntity
  8
0
 62
     1
100
AcDbBlockEnd
  0
BLOCK
  5
E
330
A
100
AcDbEntity
 67
     1
  8
0
 62
     1
100
AcDbBlockBegin
  2
*Paper_Space
 70
     0
 10
0.0
 20
0.0
 30
0.0
  3
*Paper_Space
  1

  0
ENDBLK
  5
F
330
A
100
AcDbEntity
 67
     1
  8
0
 62
     1
100
AcDbBlockEnd
  0
BLOCK
  5
148
330
13E
100
AcDbEntity
  8
0
100
AcDbBlockBegin
  2
*D0
 70
     1
 10
0.0
 20
0.0
 30
0.0
  3
*D0
  1

  0
LINE
  5
13F
330
13E
100
AcDbEntity
  8
0
  6
ByBlock
 62
     0
100
AcDbLine
 10
141.6754711809827
 20
-23.99999999999988
 30
0.0
 11
181.1211112767737
 21
-23.99999999999988
 31
0.0
  0
LINE
  5
140
330
13E
100
AcDbEntity
  8
0
  6
ByBlock
 62
     0
100
AcDbLine
 10
141.6754711809827
 20
24.00000000000011
 30
0.0
 11
181.1211112767737
 21
24.00000000000011
 31
0.0
  0
LINE
  5
141
330
13E
100
AcDbEntity
  8
0
  6
ByBlock
 62
     0
100
AcDbLine
 10
178.1211112767737
 20
-19.99999999999988
 30
0.0
 11
178.1211112767737
 21
20.00000000000011
 31
0.0
  0
SOLID
  5
142
330
13E
100
AcDbEntity
  8
0
  6
ByBlock
 62
     0
100
AcDbTrace
 10
177.454444610107
 20
-19.99999999999988
 30
0.0
 11
178.7877779434403
 21
-19.99999999999988
 31
0.0
 12
178.1211112767737
 22
-23.99999999999988
 32
0.0
 13
178.1211112767737
 23
-23.99999999999988
 33
0.0
  0
SOLID
  5
143
330
13E
100
AcDbEntity
  8
0
  6
ByBlock
 62
     0
100
AcDbTrace
 10
177.454444610107
 20
20.00000000000011
 30
0.0
 11
178.7877779434403
 21
20.00000000000011
 31
0.0
 12
178.1211112767737
 22
24.00000000000011
 32
0.0
 13
178.1211112767737
 23
24.00000000000011
 33
0.0
  0
TEXT
  5
144
330
13E
100
AcDbEntity
  8
0
  6
ByBlock
 62
     0
100
AcDbText
 10
176.6211112767737
 20
-2.857142857142743
 30
0.0
 40
3.0
  1
48
 50
90.0
  7
ROMANS
 72
     1
 11
175.1211112767737
 21
0.0000000000001137
 31
0.0
100
AcDbText
 73
     2
  0
POINT
  5
145
330
13E
100
AcDbEntity
  8
DEFPOINTS
  6
ByBlock
 62
     0
100
AcDbPoint
 10
138.6754711809827
 20
-23.99999999999988
 30
0.0
  0
POINT
  5
146
330
13E
100
AcDbEntity
  8
DEFPOINTS
  6
ByBlock
 62
     0
100
AcDbPoint
 10
138.6754711809827
 20
24.00000000000011
 30
0.0
  0
POINT
  5
147
330
13E
100
AcDbEntity
  8
DEFPOINTS
  6
ByBlock
 62
     0
100
AcDbPoint
 10
178.1211112767737
 20
24.00000000000011
 30
0.0
  0
ENDBLK
  5
149
330
13E
100
AcDbEntity
  8
0
100
AcDbBlockEnd
  0
BLOCK
  5
D3
330
C9
100
AcDbEntity
  8
0
100
AcDbBlockBegin
  2
*D1
 70
     1
 10
0.0
 20
0.0
 30
0.0
  3
*D1
  1

  0
LINE
  5
CA
330
C9
100
AcDbEntity
  8
0
  6
ByBlock
 62
     0
100
AcDbLine
 10
-80.99999999999992
 20
-12.17572101688975
 30
0.0
 11
-80.99999999999992
 21
-82.48556520284353
 31
0.0
  0
LINE
  5
CB
330
C9
100
AcDbEntity
  8
0
  6
ByBlock
 62
     0
100
AcDbLine
 10
-50.99999999999991
 20
-12.17572101688975
 30
0.0
 11
-50.99999999999991
 21
-82.48556520284353
 31
0.0
  0
LINE
  5
CC
330
C9
100
AcDbEntity
  8
0
  6
ByBlock
 62
     0
100
AcDbLine
 10
-76.99999999999992
 20
-79.48556520284353
 30
0.0
 11
-54.99999999999992
 21
-79.48556520284353
 31
0.0
  0
SOLID
  5
CD
330
C9
100
AcDbEntity
  8
0
  6
ByBlock
 62
     0
100
AcDbTrace
 10
-76.99999999999992
 20
-78.81889853617686
 30
0.0
 11
-76.99999999999992
 21
-80.1522318695102
 31
0.0
 12
-80.99999999999992
 22
-79.48556520284353
 32
0.0
 13
-80.99999999999992
 23
-79.48556520284353
 33
0.0
  0
SOLID
  5
CE
330
C9
100
AcDbEntity
  8
0
  6
ByBlock
 62
     0
100
AcDbTrace
 10
-54.99999999999992
 20
-78.81889853617686
 30
0.0
 11
-54.99999999999992
 21
-80.1522318695102
 31
0.0
 12
-50.99999999999991
 22
-79.48556520284353
 32
0.0
 13
-50.99999999999991
 23
-79.48556520284353
 33
0.0
  0
TEXT
  5
CF
330
C9
100
AcDbEntity
  8
0
  6
ByBlock
 62
     0
100
AcDbText
 10
-68.85714285714278
 20
-77.98556520284353
 30
0.0
 40
3.0
  1
30
  7
ROMANS
 72
     1
 11
-65.99999999999991
 21
-76.48556520284353
 31
0.0
100
AcDbText
 73
     2
  0
POINT
  5
D0
330
C9
100
AcDbEntity
  8
DEFPOINTS
  6
ByBlock
 62
     0
100
AcDbPoint
 10
-80.99999999999992
 20
-9.175721016889752
 30
0.0
  0
POINT
  5
D1
330
C9
100
AcDbEntity
  8
DEFPOINTS
  6
ByBlock
 62
     0
100
AcDbPoint
 10
-50.99999999999991
 20
-9.175721016889752
 30
0.0
  0
POINT
  5
D2
330
C9
100
AcDbEntity
  8
DEFPOINTS
  6
ByBlock
 62
     0
100
AcDbPoint
 10
-50.99999999999991
 20
-79.48556520284353
 30
0.0
  0
ENDBLK
  5
D4
330
C9
100
AcDbEntity
  8
0
100
AcDbBlockEnd
  0
BLOCK
  5
C6
330
BC
100
AcDbEntity
  8
0
100
AcDbBlockBegin
  2
*D2
 70
     1
 10
0.0
 20
0.0
 30
0.0
  3
*D2
  1

  0
LINE
  5
BD
330
BC
100
AcDbEntity
  8
0
  6
ByBlock
 62
     0
100
AcDbLine
 10
-50.99999999999991
 20
-12.17572101688975
 30
0.0
 11
-50.99999999999991
 21
-82.48556520284353
 31
0.0
  0
LINE
  5
BE
330
BC
100
AcDbEntity
  8
0
  6
ByBlock
 62
     0
100
AcDbLine
 10
-25.00000000000003
 20
-43.00000000000003
 30
0.0
 11
-25.00000000000003
 21
-82.48556520284353
 31
0.0
  0
LINE
  5
BF
330
BC
100
AcDbEntity
  8
0
  6
ByBlock
 62
     0
100
AcDbLine
 10
-46.99999999999991
 20
-79.48556520284353
 30
0.0
 11
-29.00000000000003
 21
-79.48556520284353
 31
0.0
  0
SOLID
  5
C0
330
BC
100
AcDbEntity
  8
0
  6
ByBlock
 62
     0
100
AcDbTrace
 10
-46.99999999999991
 20
-78.81889853617686
 30
0.0
 11
-46.99999999999991
 21
-80.1522318695102
 31
0.0
 12
-50.99999999999991
 22
-79.48556520284353
 32
0.0
 13
-50.99999999999991
 23
-79.48556520284353
 33
0.0
  0
SOLID
  5
C1
330
BC
100
AcDbEntity
  8
0
  6
ByBlock
 62
     0
100
AcDbTrace
 10
-29.00000000000003
 20
-78.81889853617686
 30
0.0
 11
-29.00000000000003
 21
-80.1522318695102
 31
0.0
 12
-25.00000000000003
 22
-79.48556520284353
 32
0.0
 13
-25.00000000000003
 23
-79.48556520284353
 33
0.0
  0
TEXT
  5
C2
330
BC
100
AcDbEntity
  8
0
  6
ByBlock
 62
     0
100
AcDbText
 10
-40.85714285714282
 20
-77.98556520284353
 30
0.0
 40
3.0
  1
26
  7
ROMANS
 72
     1
 11
-37.99999999999997
 21
-76.48556520284353
 31
0.0
100
AcDbText
 73
     2
  0
POINT
  5
C3
330
BC
100
AcDbEntity
  8
DEFPOINTS
  6
ByBlock
 62
     0
100
AcDbPoint
 10
-50.99999999999991
 20
-9.175721016889752
 30
0.0
  0
POINT
  5
C4
330
BC
100
AcDbEntity
  8
DEFPOINTS
  6
ByBlock
 62
     0
100
AcDbPoint
 10
-25.00000000000003
 20
-40.00000000000002
 30
0.0
  0
POINT
  5
C5
330
BC
100
AcDbEntity
  8
DEFPOINTS
  6
ByBlock
 62
     0
100
AcDbPoint
 10
-25.00000000000003
 20
-79.48556520284353
 30
0.0
  0
ENDBLK
  5
C7
330
BC
100
AcDbEntity
  8
0
100
AcDbBlockEnd
  0
BLOCK
  5
E4
330
D8
100
AcDbEntity
  8
0
100
AcDbBlockBegin
  2
*D3
 70
     1
 10
0.0
 20
0.0
 30
0.0
  3
*D3
  1

  0
LINE
  5
D9
330
D8
100
AcDbEntity
  8
0
  6
ByBlock
 62
     0
100
AcDbLine
 10
-25.00000000000003
 20
-43.00000000000003
 30
0.0
 11
-25.00000000000003
 21
-82.48556520284353
 31
0.0
  0
LINE
  5
DA
330
D8
100
AcDbEntity
  8
0
  6
ByBlock
 62
     0
100
AcDbLine
 10
-19.99999999999997
 20
-43.00000000000003
 30
0.0
 11
-19.99999999999997
 21
-82.48556520284353
 31
0.0
  0
LINE
  5
DB
330
D8
100
AcDbEntity
  8
0
  6
ByBlock
 62
     0
100
AcDbLine
 10
-29.00000000000003
 20
-79.48556520284353
 30
0.0
 11
-33.00000000000002
 21
-79.48556520284353
 31
0.0
  0
LINE
  5
DC
330
D8
100
AcDbEntity
  8
0
  6
ByBlock
 62
     0
100
AcDbLine
 10
-15.99999999999997
 20
-79.48556520284353
 30
0.0
 11
-11.99999999999997
 21
-79.48556520284353
 31
0.0
  0
LINE
  5
DD
330
D8
100
AcDbEntity
  8
0
  6
ByBlock
 62
     0
100
AcDbLine
 10
-11.99999999999997
 20
-79.48556520284353
 30
0.0
 11
-8.499999999999971
 21
-79.48556520284353
 31
0.0
  0
SOLID
  5
DE
330
D8
100
AcDbEntity
  8
0
  6
ByBlock
 62
     0
100
AcDbTrace
 10
-29.00000000000003
 20
-78.81889853617686
 30
0.0
 11
-29.00000000000003
 21
-80.1522318695102
 31
0.0
 12
-25.00000000000003
 22
-79.48556520284353
 32
0.0
 13
-25.00000000000003
 23
-79.48556520284353
 33
0.0
  0
SOLID
  5
DF
330
D8
100
AcDbEntity
  8
0
  6
ByBlock
 62
     0
100
AcDbTrace
 10
-15.99999999999997
 20
-78.81889853617686
 30
0.0
 11
-15.99999999999997
 21
-80.1522318695102
 31
0.0
 12
-19.99999999999997
 22
-79.48556520284353
 32
0.0
 13
-19.99999999999997
 23
-79.48556520284353
 33
0.0
  0
TEXT
  5
E0
330
D8
100
AcDbEntity
  8
0
  6
ByBlock
 62
     0
100
AcDbText
 10
-10.9285714285714
 20
-77.98556520284353
 30
0.0
 40
3.0
  1
5
  7
ROMANS
 72
     1
 11
-9.499999999999971
 21
-76.48556520284353
 31
0.0
100
AcDbText
 73
     2
  0
POINT
  5
E1
330
D8
100
AcDbEntity
  8
DEFPOINTS
  6
ByBlock
 62
     0
100
AcDbPoint
 10
-25.00000000000003
 20
-40.00000000000002
 30
0.0
  0
POINT
  5
E2
330
D8
100
AcDbEntity
  8
DEFPOINTS
  6
ByBlock
 62
     0
100
AcDbPoint
 10
-19.99999999999997
 20
-40.00000000000002
 30
0.0
  0
POINT
  5
E3
330
D8
100
AcDbEntity
  8
DEFPOINTS
  6
ByBlock
 62
     0
100
AcDbPoint
 10
-19.99999999999997
 20
-79.48556520284353
 30
0.0
  0
ENDBLK
  5
E5
330
D8
100
AcDbEntity
  8
0
100
AcDbBlockEnd
  0
BLOCK
  5
4E
330
44
100
AcDbEntity
  8
0
100
AcDbBlockBegin
  2
*D4
 70
     1
 10
0.0
 20
0.0
 30
0.0
  3
*D4
  1

  0
LINE
  5
45
330
44
100
AcDbEntity
  8
0
  6
ByBlock
 62
     0
100
AcDbLine
 10
5.0
 20
-59.99999999999989
 30
0.0
 11
182.2903790462748
 21
-59.99999999999989
 31
0.0
  0
LINE
  5
46
330
44
100
AcDbEntity
  8
0
  6
ByBlock
 62
     0
100
AcDbLine
 10
5.0
 20
60.00000000000011
 30
0.0
 11
182.2903790462748
 21
60.00000000000011
 31
0.0
  0
LINE
  5
47
330
44
100
AcDbEntity
  8
0
  6
ByBlock
 62
     0
100
AcDbLine
 10
179.2903790462748
 20
-55.99999999999988
 30
0.0
 11
179.2903790462748
 21
56.00000000000012
 31
0.0
  0
SOLID
  5
48
330
44
100
AcDbEntity
  8
0
  6
ByBlock
 62
     0
100
AcDbTrace
 10
178.6237123796081
 20
-55.99999999999988
 30
0.0
 11
179.9570457129414
 21
-55.99999999999988
 31
0.0
 12
179.2903790462748
 22
-59.99999999999989
 32
0.0
 13
179.2903790462748
 23
-59.99999999999989
 33
0.0
  0
SOLID
  5
49
330
44
100
AcDbEntity
  8
0
  6
ByBlock
 62
     0
100
AcDbTrace
 10
178.6237123796081
 20
56.00000000000012
 30
0.0
 11
179.9570457129414
 21
56.00000000000012
 31
0.0
 12
179.2903790462748
 22
60.00000000000011
 32
0.0
 13
179.2903790462748
 23
60.00000000000011
 33
0.0
  0
TEXT
  5
4A
330
44
100
AcDbEntity
  8
0
  6
ByBlock
 62
     0
100
AcDbText
 10
177.7903790462748
 20
-4.499999999999886
 30
0.0
 40
3.0
  1
120
 50
90.0
  7
ROMANS
 72
     1
 11
176.2903790462748
 21
0.0000000000001137
 31
0.0
100
AcDbText
 73
     2
  0
POINT
  5
4B
330
44
100
AcDbEntity
  8
DEFPOINTS
  6
ByBlock
 62
     0
100
AcDbPoint
 10
2.0
 20
-59.99999999999989
 30
0.0
  0
POINT
  5
4C
330
44
100
AcDbEntity
  8
DEFPOINTS
  6
ByBlock
 62
     0
100
AcDbPoint
 10
2.0
 20
60.00000000000011
 30
0.0
  0
POINT
  5
4D
330
44
100
AcDbEntity
  8
DEFPOINTS
  6
ByBlock
 62
     0
100
AcDbPoint
 10
179.2903790462748
 20
60.00000000000011
 30
0.0
  0
ENDBLK
  5
4F
330
44
100
AcDbEntity
  8
0
100
AcDbBlockEnd
  0
BLOCK
  5
13B
330
131
100
AcDbEntity
  8
0
100
AcDbBlockBegin
  2
*D5
 70
     1
 10
0.0
 20
0.0
 30
0.0
  3
*D5
  1

  0
LINE
  5
132
330
131
100
AcDbEntity
  8
0
  6
ByBlock
 62
     0
100
AcDbLine
 10
138.0
 20
-11.49999999999988
 30
0.0
 11
151.3692739392587
 21
-11.49999999999988
 31
0.0
  0
LINE
  5
133
330
131
100
AcDbEntity
  8
0
  6
ByBlock
 62
     0
100
AcDbLine
 10
138.0
 20
11.50000000000011
 30
0.0
 11
151.3692739392587
 21
11.50000000000011
 31
0.0
  0
LINE
  5
134
330
131
100
AcDbEntity
  8
0
  6
ByBlock
 62
     0
100
AcDbLine
 10
148.3692739392587
 20
-7.499999999999884
 30
0.0
 11
148.3692739392587
 21
7.500000000000113
 31
0.0
  0
SOLID
  5
135
330
131
100
AcDbEntity
  8
0
  6
ByBlock
 62
     0
100
AcDbTrace
 10
147.7026072725921
 20
-7.499999999999884
 30
0.0
 11
149.0359406059254
 21
-7.499999999999884
 31
0.0
 12
148.3692739392587
 22
-11.49999999999988
 32
0.0
 13
148.3692739392587
 23
-11.49999999999988
 33
0.0
  0
SOLID
  5
136
330
131
100
AcDbEntity
  8
0
  6
ByBlock
 62
     0
100
AcDbTrace
 10
147.7026072725921
 20
7.500000000000113
 30
0.0
 11
149.0359406059254
 21
7.500000000000113
 31
0.0
 12
148.3692739392587
 22
11.50000000000011
 32
0.0
 13
148.3692739392587
 23
11.50000000000011
 33
0.0
  0
TEXT
  5
137
330
131
100
AcDbEntity
  8
0
  6
ByBlock
 62
     0
100
AcDbText
 10
146.8692739392587
 20
-2.857142857142743
 30
0.0
 40
3.0
  1
23
 50
90.0
  7
ROMANS
 72
     1
 11
145.3692739392588
 21
0.0000000000001146
 31
0.0
100
AcDbText
 73
     2
  0
POINT
  5
138
330
131
100
AcDbEntity
  8
DEFPOINTS
  6
ByBlock
 62
     0
100
AcDbPoint
 10
135.0
 20
-11.49999999999988
 30
0.0
  0
POINT
  5
139
330
131
100
AcDbEntity
  8
DEFPOINTS
  6
ByBlock
 62
     0
100
AcDbPoint
 10
135.0
 20
11.50000000000011
 30
0.0
  0
POINT
  5
13A
330
131
100
AcDbEntity
  8
DEFPOINTS
  6
ByBlock
 62
     0
100
AcDbPoint
 10
148.3692739392587
 20
11.50000000000011
 30
0.0
  0
ENDBLK
  5
13C
330
131
100
AcDbEntity
  8
0
100
AcDbBlockEnd
  0
BLOCK
  5
F8
330
EE
100
AcDbEntity
  8
0
100
AcDbBlockBegin
  2
*D6
 70
     1
 10
0.0
 20
0.0
 30
0.0
  3
*D6
  1

  0
LINE
  5
EF
330
EE
100
AcDbEntity
  8
0
  6
ByBlock
 62
     0
100
AcDbLine
 10
3.0
 20
-62.99999999999989
 30
0.0
 11
3.0
 21
-82.27784782669601
 31
0.0
  0
LINE
  5
F0
330
EE
100
AcDbEntity
  8
0
  6
ByBlock
 62
     0
100
AcDbLine
 10
33.0
 20
-11.0020497658869
 30
0.0
 11
33.0
 21
-82.27784782669601
 31
0.0
  0
LINE
  5
F1
330
EE
100
AcDbEntity
  8
0
  6
ByBlock
 62
     0
100
AcDbLine
 10
7.0
 20
-79.27784782669601
 30
0.0
 11
29.0
 21
-79.27784782669601
 31
0.0
  0
SOLID
  5
F2
330
EE
100
AcDbEntity
  8
0
  6
ByBlock
 62
     0
100
AcDbTrace
 10
7.0
 20
-78.61118116002934
 30
0.0
 11
7.0
 21
-79.94451449336269
 31
0.0
 12
3.0
 22
-79.27784782669601
 32
0.0
 13
3.0
 23
-79.27784782669601
 33
0.0
  0
SOLID
  5
F3
330
EE
100
AcDbEntity
  8
0
  6
ByBlock
 62
     0
100
AcDbTrace
 10
29.0
 20
-78.61118116002934
 30
0.0
 11
29.0
 21
-79.94451449336269
 31
0.0
 12
33.0
 22
-79.27784782669601
 32
0.0
 13
33.0
 23
-79.27784782669601
 33
0.0
  0
TEXT
  5
F4
330
EE
100
AcDbEntity
  8
0
  6
ByBlock
 62
     0
100
AcDbText
 10
15.14285714285714
 20
-77.77784782669602
 30
0.0
 40
3.0
  1
30
  7
ROMANS
 72
     1
 11
18.0
 21
-76.27784782669602
 31
0.0
100
AcDbText
 73
     2
  0
POINT
  5
F5
330
EE
100
AcDbEntity
  8
DEFPOINTS
  6
ByBlock
 62
     0
100
AcDbPoint
 10
3.0
 20
-59.99999999999989
 30
0.0
  0
POINT
  5
F6
330
EE
100
AcDbEntity
  8
DEFPOINTS
  6
ByBlock
 62
     0
100
AcDbPoint
 10
33.0
 20
-8.002049765886908
 30
0.0
  0
POINT
  5
F7
330
EE
100
AcDbEntity
  8
DEFPOINTS
  6
ByBlock
 62
     0
100
AcDbPoint
 10
33.0
 20
-79.27784782669601
 30
0.0
  0
ENDBLK
  5
F9
330
EE
100
AcDbEntity
  8
0
100
AcDbBlockEnd
  0
BLOCK
  5
66
330
5C
100
AcDbEntity
  8
0
100
AcDbBlockBegin
  2
*D7
 70
     1
 10
0.0
 20
0.0
 30
0.0
  3
*D7
  1

  0
LINE
  5
5D
330
5C
100
AcDbEntity
  8
0
  6
ByBlock
 62
     0
100
AcDbLine
 10
0.0
 20
-62.99999999999989
 30
0.0
 11
0.0
 21
-93.05825659522708
 31
0.0
  0
LINE
  5
5E
330
5C
100
AcDbEntity
  8
0
  6
ByBlock
 62
     0
100
AcDbLine
 10
120.0
 20
-31.99999999999988
 30
0.0
 11
120.0
 21
-93.05825659522708
 31
0.0
  0
LINE
  5
5F
330
5C
100
AcDbEntity
  8
0
  6
ByBlock
 62
     0
100
AcDbLine
 10
4.0
 20
-90.05825659522708
 30
0.0
 11
116.0
 21
-90.05825659522708
 31
0.0
  0
SOLID
  5
60
330
5C
100
AcDbEntity
  8
0
  6
ByBlock
 62
     0
100
AcDbTrace
 10
4.0
 20
-89.39158992856041
 30
0.0
 11
4.0
 21
-90.72492326189374
 31
0.0
 12
0.0
 22
-90.05825659522708
 32
0.0
 13
0.0
 23
-90.05825659522708
 33
0.0
  0
SOLID
  5
61
330
5C
100
AcDbEntity
  8
0
  6
ByBlock
 62
     0
100
AcDbTrace
 10
116.0
 20
-89.39158992856041
 30
0.0
 11
116.0
 21
-90.72492326189374
 31
0.0
 12
120.0
 22
-90.05825659522708
 32
0.0
 13
120.0
 23
-90.05825659522708
 33
0.0
  0
TEXT
  5
62
330
5C
100
AcDbEntity
  8
0
  6
ByBlock
 62
     0
100
AcDbText
 10
55.5
 20
-88.55825659522707
 30
0.0
 40
3.0
  1
120
  7
ROMANS
 72
     1
 11
60.0
 21
-87.05825659522707
 31
0.0
100
AcDbText
 73
     2
  0
POINT
  5
63
330
5C
100
AcDbEntity
  8
DEFPOINTS
  6
ByBlock
 62
     0
100
AcDbPoint
 10
0.0
 20
-59.99999999999989
 30
0.0
  0
POINT
  5
64
330
5C
100
AcDbEntity
  8
DEFPOINTS
  6
ByBlock
 62
     0
100
AcDbPoint
 10
120.0
 20
-28.99999999999988
 30
0.0
  0
POINT
  5
65
330
5C
100
AcDbEntity
  8
DEFPOINTS
  6
ByBlock
 62
     0
100
AcDbPoint
 10
120.0
 20
-90.05825659522708
 30
0.0
  0
ENDBLK
  5
67
330
5C
100
AcDbEntity
  8
0
100
AcDbBlockEnd
  0
BLOCK
  5
3C
330
2F
100
AcDbEntity
  8
0
100
AcDbBlockBegin
  2
*D8
 70
     1
 10
0.0
 20
0.0
 30
0.0
  3
*D8
  1

  0
LINE
  5
30
330
2F
100
AcDbEntity
  8
0
  6
ByBlock
 62
     0
100
AcDbLine
 10
0.0
 20
-62.99999999999989
 30
0.0
 11
0.0
 21
-103.7620120677541
 31
0.0
  0
LINE
  5
31
330
2F
100
AcDbEntity
  8
0
  6
ByBlock
 62
     0
100
AcDbLine
 10
135.0
 20
-39.49999999999988
 30
0.0
 11
135.0
 21
-103.7620120677541
 31
0.0
  0
LINE
  5
32
330
2F
100
AcDbEntity
  8
0
  6
ByBlock
 62
     0
100
AcDbLine
 10
4.0
 20
-100.7620120677541
 30
0.0
 11
131.0
 21
-100.7620120677541
 31
0.0
  0
SOLID
  5
33
330
2F
100
AcDbEntity
  8
0
  6
ByBlock
 62
     0
100
AcDbTrace
 10
4.0
 20
-100.0953454010875
 30
0.0
 11
4.0
 21
-101.4286787344208
 31
0.0
 12
0.0
 22
-100.7620120677541
 32
0.0
 13
0.0
 23
-100.7620120677541
 33
0.0
  0
SOLID
  5
34
330
2F
100
AcDbEntity
  8
0
  6
ByBlock
 62
     0
100
AcDbTrace
 10
131.0
 20
-100.0953454010875
 30
0.0
 11
131.0
 21
-101.4286787344208
 31
0.0
 12
135.0
 22
-100.7620120677541
 32
0.0
 13
135.0
 23
-100.7620120677541
 33
0.0
  0
TEXT
  5
35
330
2F
100
AcDbEntity
  8
0
  6
ByBlock
 62
     0
100
AcDbText
 10
63.0
 20
-99.26201206775418
 30
0.0
 40
3.0
  1
135
  7
ROMANS
 72
     1
 11
67.5
 21
-97.76201206775418
 31
0.0
100
AcDbText
 73
     2
  0
POINT
  5
36
330
2F
100
AcDbEntity
  8
DEFPOINTS
  6
ByBlock
 62
     0
100
AcDbPoint
 10
0.0
 20
-59.99999999999989
 30
0.0
  0
POINT
  5
3A
330
2F
100
AcDbEntity
  8
DEFPOINTS
  6
ByBlock
 62
     0
100
AcDbPoint
 10
135.0
 20
-36.49999999999988
 30
0.0
  0
POINT
  5
3B
330
2F
100
AcDbEntity
  8
DEFPOINTS
  6
ByBlock
 62
     0
100
AcDbPoint
 10
135.0
 20
-100.7620120677541
 30
0.0
  0
ENDBLK
  5
3D
330
2F
100
AcDbEntity
  8
0
100
AcDbBlockEnd
  0
BLOCK
  5
12E
330
122
100
AcDbEntity
  8
0
100
AcDbBlockBegin
  2
*D9
 70
     1
 10
0.0
 20
0.0
 30
0.0
  3
*D9
  1

  0
LINE
  5
123
330
122
100
AcDbEntity
  8
0
  6
ByBlock
 62
     0
100
AcDbLine
 10
138.0
 20
11.50000000000011
 30
0.0
 11
151.3692739392587
 21
11.50000000000011
 31
0.0
  0
LINE
  5
124
330
122
100
AcDbEntity
  8
0
  6
ByBlock
 62
     0
100
AcDbLine
 10
126.6754711809827
 20
24.00000000000011
 30
0.0
 11
151.3692739392587
 21
24.00000000000011
 31
0.0
  0
LINE
  5
125
330
122
100
AcDbEntity
  8
0
  6
ByBlock
 62
     0
100
AcDbLine
 10
148.3692739392587
 20
7.500000000000113
 30
0.0
 11
148.3692739392587
 21
3.500000000000113
 31
0.0
  0
LINE
  5
126
330
122
100
AcDbEntity
  8
0
  6
ByBlock
 62
     0
100
AcDbLine
 10
148.3692739392587
 20
28.00000000000011
 30
0.0
 11
148.3692739392587
 21
32.00000000000011
 31
0.0
  0
LINE
  5
127
330
122
100
AcDbEntity
  8
0
  6
ByBlock
 62
     0
100
AcDbLine
 10
148.3692739392587
 20
32.00000000000011
 30
0.0
 11
148.3692739392587
 21
42.21428571428583
 31
0.0
  0
SOLID
  5
128
330
122
100
AcDbEntity
  8
0
  6
ByBlock
 62
     0
100
AcDbTrace
 10
147.7026072725921
 20
7.500000000000113
 30
0.0
 11
149.0359406059254
 21
7.500000000000113
 31
0.0
 12
148.3692739392587
 22
11.50000000000011
 32
0.0
 13
148.3692739392587
 23
11.50000000000011
 33
0.0
  0
SOLID
  5
129
330
122
100
AcDbEntity
  8
0
  6
ByBlock
 62
     0
100
AcDbTrace
 10
147.7026072725921
 20
28.00000000000011
 30
0.0
 11
149.0359406059254
 21
28.00000000000011
 31
0.0
 12
148.3692739392587
 22
24.00000000000011
 32
0.0
 13
148.3692739392587
 23
24.00000000000011
 33
0.0
  0
TEXT
  5
12A
330
122
100
AcDbEntity
  8
0
  6
ByBlock
 62
     0
100
AcDbText
 10
146.8692739392587
 20
32.64285714285725
 30
0.0
 40
3.0
  1
12.5
 50
90.0
  7
ROMANS
 72
     1
 11
145.3692739392588
 21
37.85714285714297
 31
0.0
100
AcDbText
 73
     2
  0
POINT
  5
12B
330
122
100
AcDbEntity
  8
DEFPOINTS
  6
ByBlock
 62
     0
100
AcDbPoint
 10
135.0
 20
11.50000000000011
 30
0.0
  0
POINT
  5
12C
330
122
100
AcDbEntity
  8
DEFPOINTS
  6
ByBlock
 62
     0
100
AcDbPoint
 10
123.6754711809827
 20
24.00000000000011
 30
0.0
  0
POINT
  5
12D
330
122
100
AcDbEntity
  8
DEFPOINTS
  6
ByBlock
 62
     0
100
AcDbPoint
 10
148.3692739392587
 20
24.00000000000011
 30
0.0
  0
ENDBLK
  5
12F
330
122
100
AcDbEntity
  8
0
100
AcDbBlockEnd
  0
BLOCK
  5
11D
330
111
100
AcDbEntity
  8
0
100
AcDbBlockBegin
  2
*D10
 70
     1
 10
0.0
 20
0.0
 30
0.0
  3
*D10
  1

  0
LINE
  5
112
330
111
100
AcDbEntity
  8
0
  6
ByBlock
 62
     0
100
AcDbLine
 10
138.0
 20
-11.49999999999988
 30
0.0
 11
151.3692739392587
 21
-11.49999999999988
 31
0.0
  0
LINE
  5
113
330
111
100
AcDbEntity
  8
0
  6
ByBlock
 62
     0
100
AcDbLine
 10
126.6754711809827
 20
-23.99999999999988
 30
0.0
 11
151.3692739392587
 21
-23.99999999999988
 31
0.0
  0
LINE
  5
114
330
111
100
AcDbEntity
  8
0
  6
ByBlock
 62
     0
100
AcDbLine
 10
148.3692739392587
 20
-7.499999999999884
 30
0.0
 11
148.3692739392587
 21
-3.499999999999884
 31
0.0
  0
LINE
  5
115
330
111
100
AcDbEntity
  8
0
  6
ByBlock
 62
     0
100
AcDbLine
 10
148.3692739392587
 20
-27.99999999999988
 30
0.0
 11
148.3692739392587
 21
-31.99999999999988
 31
0.0
  0
LINE
  5
116
330
111
100
AcDbEntity
  8
0
  6
ByBlock
 62
     0
100
AcDbLine
 10
148.3692739392587
 20
-31.99999999999988
 30
0.0
 11
148.3692739392587
 21
-42.21428571428559
 31
0.0
  0
SOLID
  5
117
330
111
100
AcDbEntity
  8
0
  6
ByBlock
 62
     0
100
AcDbTrace
 10
147.7026072725921
 20
-7.499999999999884
 30
0.0
 11
149.0359406059254
 21
-7.499999999999884
 31
0.0
 12
148.3692739392587
 22
-11.49999999999988
 32
0.0
 13
148.3692739392587
 23
-11.49999999999988
 33
0.0
  0
SOLID
  5
118
330
111
100
AcDbEntity
  8
0
  6
ByBlock
 62
     0
100
AcDbTrace
 10
147.7026072725921
 20
-27.99999999999988
 30
0.0
 11
149.0359406059254
 21
-27.99999999999988
 31
0.0
 12
148.3692739392587
 22
-23.99999999999988
 32
0.0
 13
148.3692739392587
 23
-23.99999999999988
 33
0.0
  0
TEXT
  5
119
330
111
100
AcDbEntity
  8
0
  6
ByBlock
 62
     0
100
AcDbText
 10
146.8692739392587
 20
-43.07142857142845
 30
0.0
 40
3.0
  1
12.5
 50
90.0
  7
ROMANS
 72
     1
 11
145.3692739392588
 21
-37.85714285714274
 31
0.0
100
AcDbText
 73
     2
  0
POINT
  5
11A
330
111
100
AcDbEntity
  8
DEFPOINTS
  6
ByBlock
 62
     0
100
AcDbPoint
 10
135.0
 20
-11.49999999999988
 30
0.0
  0
POINT
  5
11B
330
111
100
AcDbEntity
  8
DEFPOINTS
  6
ByBlock
 62
     0
100
AcDbPoint
 10
123.6754711809827
 20
-23.99999999999988
 30
0.0
  0
POINT
  5
11C
330
111
100
AcDbEntity
  8
DEFPOINTS
  6
ByBlock
 62
     0
100
AcDbPoint
 10
148.3692739392587
 20
-23.99999999999988
 30
0.0
  0
ENDBLK
  5
11E
330
111
100
AcDbEntity
  8
0
100
AcDbBlockEnd
  0
BLOCK
  5
A6
330
9B
100
AcDbEntity
  8
0
100
AcDbBlockBegin
  2
*D11
 70
     1
 10
0.0
 20
0.0
 30
0.0
  3
*D11
  1

  0
LINE
  5
9C
330
9B
100
AcDbEntity
  8
0
  6
ByBlock
 62
     0
100
AcDbLine
 10
3.0
 20
-62.99999999999989
 30
0.0
 11
3.0
 21
-82.27784782669601
 31
0.0
  0
LINE
  5
9D
330
9B
100
AcDbEntity
  8
0
  6
ByBlock
 62
     0
100
AcDbLine
 10
0.0
 20
-62.99999999999989
 30
0.0
 11
0.0
 21
-82.27784782669601
 31
0.0
  0
LINE
  5
9E
330
9B
100
AcDbEntity
  8
0
  6
ByBlock
 62
     0
100
AcDbLine
 10
7.0
 20
-79.27784782669601
 30
0.0
 11
11.0
 21
-79.27784782669601
 31
0.0
  0
LINE
  5
9F
330
9B
100
AcDbEntity
  8
0
  6
ByBlock
 62
     0
100
AcDbLine
 10
-4.0
 20
-79.27784782669601
 30
0.0
 11
-8.0
 21
-79.27784782669601
 31
0.0
  0
SOLID
  5
A0
330
9B
100
AcDbEntity
  8
0
  6
ByBlock
 62
     0
100
AcDbTrace
 10
7.0
 20
-78.61118116002934
 30
0.0
 11
7.0
 21
-79.94451449336269
 31
0.0
 12
3.0
 22
-79.27784782669601
 32
0.0
 13
3.0
 23
-79.27784782669601
 33
0.0
  0
SOLID
  5
A1
330
9B
100
AcDbEntity
  8
0
  6
ByBlock
 62
     0
100
AcDbTrace
 10
-4.0
 20
-78.61118116002934
 30
0.0
 11
-4.0
 21
-79.94451449336269
 31
0.0
 12
0.0
 22
-79.27784782669601
 32
0.0
 13
0.0
 23
-79.27784782669601
 33
0.0
  0
TEXT
  5
A2
330
9B
100
AcDbEntity
  8
0
  6
ByBlock
 62
     0
100
AcDbText
 10
-7.442773735787051
 20
-77.77784782669602
 30
0.0
 40
3.0
  1
3
  7
ROMANS
 72
     1
 11
-6.014202307215623
 21
-76.27784782669602
 31
0.0
100
AcDbText
 73
     2
  0
POINT
  5
A3
330
9B
100
AcDbEntity
  8
DEFPOINTS
  6
ByBlock
 62
     0
100
AcDbPoint
 10
3.0
 20
-59.99999999999989
 30
0.0
  0
POINT
  5
A4
330
9B
100
AcDbEntity
  8
DEFPOINTS
  6
ByBlock
 62
     0
100
AcDbPoint
 10
0.0
 20
-59.99999999999989
 30
0.0
  0
POINT
  5
A5
330
9B
100
AcDbEntity
  8
DEFPOINTS
  6
ByBlock
 62
     0
100
AcDbPoint
 10
0.0
 20
-79.27784782669601
 30
0.0
  0
ENDBLK
  5
A7
330
9B
100
AcDbEntity
  8
0
100
AcDbBlockEnd
  0
BLOCK
  5
89
330
7F
100
AcDbEntity
  8
0
100
AcDbBlockBegin
  2
*D12
 70
     1
 10
0.0
 20
0.0
 30
0.0
  3
*D12
  1

  0
LINE
  5
80
330
7F
100
AcDbEntity
  8
0
  6
ByBlock
 62
     0
100
AcDbLine
 10
-160.0
 20
-32.99093971934715
 30
0.0
 11
-160.0
 21
-103.7620120677541
 31
0.0
  0
LINE
  5
81
330
7F
100
AcDbEntity
  8
0
  6
ByBlock
 62
     0
100
AcDbLine
 10
-19.99999999999997
 20
-43.00000000000003
 30
0.0
 11
-19.99999999999997
 21
-103.7620120677541
 31
0.0
  0
LINE
  5
82
330
7F
100
AcDbEntity
  8
0
  6
ByBlock
 62
     0
100
AcDbLine
 10
-156.0
 20
-100.7620120677541
 30
0.0
 11
-23.99999999999997
 21
-100.7620120677541
 31
0.0
  0
SOLID
  5
83
330
7F
100
AcDbEntity
  8
0
  6
ByBlock
 62
     0
100
AcDbTrace
 10
-156.0
 20
-100.0953454010875
 30
0.0
 11
-156.0
 21
-101.4286787344208
 31
0.0
 12
-160.0
 22
-100.7620120677541
 32
0.0
 13
-160.0
 23
-100.7620120677541
 33
0.0
  0
SOLID
  5
84
330
7F
100
AcDbEntity
  8
0
  6
ByBlock
 62
     0
100
AcDbTrace
 10
-23.99999999999997
 20
-100.0953454010875
 30
0.0
 11
-23.99999999999997
 21
-101.4286787344208
 31
0.0
 12
-19.99999999999997
 22
-100.7620120677541
 32
0.0
 13
-19.99999999999997
 23
-100.7620120677541
 33
0.0
  0
TEXT
  5
85
330
7F
100
AcDbEntity
  8
0
  6
ByBlock
 62
     0
100
AcDbText
 10
-94.50000000000001
 20
-99.26201206775418
 30
0.0
 40
3.0
  1
140
  7
ROMANS
 72
     1
 11
-90.0
 21
-97.76201206775418
 31
0.0
100
AcDbText
 73
     2
  0
POINT
  5
86
330
7F
100
AcDbEntity
  8
DEFPOINTS
  6
ByBlock
 62
     0
100
AcDbPoint
 10
-160.0
 20
-29.99093971934715
 30
0.0
  0
POINT
  5
87
330
7F
100
AcDbEntity
  8
DEFPOINTS
  6
ByBlock
 62
     0
100
AcDbPoint
 10
-19.99999999999997
 20
-40.00000000000002
 30
0.0
  0
POINT
  5
88
330
7F
100
AcDbEntity
  8
DEFPOINTS
  6
ByBlock
 62
     0
100
AcDbPoint
 10
-19.99999999999997
 20
-100.7620120677541
 30
0.0
  0
ENDBLK
  5
8A
330
7F
100
AcDbEntity
  8
0
100
AcDbBlockEnd
  0
BLOCK
  5
B3
330
A9
100
AcDbEntity
  8
0
100
AcDbBlockBegin
  2
*D13
 70
     1
 10
0.0
 20
0.0
 30
0.0
  3
*D13
  1

  0
LINE
  5
AA
330
A9
100
AcDbEntity
  8
0
  6
ByBlock
 62
     0
100
AcDbLine
 10
-19.99999999999997
 20
-43.00000000000003
 30
0.0
 11
-19.99999999999997
 21
-103.7620120677541
 31
0.0
  0
LINE
  5
AB
330
A9
100
AcDbEntity
  8
0
  6
ByBlock
 62
     0
100
AcDbLine
 10
0.0
 20
-52.99999999999989
 30
0.0
 11
0.0
 21
-103.7620120677541
 31
0.0
  0
LINE
  5
AC
330
A9
100
AcDbEntity
  8
0
  6
ByBlock
 62
     0
100
AcDbLine
 10
-15.99999999999997
 20
-100.7620120677541
 30
0.0
 11
-4.0
 21
-100.7620120677541
 31
0.0
  0
SOLID
  5
AD
330
A9
100
AcDbEntity
  8
0
  6
ByBlock
 62
     0
100
AcDbTrace
 10
-15.99999999999997
 20
-100.0953454010875
 30
0.0
 11
-15.99999999999997
 21
-101.4286787344208
 31
0.0
 12
-19.99999999999997
 22
-100.7620120677541
 32
0.0
 13
-19.99999999999997
 23
-100.7620120677541
 33
0.0
  0
SOLID
  5
AE
330
A9
100
AcDbEntity
  8
0
  6
ByBlock
 62
     0
100
AcDbTrace
 10
-4.0
 20
-100.0953454010875
 30
0.0
 11
-4.0
 21
-101.4286787344208
 31
0.0
 12
0.0
 22
-100.7620120677541
 32
0.0
 13
0.0
 23
-100.7620120677541
 33
0.0
  0
TEXT
  5
AF
330
A9
100
AcDbEntity
  8
0
  6
ByBlock
 62
     0
100
AcDbText
 10
-12.85714285714284
 20
-99.26201206775418
 30
0.0
 40
3.0
  1
20
  7
ROMANS
 72
     1
 11
-9.999999999999985
 21
-97.76201206775418
 31
0.0
100
AcDbText
 73
     2
  0
POINT
  5
B0
330
A9
100
AcDbEntity
  8
DEFPOINTS
  6
ByBlock
 62
     0
100
AcDbPoint
 10
-19.99999999999997
 20
-40.00000000000002
 30
0.0
  0
POINT
  5
B1
330
A9
100
AcDbEntity
  8
DEFPOINTS
  6
ByBlock
 62
     0
100
AcDbPoint
 10
0.0
 20
-49.99999999999989
 30
0.0
  0
POINT
  5
B2
330
A9
100
AcDbEntity
  8
DEFPOINTS
  6
ByBlock
 62
     0
100
AcDbPoint
 10
0.0
 20
-100.7620120677541
 30
0.0
  0
ENDBLK
  5
B4
330
A9
100
AcDbEntity
  8
0
100
AcDbBlockEnd
  0
BLOCK
  5
7B
330
71
100
AcDbEntity
  8
0
 62
     1
100
AcDbBlockBegin
  2
A$C6BE937E7
 70
     0
 10
0.0
 20
0.0
 30
0.0
  3
A$C6BE937E7
  1

  0
TEXT
  5
72
330
71
100
AcDbEntity
  8
SPECD
 62
     6
100
AcDbText
 10
4.668392196768905
 20
18.71588358345923
 30
0.0
 40
5.0
  1
AND 20mm-JOINT. AND UNFREEZE DESIRED NEW 
  7
ROMANS
 72
     4
 11
102.5255350539117
 21
21.21588358345923
 31
0.0
100
AcDbText
  0
LINE
  5
74
330
71
100
AcDbEntity
  8
SPECD
 62
     6
100
AcDbLine
 10
0.0000004097963711
 20
53.03369301694681
 30
0.0
 11
202.4869505164367
 21
53.03369301694681
 31
0.0
  0
LINE
  5
75
330
71
100
AcDbEntity
  8
SPECD
 62
     6
100
AcDbLine
 10
0.0000004097963711
 20
0.0000004313964723
 30
0.0
 11
202.4869505164367
 21
0.0000004313964723
 31
0.0
  0
TEXT
  5
76
330
71
100
AcDbEntity
  8
SPECD
 62
     6
100
AcDbText
 10
4.207581425801549
 20
28.3361790613278
 30
0.0
 40
5.0
  1
FOR OTHER WIDTHS, FREEZE LAYERS 20mm-DIMS
  7
ROMANS
 72
     4
 11
101.3504385686587
 21
30.35998858513733
 31
0.0
100
AcDbText
  0
TEXT
  5
77
330
71
100
AcDbEntity
  8
SPECD
 62
     6
100
AcDbText
 10
4.215424032625506
 20
43.79289347717675
 30
0.0
 40
5.0
  1
DRAWING SHOWS 20mm JOINT.
  7
ROMANS
 72
     4
 11
63.73923355643501
 21
46.29289347717675
 31
0.0
100
AcDbText
  0
TEXT
  5
78
330
71
100
AcDbEntity
  8
SPECD
 62
     6
100
AcDbText
 10
4.481432930145061
 20
8.212600757984517
 30
0.0
 40
5.0
  1
JOINT AND DIMS LAYERS.
  7
ROMANS
 72
     4
 11
52.33857578728794
 21
10.71260075798451
 31
0.0
100
AcDbText
  0
LINE
  5
79
330
71
100
AcDbEntity
  8
SPECD
 62
     6
100
AcDbLine
 10
0.0000004097963711
 20
53.03369301694681
 30
0.0
 11
0.0000004097963711
 21
0.0000004313964723
 31
0.0
  0
LINE
  5
7A
330
71
100
AcDbEntity
  8
SPECD
 62
     6
100
AcDbLine
 10
202.4869505164367
 20
53.03369301694681
 30
0.0
 11
202.4869505164367
 21
0.0000004313964723
 31
0.0
  0
ENDBLK
  5
7C
330
71
100
AcDbEntity
  8
0
 62
     1
100
AcDbBlockEnd
  0
ENDSEC
  0
SECTION
  2
ENTITIES
  0
DIMENSION
  5
2D
330
2
100
AcDbEntity
  8
DIMS
 62
     1
100
AcDbDimension
  2
*D8
 10
135.0
 20
-100.7620120677541
 30
0.0
 11
67.5
 21
-97.76201206775418
 31
0.0
 71
     5
 42
-1.0
  3
1-2
100
AcDbAlignedDimension
 13
0.0
 23
-59.99999999999989
 33
0.0
 14
135.0
 24
-36.49999999999988
 34
0.0
100
AcDbRotatedDimension
  0
LINE
  5
3E
330
2
100
AcDbEntity
  8
ANCON-DSD
  6
Continuous
100
AcDbLine
 10
3.0
 20
-36.49999999999988
 30
0.0
 11
140.0
 21
-36.49999999999988
 31
0.0
  0
LINE
  5
40
330
2
100
AcDbEntity
  8
ANCON-DSD
  6
Continuous
100
AcDbLine
 10
3.0
 20
-11.49999999999988
 30
0.0
 11
140.0
 21
-11.49999999999988
 31
0.0
  0
LINE
  5
41
330
2
100
AcDbEntity
  8
ANCON-DSD
  6
Continuous
100
AcDbLine
 10
3.0
 20
11.50000000000011
 30
0.0
 11
140.0
 21
11.50000000000011
 31
0.0
  0
LINE
  5
42
330
2
100
AcDbEntity
  8
ANCON-DSD
  6
Continuous
100
AcDbLine
 10
3.0
 20
36.50000000000011
 30
0.0
 11
140.0
 21
36.50000000000011
 31
0.0
  0
DIMENSION
  5
43
330
2
100
AcDbEntity
  8
DIMS
 62
     1
100
AcDbDimension
  2
*D4
 10
179.2903790462748
 20
60.00000000000011
 30
0.0
 11
176.2903790462748
 21
0.0000000000001137
 31
0.0
 71
     5
 42
-1.0
  3
1-2
100
AcDbAlignedDimension
 13
2.0
 23
-59.99999999999989
 33
0.0
 14
2.0
 24
60.00000000000011
 34
0.0
 50
90.0
100
AcDbRotatedDimension
  0
LINE
  5
50
330
2
100
AcDbEntity
  8
20MM-JOINT
  6
HIDDEN
 62
     3
100
AcDbLine
 10
0.0000000000000221
 20
32.00906028065287
 30
0.0
 11
97.99999999999997
 21
32.00906028065287
 31
0.0
  0
LINE
  5
53
330
2
100
AcDbEntity
  8
20MM-JOINT
  6
HIDDEN
 62
     3
100
AcDbLine
 10
0.0000000000000253
 20
16.00906028065284
 30
0.0
 11
97.99999999999997
 21
16.00906028065284
 31
0.0
  0
LINE
  5
54
330
2
100
AcDbEntity
  8
20MM-JOINT
  6
HIDDEN
 62
     3
100
AcDbLine
 10
0.0000000000000316
 20
-15.99093971934715
 30
0.0
 11
97.99999999999997
 21
-15.99093971934715
 31
0.0
  0
LINE
  5
55
330
2
100
AcDbEntity
  8
20MM-JOINT
  6
HIDDEN
 62
     3
100
AcDbLine
 10
0.0000000000000347
 20
-31.99093971934715
 30
0.0
 11
97.99999999999997
 21
-31.99093971934715
 31
0.0
  0
LINE
  5
56
330
2
100
AcDbEntity
  8
ANCON-DSD
  6
CENTER2
 62
     1
100
AcDbLine
 10
0.0000000000000284
 20
-23.99999999999988
 30
0.0
 11
123.6754711809827
 21
-23.99999999999988
 31
0.0
  0
LINE
  5
58
330
2
100
AcDbEntity
  8
ANCON-DSD
  6
CENTER2
 62
     1
100
AcDbLine
 10
0.0000000000000142
 20
24.00000000000011
 30
0.0
 11
123.6754711809827
 21
24.00000000000011
 31
0.0
  0
TEXT
  5
59
330
2
100
AcDbEntity
  8
DIMS
 62
     1
100
AcDbText
 10
9.568193832461346
 20
125.8219377013082
 30
0.0
 40
5.0
  1
SPECIFICATION BY DESCRIPTION
  7
ROMANS
 72
     4
 11
69.21105097531849
 21
128.3219377013082
 31
0.0
100
AcDbText
  0
TEXT
  5
5A
330
2
100
AcDbEntity
  8
DIMS
 62
     1
100
AcDbText
 10
9.424557222835062
 20
155.7563921658043
 30
0.0
 40
5.0
  1
SPECIFICATION BY PRODUCT
  7
ROMANS
 72
     4
 11
62.87693817521599
 21
158.2563921658043
 31
0.0
100
AcDbText
  0
DIMENSION
  5
5B
330
2
100
AcDbEntity
  8
DIMS
100
AcDbDimension
  2
*D7
 10
120.0
 20
-90.05825659522708
 30
0.0
 11
60.0
 21
-87.05825659522707
 31
0.0
 71
     5
 42
-1.0
  3
1-2
100
AcDbAlignedDimension
 13
0.0
 23
-59.99999999999989
 33
0.0
 14
120.0
 24
-28.99999999999988
 34
0.0
100
AcDbRotatedDimension
  0
LINE
  5
68
330
2
100
AcDbEntity
  8
ANCON-DSD
  6
HIDDEN
100
AcDbLine
 10
3.0
 20
-13.99999999999988
 30
0.0
 11
120.0
 21
-13.99999999999988
 31
0.0
  0
LINE
  5
69
330
2
100
AcDbEntity
  8
ANCON-DSD
  6
HIDDEN
100
AcDbLine
 10
3.0
 20
14.00000000000011
 30
0.0
 11
120.0
 21
14.00000000000011
 31
0.0
  0
LINE
  5
6A
330
2
100
AcDbEntity
  8
ANCON-DSD
  6
HIDDEN
100
AcDbLine
 10
3.0
 20
-33.99999999999988
 30
0.0
 11
119.9999999999999
 21
-33.99999999999988
 31
0.0
  0
LINE
  5
6B
330
2
100
AcDbEntity
  8
ANCON-DSD
  6
HIDDEN
100
AcDbLine
 10
3.0
 20
34.00000000000011
 30
0.0
 11
120.0
 21
34.00000000000011
 31
0.0
  0
LINE
  5
6C
330
2
100
AcDbEntity
  8
ANCON-DSD
100
AcDbLine
 10
3.0
 20
60.01812056130592
 30
0.0
 11
3.0
 21
-59.99999999999989
 31
0.0
  0
LINE
  5
6D
330
2
100
AcDbEntity
  8
20MM-JOINT
 62
     2
100
AcDbLine
 10
-19.99999999999994
 20
-144.7460648130115
 30
0.0
 11
-20.0
 21
144.7279442517058
 31
0.0
  0
LINE
  5
6E
330
2
100
AcDbEntity
  8
CONCRETE
100
AcDbLine
 10
0.0000000000000568
 20
-144.7370045323585
 30
0.0
 11
0.0
 21
144.7370045323586
 31
0.0
  0
LINE
  5
6F
330
2
100
AcDbEntity
  8
ANCON-DSD
100
AcDbLine
 10
0.0
 20
60.01812056130592
 30
0.0
 11
0.0
 21
-59.99999999999989
 31
0.0
  0
DIMENSION
  5
7D
330
2
100
AcDbEntity
  8
20MM-DIMS
 62
     1
100
AcDbDimension
  2
*D12
 10
-19.99999999999997
 20
-100.7620120677541
 30
0.0
 11
-90.0
 21
-97.76201206775418
 31
0.0
 71
     5
 42
-1.0
  3
1-2
100
AcDbAlignedDimension
 13
-160.0
 23
-29.99093971934715
 33
0.0
 14
-19.99999999999997
 24
-40.00000000000002
 34
0.0
100
AcDbRotatedDimension
  0
LINE
  5
8B
330
2
100
AcDbEntity
  8
20MM-JOINT
  6
CENTER2
 62
     1
100
AcDbLine
 10
-165.0
 20
-24.00000000000003
 30
0.0
 11
0.0000000000000331
 21
-24.00000000000003
 31
0.0
  0
LINE
  5
8C
330
2
100
AcDbEntity
  8
20MM-JOINT
  6
CENTER2
 62
     1
100
AcDbLine
 10
-165.0
 20
24.0
 30
0.0
 11
0.0000000000000237
 21
24.0
 31
0.0
  0
LINE
  5
8D
330
2
100
AcDbEntity
  8
20MM-JOINT
 62
     3
100
AcDbLine
 10
-157.9999999999999
 20
32.00906028065287
 30
0.0
 11
-24.99999999999996
 21
32.00906028065287
 31
0.0
  0
LINE
  5
8E
330
2
100
AcDbEntity
  8
20MM-JOINT
 62
     3
100
AcDbLine
 10
-158.0
 20
16.00906028065284
 30
0.0
 11
-24.99999999999996
 21
16.00906028065284
 31
0.0
  0
LINE
  5
8F
330
2
100
AcDbEntity
  8
20MM-JOINT
 62
     3
100
AcDbLine
 10
-157.9999999999999
 20
-15.99093971934715
 30
0.0
 11
-25.00000000000002
 21
-15.99093971934715
 31
0.0
  0
LINE
  5
90
330
2
100
AcDbEntity
  8
20MM-JOINT
 62
     3
100
AcDbLine
 10
-158.0
 20
-31.99093971934715
 30
0.0
 11
-25.00000000000002
 21
-31.99093971934715
 31
0.0
  0
LINE
  5
91
330
2
100
AcDbEntity
  8
20MM-JOINT
 62
     3
100
AcDbLine
 10
-157.9999999999999
 20
-15.99093971934715
 30
0.0
 11
-157.9999999999999
 21
-31.99093971934715
 31
0.0
  0
LINE
  5
92
330
2
100
AcDbEntity
  8
20MM-JOINT
 62
     3
100
AcDbLine
 10
-159.9999999999999
 20
-17.99093971934715
 30
0.0
 11
-160.0
 21
-29.99093971934715
 31
0.0
  0
LINE
  5
93
330
2
100
AcDbEntity
  8
20MM-JOINT
 62
     3
100
AcDbLine
 10
-160.0
 20
-29.99093971934715
 30
0.0
 11
-158.0
 21
-31.99093971934715
 31
0.0
  0
LINE
  5
94
330
2
100
AcDbEntity
  8
20MM-JOINT
 62
     3
100
AcDbLine
 10
-157.9999999999999
 20
-15.99093971934715
 30
0.0
 11
-159.9999999999999
 21
-17.99093971934715
 31
0.0
  0
LINE
  5
95
330
2
100
AcDbEntity
  8
20MM-JOINT
 62
     3
100
AcDbLine
 10
-157.9999999999999
 20
32.00906028065287
 30
0.0
 11
-157.9999999999999
 21
16.00906028065284
 31
0.0
  0
LINE
  5
96
330
2
100
AcDbEntity
  8
20MM-JOINT
 62
     3
100
AcDbLine
 10
-159.9999999999999
 20
30.00906028065287
 30
0.0
 11
-160.0
 21
18.00906028065284
 31
0.0
  0
LINE
  5
97
330
2
100
AcDbEntity
  8
20MM-JOINT
 62
     3
100
AcDbLine
 10
-160.0
 20
18.00906028065284
 30
0.0
 11
-158.0
 21
16.00906028065284
 31
0.0
  0
LINE
  5
98
330
2
100
AcDbEntity
  8
20MM-JOINT
 62
     3
100
AcDbLine
 10
-157.9999999999999
 20
32.00906028065287
 30
0.0
 11
-159.9999999999999
 21
30.00906028065287
 31
0.0
  0
LINE
  5
99
330
2
100
AcDbEntity
  8
20MM-JOINT
 62
     3
100
AcDbLine
 10
-106.9999999999999
 20
16.00906028065284
 30
0.0
 11
-106.9999999999999
 21
-15.99093971934715
 31
0.0
  0
DIMENSION
  5
9A
330
2
100
AcDbEntity
  8
DIMS
 62
     1
100
AcDbDimension
  2
*D11
 10
0.0
 20
-79.27784782669601
 30
0.0
 11
-6.014202307215623
 21
-76.27784782669602
 31
0.0
 70
   128
 71
     5
 42
-1.0
  3
1-2
100
AcDbAlignedDimension
 13
3.0
 23
-59.99999999999989
 33
0.0
 14
0.0
 24
-59.99999999999989
 34
0.0
100
AcDbRotatedDimension
  0
DIMENSION
  5
A8
330
2
100
AcDbEntity
  8
20MM-DIMS
 62
     1
100
AcDbDimension
  2
*D13
 10
0.0
 20
-100.7620120677541
 30
0.0
 11
-9.999999999999985
 21
-97.76201206775418
 31
0.0
 71
     5
 42
-1.0
  3
1-2
100
AcDbAlignedDimension
 13
-19.99999999999997
 23
-40.00000000000002
 33
0.0
 14
0.0
 24
-49.99999999999989
 34
0.0
100
AcDbRotatedDimension
  0
LINE
  5
B5
330
2
100
AcDbEntity
  8
20MM-JOINT
 62
     3
100
AcDbLine
 10
-19.99999999999996
 20
-31.99093971934715
 30
0.0
 11
0.0000000000000347
 21
-31.99093971934715
 31
0.0
  0
LINE
  5
B6
330
2
100
AcDbEntity
  8
20MM-JOINT
 62
     3
100
AcDbLine
 10
-19.99999999999996
 20
-15.99093971934715
 30
0.0
 11
0.0000000000000316
 21
-15.99093971934715
 31
0.0
  0
LINE
  5
B7
330
2
100
AcDbEntity
  8
20MM-JOINT
 62
     3
100
AcDbLine
 10
-19.99999999999996
 20
32.00906028065287
 30
0.0
 11
0.0000000000000221
 21
32.00906028065287
 31
0.0
  0
LINE
  5
B8
330
2
100
AcDbEntity
  8
20MM-JOINT
 62
     3
100
AcDbLine
 10
-19.99999999999996
 20
16.00906028065284
 30
0.0
 11
0.0000000000000253
 21
16.00906028065284
 31
0.0
  0
DIMENSION
  5
BB
330
2
100
AcDbEntity
  8
20MM-DIMS
 62
     1
100
AcDbDimension
  2
*D2
 10
-25.00000000000003
 20
-79.48556520284353
 30
0.0
 11
-37.99999999999997
 21
-76.48556520284353
 31
0.0
 71
     5
 42
-1.0
  3
1-2
100
AcDbAlignedDimension
 13
-50.99999999999991
 23
-9.175721016889752
 33
0.0
 14
-25.00000000000003
 24
-40.00000000000002
 34
0.0
100
AcDbRotatedDimension
  0
DIMENSION
  5
C8
330
2
100
AcDbEntity
  8
20MM-DIMS
 62
     1
100
AcDbDimension
  2
*D1
 10
-50.99999999999991
 20
-79.48556520284353
 30
0.0
 11
-65.99999999999991
 21
-76.48556520284353
 31
0.0
 71
     5
 42
-1.0
  3
1-2
100
AcDbAlignedDimension
 13
-80.99999999999992
 23
-9.175721016889752
 33
0.0
 14
-50.99999999999991
 24
-9.175721016889752
 34
0.0
100
AcDbRotatedDimension
  0
LINE
  5
D5
330
2
100
AcDbEntity
  8
20MM-JOINT
 62
     3
100
AcDbLine
 10
-24.99999999999997
 20
40.0
 30
0.0
 11
-25.00000000000003
 21
-40.00000000000002
 31
0.0
  0
LINE
  5
D6
330
2
100
AcDbEntity
  8
20MM-JOINT
 62
     3
100
AcDbLine
 10
-19.99999999999997
 20
40.0
 30
0.0
 11
-19.99999999999997
 21
-40.00000000000002
 31
0.0
  0
DIMENSION
  5
D7
330
2
100
AcDbEntity
  8
20MM-DIMS
 62
     1
100
AcDbDimension
  2
*D3
 10
-19.99999999999997
 20
-79.48556520284353
 30
0.0
 11
-9.499999999999971
 21
-76.48556520284353
 31
0.0
 71
     5
 42
-1.0
  3
1-2
100
AcDbAlignedDimension
 13
-25.00000000000003
 23
-40.00000000000002
 33
0.0
 14
-19.99999999999997
 24
-40.00000000000002
 34
0.0
100
AcDbRotatedDimension
  0
LINE
  5
E6
330
2
100
AcDbEntity
  8
20MM-JOINT
  6
CENTER2
 62
     3
100
AcDbLine
 10
-25.00000000000003
 20
-40.00000000000002
 30
0.0
 11
-19.99999999999997
 21
-40.00000000000002
 31
0.0
  0
CIRCLE
  5
E7
330
2
100
AcDbEntity
  8
20MM-JOINT
 62
     3
100
AcDbCircle
 10
-50.99999999999997
 20
-0.0000000000000284
 30
0.0
 40
6.0
  0
LINE
  5
E8
330
2
100
AcDbEntity
  8
20MM-JOINT
  6
CENTER2
 62
     1
100
AcDbLine
 10
-88.99999999999998
 20
-0.0000000000000284
 30
0.0
 11
-42.99999999999997
 21
-0.0000000000000284
 31
0.0
  0
CIRCLE
  5
E9
330
2
100
AcDbEntity
  8
20MM-JOINT
 62
     3
100
AcDbCircle
 10
-80.99999999999997
 20
-0.0000000000000284
 30
0.0
 40
6.0
  0
LINE
  5
EA
330
2
100
AcDbEntity
  8
20MM-JOINT
  6
CENTER2
 62
     1
100
AcDbLine
 10
-80.99999999999997
 20
8.123906300273375
 30
0.0
 11
-80.99999999999992
 21
-9.175721016889752
 31
0.0
  0
LINE
  5
EB
330
2
100
AcDbEntity
  8
20MM-JOINT
  6
CENTER2
 62
     1
100
AcDbLine
 10
-50.99999999999997
 20
8.123906300273375
 30
0.0
 11
-50.99999999999991
 21
-9.175721016889752
 31
0.0
  0
LINE
  5
EC
330
2
100
AcDbEntity
  8
20MM-JOINT
  6
CENTER2
 62
     3
100
AcDbLine
 10
-24.99999999999997
 20
40.0
 30
0.0
 11
-19.99999999999997
 21
40.0
 31
0.0
  0
DIMENSION
  5
ED
330
2
100
AcDbEntity
  8
DIMS
 62
     1
100
AcDbDimension
  2
*D6
 10
33.0
 20
-79.27784782669601
 30
0.0
 11
18.0
 21
-76.27784782669602
 31
0.0
 71
     5
 42
-1.0
  3
1-2
100
AcDbAlignedDimension
 13
3.0
 23
-59.99999999999989
 33
0.0
 14
33.0
 24
-8.002049765886908
 34
0.0
100
AcDbRotatedDimension
  0
LINE
  5
FA
330
2
100
AcDbEntity
  8
ANCON-DSD
100
AcDbLine
 10
0.0
 20
-59.99999999999989
 30
0.0
 11
3.0
 21
-59.99999999999989
 31
0.0
  0
CIRCLE
  5
FB
330
2
100
AcDbEntity
  8
ANCON-DSD
100
AcDbCircle
 10
33.0
 20
0.0000000000001137
 30
0.0
 40
6.0
  0
LINE
  5
FC
330
2
100
AcDbEntity
  8
ANCON-DSD
  6
CENTER2
 62
     1
100
AcDbLine
 10
33.0
 20
7.519269495116532
 30
0.0
 11
33.0
 21
-8.002049765886908
 31
0.0
  0
LINE
  5
FD
330
2
100
AcDbEntity
  8
ANCON-DSD
  6
CENTER2
 62
     1
100
AcDbLine
 10
24.81827397710066
 20
0.0000000000001137
 30
0.0
 11
41.45933020106099
 21
0.0000000000001137
 31
0.0
  0
LINE
  5
FE
330
2
100
AcDbEntity
  8
ANCON-DSD
100
AcDbLine
 10
62.99999999999999
 20
11.50000000000011
 30
0.0
 11
63.0
 21
-11.49999999999988
 31
0.0
  0
TEXT
  5
FF
330
2
100
AcDbEntity
  8
20MM-JOINT
 62
     6
100
AcDbText
 10
-107.1702957877326
 20
142.8712928061317
 30
0.0
 40
5.0
  1
LOAD ( kN )
  7
ROMANS
 72
     4
 11
-82.40839102582794
 21
145.0141499489888
 31
0.0
100
AcDbText
  0
LINE
  5
100
330
2
100
AcDbEntity
  8
20MM-JOINT
 62
     6
100
AcDbLine
 10
-226.2938551378566
 20
164.0754574071201
 30
0.0
 11
-50.91517744599414
 21
164.0754574071201
 31
0.0
  0
LINE
  5
101
330
2
100
AcDbEntity
  8
20MM-JOINT
 62
     6
100
AcDbLine
 10
-226.2938551378566
 20
138.0046963480744
 30
0.0
 11
-50.91517744599411
 21
138.0046963480744
 31
0.0
  0
LINE
  5
102
330
2
100
AcDbEntity
  8
20MM-JOINT
 62
     6
100
AcDbLine
 10
-226.2938551378566
 20
110.9772112730273
 30
0.0
 11
-50.91517744599414
 21
110.9772112730273
 31
0.0
  0
TEXT
  5
103
330
2
100
AcDbEntity
  8
20MM-JOINT
 62
     6
100
AcDbText
 10
-110.2655338829707
 20
153.81457174471
 30
0.0
 40
5.0
  1
SERVICEABILITY
  7
ROMANS
 72
     4
 11
-82.40839102582794
 21
156.31457174471
 31
0.0
100
AcDbText
  0
TEXT
  5
104
330
2
100
AcDbEntity
  8
20MM-JOINT
 62
     6
100
AcDbText
 10
-219.1014709887852
 20
153.8097412475785
 30
0.0
 40
5.0
  1
DSD REF:
  7
ROMANS
 72
     4
 11
-201.1252805125947
 21
156.3097412475785
 31
0.0
100
AcDbText
  0
TEXT
  5
105
330
2
100
AcDbEntity
  8
20MM-JOINT
 62
     6
100
AcDbText
 10
-217.2893434067803
 20
122.0308636042211
 30
0.0
 40
5.0
  1
DSDQ30
  7
ROMANS
 72
     4
 11
-202.4083910258279
 21
124.2927683661259
 31
0.0
100
AcDbText
  0
LINE
  5
106
330
2
100
AcDbEntity
  8
20MM-JOINT
 62
     6
100
AcDbLine
 10
-226.2938551378566
 20
164.0754574071201
 30
0.0
 11
-226.2938551378566
 21
110.9772112730273
 31
0.0
  0
LINE
  5
107
330
2
100
AcDbEntity
  8
20MM-JOINT
 62
     6
100
AcDbLine
 10
-115.7857615807937
 20
164.0754574071201
 30
0.0
 11
-115.7857615807937
 21
110.9772112730273
 31
0.0
  0
LINE
  5
108
330
2
100
AcDbEntity
  8
20MM-JOINT
 62
     6
100
AcDbLine
 10
-176.2938551378566
 20
164.0754574071201
 30
0.0
 11
-176.2938551378566
 21
110.9772112730273
 31
0.0
  0
TEXT
  5
109
330
2
100
AcDbEntity
  8
20MM-JOINT
 62
     6
100
AcDbText
 10
-155.2655338829707
 20
121.7927683661259
 30
0.0
 40
5.0
  1
20 MM
  7
ROMANS
 72
     4
 11
-142.4083910258279
 21
124.2927683661259
 31
0.0
100
AcDbText
  0
TEXT
  5
10A
330
2
100
AcDbEntity
  8
20MM-JOINT
 62
     6
100
AcDbText
 10
-171.1901867729676
 20
153.8097412475785
 30
0.0
 40
5.0
  1
DESIGN JOINT
  7
ROMANS
 72
     4
 11
-145.1187582015391
 21
156.3097412475785
 31
0.0
100
AcDbText
  0
TEXT
  5
10B
330
2
100
AcDbEntity
  8
20MM-JOINT
 62
     6
100
AcDbText
 10
-155.7139962967772
 20
142.9121178599595
 30
0.0
 40
5.0
  1
WIDTH
  7
ROMANS
 72
     4
 11
-145.1187582015391
 21
145.4121178599595
 31
0.0
100
AcDbText
  0
LINE
  5
10C
330
2
100
AcDbEntity
  8
20MM-JOINT
 62
     6
100
AcDbLine
 10
-50.91517744599414
 20
164.0754574071201
 30
0.0
 11
-50.91517744599414
 21
110.9772112730273
 31
0.0
  0
TEXT
  5
10D
330
2
100
AcDbEntity
  8
20MM-JOINT
 62
     6
100
AcDbText
 10
-90.74172435916127
 20
121.7927683661259
 30
0.0
 40
5.0
  1
33.7
  7
ROMANS
 72
     4
 11
-82.40839102582794
 21
124.2927683661259
 31
0.0
100
AcDbText
  0
LINE
  5
10E
330
2
100
AcDbEntity
  8
ANCON-DSD
100
AcDbLine
 10
0.0
 20
60.00000000000011
 30
0.0
 11
3.0
 21
60.00000000000011
 31
0.0
  0
LINE
  5
10F
330
2
100
AcDbEntity
  8
ANCON-DSD
100
AcDbLine
 10
0.0
 20
60.00000000000011
 30
0.0
 11
0.0
 21
60.01812056130592
 31
0.0
  0
DIMENSION
  5
110
330
2
100
AcDbEntity
  8
DIMS
 62
     1
100
AcDbDimension
  2
*D10
 10
148.3692739392587
 20
-23.99999999999988
 30
0.0
 11
145.3692739392588
 21
-37.85714285714274
 31
0.0
 71
     5
 42
-1.0
  3
1-2
100
AcDbAlignedDimension
 13
135.0
 23
-11.49999999999988
 33
0.0
 14
123.6754711809827
 24
-23.99999999999988
 34
0.0
 50
90.0
100
AcDbRotatedDimension
  0
LINE
  5
11F
330
2
100
AcDbEntity
  8
ANCON-DSD
100
AcDbLine
 10
140.0
 20
-11.49999999999988
 30
0.0
 11
140.0
 21
-36.49999999999988
 31
0.0
  0
LINE
  5
120
330
2
100
AcDbEntity
  8
ANCON-DSD
100
AcDbLine
 10
135.0
 20
-11.49999999999988
 30
0.0
 11
135.0
 21
-36.49999999999988
 31
0.0
  0
DIMENSION
  5
121
330
2
100
AcDbEntity
  8
DIMS
 62
     1
100
AcDbDimension
  2
*D9
 10
148.3692739392587
 20
24.00000000000011
 30
0.0
 11
145.3692739392588
 21
37.85714285714297
 31
0.0
 71
     5
 42
-1.0
  3
1-2
100
AcDbAlignedDimension
 13
135.0
 23
11.50000000000011
 33
0.0
 14
123.6754711809827
 24
24.00000000000011
 34
0.0
 50
90.0
100
AcDbRotatedDimension
  0
DIMENSION
  5
130
330
2
100
AcDbEntity
  8
DIMS
 62
     1
100
AcDbDimension
  2
*D5
 10
148.3692739392587
 20
11.50000000000011
 30
0.0
 11
145.3692739392588
 21
0.0000000000001146
 31
0.0
 71
     5
 42
-1.0
  3
1-2
100
AcDbAlignedDimension
 13
135.0
 23
-11.49999999999988
 33
0.0
 14
135.0
 24
11.50000000000011
 34
0.0
 50
90.0
100
AcDbRotatedDimension
  0
DIMENSION
  5
13D
330
2
100
AcDbEntity
  8
DIMS
100
AcDbDimension
  2
*D0
 10
163.1211112767737
 20
24.00000000000011
 30
0.0
 11
175.1211112767737
 21
0.0000000000001137
 31
0.0
 12
-15.0
 22
0.0
 32
0.0
 71
     5
 42
-1.0
  3
1-2
100
AcDbAlignedDimension
 13
123.6754711809827
 23
-23.99999999999988
 33
0.0
 14
123.6754711809827
 24
24.00000000000011
 34
0.0
 50
90.0
100
AcDbRotatedDimension
  0
ARC
  5
14A
330
2
100
AcDbEntity
  8
ANCON-DSD
  6
HIDDEN
100
AcDbCircle
 10
94.25407860710043
 20
-23.9999999999999
 30
0.0
 40
27.61978400294555
100
AcDbArc
 50
338.7732805876968
 51
21.22671941230313
  0
LINE
  5
14B
330
2
100
AcDbEntity
  8
ANCON-DSD
  6
HIDDEN
100
AcDbLine
 10
120.0
 20
-13.99999999999988
 30
0.0
 11
119.9999999999999
 21
-33.99999999999987
 31
0.0
  0
LINE
  5
14C
330
2
100
AcDbEntity
  8
20MM-JOINT
  6
HIDDEN
 62
     3
100
AcDbLine
 10
99.99999999999998
 20
-17.99093971934715
 30
0.0
 11
99.99999999999998
 21
-29.99093971934715
 31
0.0
  0
LINE
  5
14D
330
2
100
AcDbEntity
  8
20MM-JOINT
  6
HIDDEN
 62
     3
100
AcDbLine
 10
99.99999999999998
 20
-17.99093971934715
 30
0.0
 11
99.99999999999998
 21
-29.99093971934715
 31
0.0
  0
LINE
  5
14E
330
2
100
AcDbEntity
  8
20MM-JOINT
  6
HIDDEN
 62
     3
100
AcDbLine
 10
97.99999999999997
 20
-15.99093971934715
 30
0.0
 11
97.99999999999997
 21
-31.99093971934715
 31
0.0
  0
LINE
  5
14F
330
2
100
AcDbEntity
  8
20MM-JOINT
  6
HIDDEN
 62
     3
100
AcDbLine
 10
97.99999999999997
 20
-31.99093971934715
 30
0.0
 11
99.99999999999998
 21
-29.99093971934715
 31
0.0
  0
LINE
  5
150
330
2
100
AcDbEntity
  8
20MM-JOINT
  6
HIDDEN
 62
     3
100
AcDbLine
 10
97.99999999999997
 20
-15.99093971934715
 30
0.0
 11
99.99999999999998
 21
-17.99093971934715
 31
0.0
  0
LINE
  5
151
330
2
100
AcDbEntity
  8
20MM-JOINT
  6
HIDDEN
 62
     3
100
AcDbLine
 10
97.99999999999997
 20
32.00906028065287
 30
0.0
 11
97.99999999999997
 21
16.00906028065284
 31
0.0
  0
LINE
  5
152
330
2
100
AcDbEntity
  8
20MM-JOINT
  6
HIDDEN
 62
     3
100
AcDbLine
 10
99.99999999999998
 20
30.00906028065287
 30
0.0
 11
99.99999999999998
 21
18.00906028065284
 31
0.0
  0
LINE
  5
153
330
2
100
AcDbEntity
  8
20MM-JOINT
  6
HIDDEN
 62
     3
100
AcDbLine
 10
99.99999999999998
 20
30.00906028065287
 30
0.0
 11
99.99999999999998
 21
18.00906028065284
 31
0.0
  0
ARC
  5
154
330
2
100
AcDbEntity
  8
ANCON-DSD
  6
HIDDEN
100
AcDbCircle
 10
94.25407860710036
 20
24.00000000000011
 30
0.0
 40
27.61978400294555
100
AcDbArc
 50
338.7732805876968
 51
21.22671941230313
  0
LINE
  5
155
330
2
100
AcDbEntity
  8
ANCON-DSD
  6
HIDDEN
100
AcDbLine
 10
120.0
 20
34.00000000000011
 30
0.0
 11
120.0
 21
14.00000000000011
 31
0.0
  0
LINE
  5
156
330
2
100
AcDbEntity
  8
20MM-JOINT
  6
HIDDEN
 62
     3
100
AcDbLine
 10
97.99999999999997
 20
16.00906028065284
 30
0.0
 11
99.99999999999998
 21
18.00906028065284
 31
0.0
  0
LINE
  5
157
330
2
100
AcDbEntity
  8
20MM-JOINT
  6
HIDDEN
 62
     3
100
AcDbLine
 10
97.99999999999997
 20
32.00906028065287
 30
0.0
 11
99.99999999999998
 21
30.00906028065287
 31
0.0
  0
LINE
  5
158
330
2
100
AcDbEntity
  8
ANCON-DSD
100
AcDbLine
 10
140.0
 20
36.50000000000011
 30
0.0
 11
140.0
 21
11.50000000000011
 31
0.0
  0
LINE
  5
159
330
2
100
AcDbEntity
  8
ANCON-DSD
100
AcDbLine
 10
135.0
 20
36.50000000000011
 30
0.0
 11
135.0
 21
11.50000000000011
 31
0.0
  0
TEXT
  5
15A
330
2
100
AcDbEntity
  8
SPECD
 62
     6
100
AcDbText
 10
141.2886627185874
 20
125.786189074784
 30
0.0
 40
5.0
  1
TWO PART STAINLESS STEEL SHEAR CONNECTOR
  7
ROMANS
 72
     4
 11
233.9077103376352
 21
128.286189074784
 31
0.0
100
AcDbText
  0
TEXT
  5
15B
330
2
100
AcDbEntity
  8
SPECD
 62
     6
100
AcDbText
 10
140.5674783125317
 20
115.6814767489934
 30
0.0
 40
5.0
  1
COMPRISING SLEEVE AND DOWEL COMPONENT
  7
ROMANS
 72
     4
 11
228.5436687887222
 21
118.1814767489934
 31
0.0
100
AcDbText
  0
TEXT
  5
15C
330
2
100
AcDbEntity
  8
SPECD
 62
     6
100
AcDbText
 10
141.0806102425394
 20
95.73127162539458
 30
0.0
 40
5.0
  1
AND CAPABLE OF TRANSFERRING A SERVICEABILITY
  7
ROMANS
 72
     4
 11
238.4615626234917
 21
98.23127162539458
 31
0.0
100
AcDbText
  0
LINE
  5
15D
330
2
100
AcDbEntity
  8
SPECD
 62
     6
100
AcDbLine
 10
136.9969295137479
 20
81.99329602900373
 30
0.0
 11
339.4838796203882
 21
81.99329602900373
 31
0.0
  0
LINE
  5
15E
330
2
100
AcDbEntity
  8
SPECD
 62
     6
100
AcDbLine
 10
136.9969295137479
 20
135.026988614554
 30
0.0
 11
339.4838796203882
 21
135.026988614554
 31
0.0
  0
TEXT
  5
15F
330
2
100
AcDbEntity
  8
SPECD
 62
     6
100
AcDbText
 10
140.6261750725893
 20
105.7803290393236
 30
0.0
 40
5.0
  1
SUITABLE FOR A DESIGN JOINT WIDTH OF ?? MM
  7
ROMANS
 72
     4
 11
235.5071274535417
 21
108.2803290393236
 31
0.0
100
AcDbText
  0
TEXT
  5
160
330
2
100
AcDbEntity
  8
SPECD
 62
     6
100
AcDbText
 10
142.2663909988825
 20
85.69634646043231
 30
0.0
 40
5.0
  1
LOAD OF ??? kN
  7
ROMANS
 72
     4
 11
174.8854386179301
 21
88.19634646043231
 31
0.0
100
AcDbText
  0
LINE
  5
161
330
2
100
AcDbEntity
  8
SPECP
 62
     6
100
AcDbLine
 10
136.9969295137479
 20
164.3935022816479
 30
0.0
 11
204.5867804365098
 21
164.3935022816479
 31
0.0
  0
LINE
  5
163
330
2
100
AcDbEntity
  8
SPECP
 62
     6
100
AcDbLine
 10
136.9969295137479
 20
152.4755269896466
 30
0.0
 11
204.5867804365098
 21
152.4755269896466
 31
0.0
  0
TEXT
  5
164
330
2
100
AcDbEntity
  8
SPECP
 62
     6
100
AcDbText
 10
141.4910391871399
 20
155.7563921658043
 30
0.0
 40
5.0
  1
STAIFIX DSD ??
  7
ROMANS
 72
     4
 11
171.0148487109495
 21
158.2563921658043
 31
0.0
100
AcDbText
  0
LINE
  5
165
330
2
100
AcDbEntity
  8
SPECD
 62
     6
100
AcDbLine
 10
136.9969295137479
 20
135.026988614554
 30
0.0
 11
136.9969295137479
 21
81.99329602900373
 31
0.0
  0
LINE
  5
166
330
2
100
AcDbEntity
  8
SPECP
 62
     6
100
AcDbLine
 10
136.9969295137479
 20
164.3935022816479
 30
0.0
 11
136.9969295137479
 21
152.4755269896466
 31
0.0
  0
LINE
  5
167
330
2
100
AcDbEntity
  8
SPECP
 62
     6
100
AcDbLine
 10
204.5867804365098
 20
164.3935022816479
 30
0.0
 11
204.5867804365098
 21
152.4755269896466
 31
0.0
  0
LINE
  5
168
330
2
100
AcDbEntity
  8
SPECD
 62
     6
100
AcDbLine
 10
339.4838796203882
 20
135.026988614554
 30
0.0
 11
339.4838796203882
 21
81.99329602900373
 31
0.0
  0
ENDSEC
  0
SECTION
  2
OBJECTS
  0
DICTIONARY
  5
26
330
0
100
AcDbDictionary
281
     1
  3
ACAD_GROUP
350
22
  3
ACAD_LAYOUT
350
16C
  3
ACAD_MLINESTYLE
350
23
  3
ACAD_PLOTSETTINGS
350
16D
  3
ACAD_PLOTSTYLENAME
350
16A
  0
DICTIONARY
  5
3
330
2
100
AcDbDictionary
280
     1
281
     1
  3
ACAD_LAYOUTSELFREF
360
19D
  0
DICTIONARY
  5
B
330
A
100
AcDbDictionary
280
     1
281
     1
  3
ACAD_LAYOUTSELFREF
360
19E
  0
DICTIONARY
  5
22
102
{ACAD_REACTORS
330
26
102
}
330
26
100
AcDbDictionary
281
     1
  0
DICTIONARY
  5
16C
102
{ACAD_REACTORS
330
26
102
}
330
26
100
AcDbDictionary
281
     1
  3
Layout1
350
16F
  3
Model
350
16E
  0
DICTIONARY
  5
23
102
{ACAD_REACTORS
330
26
102
}
330
26
100
AcDbDictionary
281
     1
  3
Standard
350
29
  0
DICTIONARY
  5
16D
102
{ACAD_REACTORS
330
26
102
}
330
26
100
AcDbDictionary
281
     1
  0
ACDBDICTIONARYWDFLT
  5
16A
102
{ACAD_REACTORS
330
26
102
}
330
26
100
AcDbDictionary
281
     1
  3
Normal
350
16B
100
AcDbDictionaryWithDefault
340
16B
  0
XRECORD
  5
19D
102
{ACAD_REACTORS
330
3
102
}
330
3
100
AcDbXrecord
280
     1
340
2
  0
XRECORD
  5
19E
102
{ACAD_REACTORS
330
B
102
}
330
B
100
AcDbXrecord
280
     1
340
A
  0
LAYOUT
  5
16F
102
{ACAD_REACTORS
330
16C
102
}
330
16C
100
AcDbPlotSettings
  1

  2
None
  4

  6

 40
0.0
 41
0.0
 42
0.0
 43
0.0
 44
0.0
 45
0.0
 46
0.0
 47
0.0
 48
0.0
 49
0.0
140
0.0
141
0.0
142
1.0
143
1.0
 70
   688
 72
     0
 73
     0
 74
     5
  7
Std pen settings.ctb
 75
    16
147
1.0
148
0.0
149
0.0
100
AcDbLayout
  1
Layout1
 70
     1
 71
     1
 10
-0.1979161059762549
 20
-0.1979166691697489
 11
16.34375024029589
 21
11.49541603298637
 12
0.0
 22
0.0
 32
0.0
 14
1.614583349603368
 24
1.129749872553066
 34
0.0
 15
14.5312501464303
 25
10.1677488529776
 35
0.0
146
0.0
 13
0.0
 23
0.0
 33
0.0
 16
1.0
 26
0.0
 36
0.0
 17
0.0
 27
1.0
 37
0.0
 76
     0
330
A
  0
LAYOUT
  5
16E
102
{ACAD_REACTORS
330
16C
102
}
330
16C
100
AcDbPlotSettings
  1

  2
None
  4

  6

 40
0.0
 41
0.0
 42
0.0
 43
0.0
 44
0.0
 45
0.0
 46
0.0
 47
0.0
 48
0.0
 49
0.0
140
0.0
141
0.0
142
1.0
143
1.0
 70
  1712
 72
     0
 73
     0
 74
     0
  7
Std pen settings.ctb
 75
     0
147
1.0
148
0.0
149
0.0
100
AcDbLayout
  1
Model
 70
     1
 71
     0
 10
0.0
 20
0.0
 11
12.0
 21
9.0
 12
0.0
 22
0.0
 32
0.0
 14
0.0
 24
0.0
 34
0.0
 15
0.0
 25
0.0
 35
0.0
146
0.0
 13
0.0
 23
0.0
 33
0.0
 16
1.0
 26
0.0
 36
0.0
 17
0.0
 27
1.0
 37
0.0
 76
     0
330
2
  0
MLINESTYLE
  5
29
102
{ACAD_REACTORS
330
23
102
}
330
23
100
AcDbMlineStyle
  2
STANDARD
 70
     0
  3

 62
   256
 51
90.0
 52
90.0
 71
     2
 49
0.5
 62
   256
  6
BYLAYER
 49
-0.5
 62
   256
  6
BYLAYER
  0
ACDBPLACEHOLDER
  5
16B
102
{ACAD_REACTORS
330
16A
102
}
330
16A
  0
ENDSEC
  0
EOF
