  0
SECTION
  2
HEADER
  9
$ACADVER
  1
AC1015
  9
$ACADMAINTVER
 70
    10
  9
$DWGCODEPAGE
  3
ANSI_1252
  9
$INSBASE
 10
0.0
 20
0.0
 30
0.0
  9
$EXTMIN
 10
-228.4080769693471
 20
-157.3879671262461
 30
-0.0000000349181948
  9
$EXTMAX
 10
337.3091240608955
 20
187.7813237846162
 30
0.0000000814935746
  9
$LIMMIN
 10
0.0
 20
0.0
  9
$LIMMAX
 10
420.0
 20
297.0
  9
$ORTHOMODE
 70
     1
  9
$REGENMODE
 70
     1
  9
$FILLMODE
 70
     1
  9
$QTEXTMODE
 70
     0
  9
$MIRRTEXT
 70
     1
  9
$LTSCALE
 40
0.25
  9
$ATTMODE
 70
     1
  9
$TEXTSIZE
 40
5.0
  9
$TRACEWID
 40
10.0
  9
$TEXTSTYLE
  7
ROMANS
  9
$CLAYER
  8
DIMS
  9
$CELTYPE
  6
ByLayer
  9
$CECOLOR
 62
   256
  9
$CELTSCALE
 40
1.0
  9
$DISPSILH
 70
     0
  9
$DIMSCALE
 40
0.0
  9
$DIMASZ
 40
4.0
  9
$DIMEXO
 40
3.0
  9
$DIMDLI
 40
10.0
  9
$DIMRND
 40
0.0
  9
$DIMDLE
 40
1.25
  9
$DIMEXE
 40
3.0
  9
$DIMTP
 40
0.0
  9
$DIMTM
 40
0.0
  9
$DIMTXT
 40
3.0
  9
$DIMCEN
 40
-3.0
  9
$DIMTSZ
 40
0.0
  9
$DIMTOL
 70
     0
  9
$DIMLIM
 70
     0
  9
$DIMTIH
 70
     0
  9
$DIMTOH
 70
     0
  9
$DIMSE1
 70
     0
  9
$DIMSE2
 70
     0
  9
$DIMTAD
 70
     1
  9
$DIMZIN
 70
    12
  9
$DIMBLK
  1

  9
$DIMASO
 70
     1
  9
$DIMSHO
 70
     0
  9
$DIMPOST
  1

  9
$DIMAPOST
  1

  9
$DIMALT
 70
     0
  9
$DIMALTD
 70
     2
  9
$DIMALTF
 40
0.039
  9
$DIMLFAC
 40
1.0
  9
$DIMTOFL
 70
     0
  9
$DIMTVP
 40
1.5
  9
$DIMTIX
 70
     0
  9
$DIMSOXD
 70
     0
  9
$DIMSAH
 70
     0
  9
$DIMBLK1
  1

  9
$DIMBLK2
  1

  9
$DIMSTYLE
  2
1-2
  9
$DIMCLRD
 70
     0
  9
$DIMCLRE
 70
     0
  9
$DIMCLRT
 70
     0
  9
$DIMTFAC
 40
0.75
  9
$DIMGAP
 40
1.5
  9
$DIMJUST
 70
     0
  9
$DIMSD1
 70
     0
  9
$DIMSD2
 70
     0
  9
$DIMTOLJ
 70
     1
  9
$DIMTZIN
 70
    12
  9
$DIMALTZ
 70
    12
  9
$DIMALTTZ
 70
    12
  9
$DIMUPT
 70
     0
  9
$DIMDEC
 70
     2
  9
$DIMTDEC
 70
     2
  9
$DIMALTU
 70
     2
  9
$DIMALTTD
 70
     2
  9
$DIMTXSTY
  7
STANDARD
  9
$DIMAUNIT
 70
     0
  9
$DIMADEC
 70
     0
  9
$DIMALTRND
 40
0.0
  9
$DIMAZIN
 70
     0
  9
$DIMDSEP
 70
    46
  9
$DIMATFIT
 70
     3
  9
$DIMFRAC
 70
     0
  9
$DIMLDRBLK
  1

  9
$DIMLUNIT
 70
     2
  9
$DIMLWD
 70
    -2
  9
$DIMLWE
 70
    -2
  9
$DIMTMOVE
 70
     2
  9
$LUNITS
 70
     2
  9
$LUPREC
 70
     2
  9
$SKETCHINC
 40
1.0
  9
$FILLETRAD
 40
0.0
  9
$AUNITS
 70
     0
  9
$AUPREC
 70
     4
  9
$MENU
  1
acad
  9
$ELEVATION
 40
0.0
  9
$PELEVATION
 40
0.0
  9
$THICKNESS
 40
0.0
  9
$LIMCHECK
 70
     0
  9
$CHAMFERA
 40
0.0
  9
$CHAMFERB
 40
0.0
  9
$CHAMFERC
 40
0.0
  9
$CHAMFERD
 40
0.0
  9
$SKPOLY
 70
     0
  9
$TDCREATE
 40
2449994.363182060
  9
$TDUCREATE
 40
2449994.321515393
  9
$TDUPDATE
 40
2452498.564206134
  9
$TDUUPDATE
 40
2452498.522539467
  9
$TDINDWG
 40
0.0801320718
  9
$TDUSRTIMER
 40
0.0801327662
  9
$USRTIMER
 70
     1
  9
$ANGBASE
 50
0.0
  9
$ANGDIR
 70
     0
  9
$PDMODE
 70
     0
  9
$PDSIZE
 40
0.0
  9
$PLINEWID
 40
0.0
  9
$SPLFRAME
 70
     0
  9
$SPLINETYPE
 70
     6
  9
$SPLINESEGS
 70
     8
  9
$HANDSEED
  5
166
  9
$SURFTAB1
 70
    18
  9
$SURFTAB2
 70
    18
  9
$SURFTYPE
 70
     6
  9
$SURFU
 70
    18
  9
$SURFV
 70
    18
  9
$UCSBASE
  2

  9
$UCSNAME
  2

  9
$UCSORG
 10
0.0
 20
0.0
 30
0.0
  9
$UCSXDIR
 10
1.0
 20
0.0
 30
0.0
  9
$UCSYDIR
 10
0.0
 20
1.0
 30
0.0
  9
$UCSORTHOREF
  2

  9
$UCSORTHOVIEW
 70
     0
  9
$UCSORGTOP
 10
0.0
 20
0.0
 30
0.0
  9
$UCSORGBOTTOM
 10
0.0
 20
0.0
 30
0.0
  9
$UCSORGLEFT
 10
0.0
 20
0.0
 30
0.0
  9
$UCSORGRIGHT
 10
0.0
 20
0.0
 30
0.0
  9
$UCSORGFRONT
 10
0.0
 20
0.0
 30
0.0
  9
$UCSORGBACK
 10
0.0
 20
0.0
 30
0.0
  9
$PUCSBASE
  2

  9
$PUCSNAME
  2

  9
$PUCSORG
 10
0.0
 20
0.0
 30
0.0
  9
$PUCSXDIR
 10
1.0
 20
0.0
 30
0.0
  9
$PUCSYDIR
 10
0.0
 20
1.0
 30
0.0
  9
$PUCSORTHOREF
  2

  9
$PUCSORTHOVIEW
 70
     0
  9
$PUCSORGTOP
 10
0.0
 20
0.0
 30
0.0
  9
$PUCSORGBOTTOM
 10
0.0
 20
0.0
 30
0.0
  9
$PUCSORGLEFT
 10
0.0
 20
0.0
 30
0.0
  9
$PUCSORGRIGHT
 10
0.0
 20
0.0
 30
0.0
  9
$PUCSORGFRONT
 10
0.0
 20
0.0
 30
0.0
  9
$PUCSORGBACK
 10
0.0
 20
0.0
 30
0.0
  9
$USERI1
 70
     0
  9
$USERI2
 70
     0
  9
$USERI3
 70
     0
  9
$USERI4
 70
     0
  9
$USERI5
 70
     0
  9
$USERR1
 40
0.0
  9
$USERR2
 40
0.0
  9
$USERR3
 40
0.0
  9
$USERR4
 40
0.0
  9
$USERR5
 40
0.0
  9
$WORLDVIEW
 70
     1
  9
$SHADEDGE
 70
     3
  9
$SHADEDIF
 70
    70
  9
$TILEMODE
 70
     1
  9
$MAXACTVP
 70
    16
  9
$PINSBASE
 10
0.0
 20
0.0
 30
0.0
  9
$PLIMCHECK
 70
     0
  9
$PEXTMIN
 10
1.614583349603368
 20
1.129749872553066
 30
0.0
  9
$PEXTMAX
 10
14.5312501464303
 20
10.1677488529776
 30
0.0
  9
$PLIMMIN
 10
-0.1979161059762549
 20
-0.1979166691697489
  9
$PLIMMAX
 10
16.34375024029589
 20
11.49541603298637
  9
$UNITMODE
 70
     0
  9
$VISRETAIN
 70
     0
  9
$PLINEGEN
 70
     0
  9
$PSLTSCALE
 70
     1
  9
$TREEDEPTH
 70
  3020
  9
$CMLSTYLE
  2
Standard
  9
$CMLJUST
 70
     0
  9
$CMLSCALE
 40
1.0
  9
$PROXYGRAPHICS
 70
     1
  9
$MEASUREMENT
 70
     0
  9
$CELWEIGHT
370
    -1
  9
$ENDCAPS
280
     0
  9
$JOINSTYLE
280
     0
  9
$LWDISPLAY
290
     0
  9
$INSUNITS
 70
     0
  9
$HYPERLINKBASE
  1

  9
$STYLESHEET
  1

  9
$XEDIT
290
     1
  9
$CEPSNTYPE
380
     0
  9
$PSTYLEMODE
290
     1
  9
$FINGERPRINTGUID
  2
{9B7CC7F1-952B-4ACB-9DF2-5BD6BBCC21ED}
  9
$VERSIONGUID
  2
{627E2980-AD1D-11D6-AAC6-0010A4A25215}
  9
$EXTNAMES
290
     1
  9
$PSVPSCALE
 40
0.0
  9
$OLESTARTUP
290
     0
  0
ENDSEC
  0
SECTION
  2
CLASSES
  0
CLASS
  1
ACDBDICTIONARYWDFLT
  2
AcDbDictionaryWithDefault
  3
AutoCAD 2000
 90
        0
280
     1
281
     0
  0
CLASS
  1
ACDBPLACEHOLDER
  2
AcDbPlaceHolder
  3
AutoCAD 2000
 90
        0
280
     1
281
     0
  0
CLASS
  1
LAYOUT
  2
AcDbLayout
  3
AutoCAD 2000
 90
        0
280
     1
281
     0
  0
CLASS
  1
LONG_TRANSACTION
  2
AcDbLongTransaction
  3
AutoCAD 2000
 90
    32768
280
     1
281
     0
  0
CLASS
  1
LWPOLYLINE
  2
AcDbPolyline
  3
AutoCAD 2000
 90
    32768
280
     0
281
     1
  0
CLASS
  1
HATCH
  2
AcDbHatch
  3
AutoCAD 2000
 90
    32768
280
     0
281
     1
  0
CLASS
  1
XRECORD
  2
AcDbXrecord
  3
AutoCAD 2000
 90
    32768
280
     0
281
     0
  0
CLASS
  1
LONG_TRANSACTION
  2
AcDbLongTransaction
  3
AutoCAD 2000
 90
    32768
280
     1
281
     0
  0
CLASS
  1
LWPOLYLINE
  2
AcDbPolyline
  3
AutoCAD 2000
 90
    32768
280
     0
281
     1
  0
CLASS
  1
HATCH
  2
AcDbHatch
  3
AutoCAD 2000
 90
    32768
280
     0
281
     1
  0
CLASS
  1
XRECORD
  2
AcDbXrecord
  3
AutoCAD 2000
 90
    32768
280
     0
281
     0
  0
CLASS
  1
LONG_TRANSACTION
  2
AcDbLongTransaction
  3
AutoCAD 2000
 90
    32768
280
     0
281
     0
  0
CLASS
  1
LWPOLYLINE
  2
AcDbPolyline
  3
AutoCAD 2000
 90
    32768
280
     0
281
     1
  0
CLASS
  1
HATCH
  2
AcDbHatch
  3
AutoCAD 2000
 90
    32768
280
     0
281
     1
  0
CLASS
  1
XRECORD
  2
AcDbXrecord
  3
AutoCAD 2000
 90
    32768
280
     0
281
     0
  0
ENDSEC
  0
SECTION
  2
TABLES
  0
TABLE
  2
VPORT
  5
1C
330
0
100
AcDbSymbolTable
 70
     3
  0
VPORT
  5
165
330
1C
100
AcDbSymbolTableRecord
100
AcDbViewportTableRecord
  2
*Active
 70
     0
 10
0.0
 20
0.0
 11
1.0
 21
1.0
 12
54.45052354577424
 22
15.19667832918503
 13
0.0
 23
0.0
 14
5.0
 24
5.0
 15
10.0
 25
10.0
 16
0.0
 26
0.0
 36
1.0
 17
0.0
 27
0.0
 37
0.0
 40
348.9416328880303
 41
1.760948905109489
 42
50.0
 43
0.0
 44
0.0
 50
0.0
 51
0.0
 71
     0
 72
   100
 73
     1
 74
     1
 75
     0
 76
     0
 77
     0
 78
     0
281
     0
 65
     1
110
0.0
120
0.0
130
0.0
111
1.0
121
0.0
131
0.0
112
0.0
122
1.0
132
0.0
 79
     0
146
0.0
  0
ENDTAB
  0
TABLE
  2
LTYPE
  5
13
330
0
100
AcDbSymbolTable
 70
     3
  0
LTYPE
  5
14
330
13
100
AcDbSymbolTableRecord
100
AcDbLinetypeTableRecord
  2
ByBlock
 70
     0
  3

 72
    65
 73
     0
 40
0.0
  0
LTYPE
  5
17
330
13
100
AcDbSymbolTableRecord
100
AcDbLinetypeTableRecord
  2
ByLayer
 70
     0
  3

 72
    65
 73
     0
 40
0.0
  0
LTYPE
  5
8
330
13
100
AcDbSymbolTableRecord
100
AcDbLinetypeTableRecord
  2
CONTINUOUS
 70
     0
  3
Solid line
 72
    65
 73
     0
 40
0.0
  0
LTYPE
  5
58
330
13
100
AcDbSymbolTableRecord
100
AcDbLinetypeTableRecord
  2
CENTER2
 70
     0
  3
___ _ ___ _ ___ _ ___ _ ___ _ ___ _ ___ _ ___ _
 72
    65
 73
     4
 40
28.57499999999999
 49
19.05
 74
     0
 49
-3.174999999999999
 74
     0
 49
3.174999999999999
 74
     0
 49
-3.174999999999999
 74
     0
  0
LTYPE
  5
42
330
13
100
AcDbSymbolTableRecord
100
AcDbLinetypeTableRecord
  2
HIDDEN
 70
     0
  3
__ __ __ __ __ __ __ __ __ __ __ __ __ __ __ __
 72
    65
 73
     2
 40
9.524999999999998
 49
6.349999999999999
 74
     0
 49
-3.174999999999999
 74
     0
  0
ENDTAB
  0
TABLE
  2
LAYER
  5
10
330
0
100
AcDbSymbolTable
 70
    11
  0
LAYER
  5
7
330
10
100
AcDbSymbolTableRecord
100
AcDbLayerTableRecord
  2
0
 70
     0
 62
     7
  6
CONTINUOUS
370
    -3
390
124
  0
LAYER
  5
27
330
10
100
AcDbSymbolTableRecord
100
AcDbLayerTableRecord
  2
DIMS
 70
     0
 62
     1
  6
CONTINUOUS
370
    -3
390
124
  0
LAYER
  5
3E
330
10
100
AcDbSymbolTableRecord
100
AcDbLayerTableRecord
  2
ANCON-DSD
 70
     0
 62
     3
  6
CONTINUOUS
370
    -3
390
124
  0
LAYER
  5
36
330
10
100
AcDbSymbolTableRecord
100
AcDbLayerTableRecord
  2
DEFPOINTS
 70
     0
 62
     7
  6
CONTINUOUS
290
     0
370
    -3
390
124
  0
LAYER
  5
66
330
10
100
AcDbSymbolTableRecord
100
AcDbLayerTableRecord
  2
CONCRETE
 70
     0
 62
     2
  6
CONTINUOUS
370
    -3
390
124
  0
LAYER
  5
E8
330
10
100
AcDbSymbolTableRecord
100
AcDbLayerTableRecord
  2
ORIGIN
 70
     0
 62
     7
  6
CONTINUOUS
370
    -3
390
124
  0
LAYER
  5
41
330
10
100
AcDbSymbolTableRecord
100
AcDbLayerTableRecord
  2
20MM-JOINT
 70
     0
 62
     7
  6
CONTINUOUS
370
    -3
390
124
  0
LAYER
  5
FF
330
10
100
AcDbSymbolTableRecord
100
AcDbLayerTableRecord
  2
ANCON-TEXT
 70
     0
 62
     6
  6
CONTINUOUS
370
    -3
390
124
  0
LAYER
  5
74
330
10
100
AcDbSymbolTableRecord
100
AcDbLayerTableRecord
  2
20MM-DIMS
 70
     0
 62
     1
  6
CONTINUOUS
370
    -3
390
124
  0
LAYER
  5
54
330
10
100
AcDbSymbolTableRecord
100
AcDbLayerTableRecord
  2
SPECP
 70
     0
 62
     6
  6
CONTINUOUS
370
    -3
390
124
  0
LAYER
  5
52
330
10
100
AcDbSymbolTableRecord
100
AcDbLayerTableRecord
  2
SPECD
 70
     0
 62
     6
  6
CONTINUOUS
370
    -3
390
124
  0
ENDTAB
  0
TABLE
  2
STYLE
  5
11
330
0
100
AcDbSymbolTable
 70
     2
  0
STYLE
  5
12
330
11
100
AcDbSymbolTableRecord
100
AcDbTextStyleTableRecord
  2
STANDARD
 70
     0
 40
0.0
 41
1.0
 50
0.0
 71
     0
 42
6.0
  3
txt.shx
  4

  0
STYLE
  5
28
330
11
100
AcDbSymbolTableRecord
100
AcDbTextStyleTableRecord
  2
ROMANS
 70
     0
 40
0.0
 41
1.0
 50
0.0
 71
     0
 42
5.0
  3
romans
  4

  0
ENDTAB
  0
TABLE
  2
VIEW
  5
1A
330
0
100
AcDbSymbolTable
 70
     0
  0
ENDTAB
  0
TABLE
  2
UCS
  5
1B
330
0
100
AcDbSymbolTable
 70
     0
  0
ENDTAB
  0
TABLE
  2
APPID
  5
1E
330
0
100
AcDbSymbolTable
 70
     1
  0
APPID
  5
1F
330
1E
100
AcDbSymbolTableRecord
100
AcDbRegAppTableRecord
  2
ACAD
 70
     0
  0
ENDTAB
  0
TABLE
  2
DIMSTYLE
  5
20
330
0
100
AcDbSymbolTable
 70
     1
100
AcDbDimStyleTable
 71
     0
  0
DIMSTYLE
105
2A
102
{ACAD_REACTORS
330
C4
330
B7
330
97
330
88
330
D9
330
44
330
73
330
A5
330
FE
330
2D
102
}
330
20
100
AcDbSymbolTableRecord
100
AcDbDimStyleTableRecord
  2
1-2
 70
     0
 40
0.0
 41
4.0
 42
3.0
 43
10.0
 44
3.0
 46
1.25
 73
     0
 74
     0
 77
     1
 78
    12
140
3.0
141
-3.0
143
0.039
145
1.5
146
0.75
147
1.5
271
     2
272
     2
279
     2
284
    12
285
    12
286
    12
340
12
  0
ENDTAB
  0
TABLE
  2
BLOCK_RECORD
  5
1
330
0
100
AcDbSymbolTable
 70
    11
  0
BLOCK_RECORD
  5
2
102
{ACAD_XDICTIONARY
360
3
102
}
330
1
100
AcDbSymbolTableRecord
100
AcDbBlockTableRecord
  2
*Model_Space
340
127
  0
BLOCK_RECORD
  5
A
102
{ACAD_XDICTIONARY
360
B
102
}
330
1
100
AcDbSymbolTableRecord
100
AcDbBlockTableRecord
  2
*Paper_Space
340
128
  0
BLOCK_RECORD
  5
B8
330
1
100
AcDbSymbolTableRecord
100
AcDbBlockTableRecord
  2
*D0
340
0
  0
BLOCK_RECORD
  5
C5
330
1
100
AcDbSymbolTableRecord
100
AcDbBlockTableRecord
  2
*D1
340
0
  0
BLOCK_RECORD
  5
A6
330
1
100
AcDbSymbolTableRecord
100
AcDbBlockTableRecord
  2
*D2
340
0
  0
BLOCK_RECORD
  5
98
330
1
100
AcDbSymbolTableRecord
100
AcDbBlockTableRecord
  2
*D3
340
0
  0
BLOCK_RECORD
  5
DA
330
1
100
AcDbSymbolTableRecord
100
AcDbBlockTableRecord
  2
*D4
340
0
  0
BLOCK_RECORD
  5
100
330
1
100
AcDbSymbolTableRecord
100
AcDbBlockTableRecord
  2
*D5
340
0
  0
BLOCK_RECORD
  5
45
330
1
100
AcDbSymbolTableRecord
100
AcDbBlockTableRecord
  2
*D6
340
0
  0
BLOCK_RECORD
  5
2E
330
1
100
AcDbSymbolTableRecord
100
AcDbBlockTableRecord
  2
*D7
340
0
  0
BLOCK_RECORD
  5
75
330
1
100
AcDbSymbolTableRecord
100
AcDbBlockTableRecord
  2
*D8
340
0
  0
BLOCK_RECORD
  5
89
330
1
100
AcDbSymbolTableRecord
100
AcDbBlockTableRecord
  2
*D9
340
0
  0
BLOCK_RECORD
  5
68
330
1
100
AcDbSymbolTableRecord
100
AcDbBlockTableRecord
  2
A$C6BE937E7
340
0
  0
ENDTAB
  0
ENDSEC
  0
SECTION
  2
BLOCKS
  0
BLOCK
  5
6
330
2
100
AcDbEntity
  8
0
100
AcDbBlockBegin
  2
*Model_Space
 70
     0
 10
0.0
 20
0.0
 30
0.0
  3
*Model_Space
  1

  0
ENDBLK
  5
9
330
2
100
AcDbEntity
  8
0
100
AcDbBlockEnd
  0
BLOCK
  5
E
330
A
100
AcDbEntity
 67
     1
  8
0
100
AcDbBlockBegin
  2
*Paper_Space
 70
     0
 10
0.0
 20
0.0
 30
0.0
  3
*Paper_Space
  1

  0
ENDBLK
  5
F
330
A
100
AcDbEntity
 67
     1
  8
0
100
AcDbBlockEnd
  0
BLOCK
  5
C2
330
B8
100
AcDbEntity
  8
0
100
AcDbBlockBegin
  2
*D0
 70
     1
 10
0.0
 20
0.0
 30
0.0
  3
*D0
  1

  0
LINE
  5
B9
330
B8
100
AcDbEntity
  8
0
  6
ByBlock
 62
     0
100
AcDbLine
 10
-25.0
 20
-60.49649990072539
 30
0.0
 11
-25.0
 21
-107.3064474186534
 31
0.0
  0
LINE
  5
BA
330
B8
100
AcDbEntity
  8
0
  6
ByBlock
 62
     0
100
AcDbLine
 10
-53.0
 20
-18.00000000000037
 30
0.0
 11
-53.0
 21
-107.3064474186534
 31
0.0
  0
LINE
  5
BB
330
B8
100
AcDbEntity
  8
0
  6
ByBlock
 62
     0
100
AcDbLine
 10
-29.0
 20
-104.3064474186534
 30
0.0
 11
-49.0
 21
-104.3064474186534
 31
0.0
  0
SOLID
  5
BC
330
B8
100
AcDbEntity
  8
0
  6
ByBlock
 62
     0
100
AcDbTrace
 10
-29.0
 20
-103.6397807519867
 30
0.0
 11
-29.0
 21
-104.9731140853201
 31
0.0
 12
-25.0
 22
-104.3064474186534
 32
0.0
 13
-25.0
 23
-104.3064474186534
 33
0.0
  0
SOLID
  5
BD
330
B8
100
AcDbEntity
  8
0
  6
ByBlock
 62
     0
100
AcDbTrace
 10
-49.0
 20
-103.6397807519867
 30
0.0
 11
-49.0
 21
-104.9731140853201
 31
0.0
 12
-53.0
 22
-104.3064474186534
 32
0.0
 13
-53.0
 23
-104.3064474186534
 33
0.0
  0
TEXT
  5
BE
330
B8
100
AcDbEntity
  8
0
  6
ByBlock
 62
     0
100
AcDbText
 10
-41.85714285714285
 20
-102.8064474186534
 30
0.0
 40
3.0
  1
28
  7
ROMANS
 72
     1
 11
-39.0
 21
-101.3064474186534
 31
0.0
100
AcDbText
 73
     2
  0
POINT
  5
BF
330
B8
100
AcDbEntity
  8
DEFPOINTS
  6
ByBlock
 62
     0
100
AcDbPoint
 10
-25.0
 20
-57.49649990072539
 30
0.0
  0
POINT
  5
C0
330
B8
100
AcDbEntity
  8
DEFPOINTS
  6
ByBlock
 62
     0
100
AcDbPoint
 10
-53.0
 20
-15.00000000000037
 30
0.0
  0
POINT
  5
C1
330
B8
100
AcDbEntity
  8
DEFPOINTS
  6
ByBlock
 62
     0
100
AcDbPoint
 10
-53.0
 20
-104.3064474186534
 30
0.0
  0
ENDBLK
  5
C3
330
B8
100
AcDbEntity
  8
0
100
AcDbBlockEnd
  0
BLOCK
  5
CF
330
C5
100
AcDbEntity
  8
0
100
AcDbBlockBegin
  2
*D1
 70
     1
 10
0.0
 20
0.0
 30
0.0
  3
*D1
  1

  0
LINE
  5
C6
330
C5
100
AcDbEntity
  8
0
  6
ByBlock
 62
     0
100
AcDbLine
 10
-53.0
 20
-18.00000000000037
 30
0.0
 11
-53.0
 21
-107.3064474186534
 31
0.0
  0
LINE
  5
C7
330
C5
100
AcDbEntity
  8
0
  6
ByBlock
 62
     0
100
AcDbLine
 10
-85.0
 20
-18.00000000000026
 30
0.0
 11
-85.0
 21
-107.3064474186534
 31
0.0
  0
LINE
  5
C8
330
C5
100
AcDbEntity
  8
0
  6
ByBlock
 62
     0
100
AcDbLine
 10
-57.0
 20
-104.3064474186534
 30
0.0
 11
-81.0
 21
-104.3064474186534
 31
0.0
  0
SOLID
  5
C9
330
C5
100
AcDbEntity
  8
0
  6
ByBlock
 62
     0
100
AcDbTrace
 10
-57.0
 20
-103.6397807519867
 30
0.0
 11
-57.0
 21
-104.9731140853201
 31
0.0
 12
-53.0
 22
-104.3064474186534
 32
0.0
 13
-53.0
 23
-104.3064474186534
 33
0.0
  0
SOLID
  5
CA
330
C5
100
AcDbEntity
  8
0
  6
ByBlock
 62
     0
100
AcDbTrace
 10
-81.0
 20
-103.6397807519867
 30
0.0
 11
-81.0
 21
-104.9731140853201
 31
0.0
 12
-85.0
 22
-104.3064474186534
 32
0.0
 13
-85.0
 23
-104.3064474186534
 33
0.0
  0
TEXT
  5
CB
330
C5
100
AcDbEntity
  8
0
  6
ByBlock
 62
     0
100
AcDbText
 10
-71.85714285714286
 20
-102.8064474186534
 30
0.0
 40
3.0
  1
32
  7
ROMANS
 72
     1
 11
-69.0
 21
-101.3064474186534
 31
0.0
100
AcDbText
 73
     2
  0
POINT
  5
CC
330
C5
100
AcDbEntity
  8
DEFPOINTS
  6
ByBlock
 62
     0
100
AcDbPoint
 10
-53.0
 20
-15.00000000000037
 30
0.0
  0
POINT
  5
CD
330
C5
100
AcDbEntity
  8
DEFPOINTS
  6
ByBlock
 62
     0
100
AcDbPoint
 10
-85.0
 20
-15.00000000000026
 30
0.0
  0
POINT
  5
CE
330
C5
100
AcDbEntity
  8
DEFPOINTS
  6
ByBlock
 62
     0
100
AcDbPoint
 10
-85.0
 20
-104.3064474186534
 30
0.0
  0
ENDBLK
  5
D0
330
C5
100
AcDbEntity
  8
0
100
AcDbBlockEnd
  0
BLOCK
  5
B1
330
A6
100
AcDbEntity
  8
0
100
AcDbBlockBegin
  2
*D2
 70
     1
 10
0.0
 20
0.0
 30
0.0
  3
*D2
  1

  0
LINE
  5
A7
330
A6
100
AcDbEntity
  8
0
  6
ByBlock
 62
     0
100
AcDbLine
 10
-24.99999999999991
 20
-23.0
 30
0.0
 11
-24.99999999999991
 21
-107.3064474186534
 31
0.0
  0
LINE
  5
A8
330
A6
100
AcDbEntity
  8
0
  6
ByBlock
 62
     0
100
AcDbLine
 10
-19.9999999999999
 20
-23.0
 30
0.0
 11
-19.9999999999999
 21
-107.3064474186534
 31
0.0
  0
LINE
  5
A9
330
A6
100
AcDbEntity
  8
0
  6
ByBlock
 62
     0
100
AcDbLine
 10
-28.99999999999991
 20
-104.3064474186534
 30
0.0
 11
-32.9999999999999
 21
-104.3064474186534
 31
0.0
  0
LINE
  5
AA
330
A6
100
AcDbEntity
  8
0
  6
ByBlock
 62
     0
100
AcDbLine
 10
-15.9999999999999
 20
-104.3064474186534
 30
0.0
 11
-11.9999999999999
 21
-104.3064474186534
 31
0.0
  0
SOLID
  5
AB
330
A6
100
AcDbEntity
  8
0
  6
ByBlock
 62
     0
100
AcDbTrace
 10
-28.99999999999991
 20
-103.6397807519867
 30
0.0
 11
-28.99999999999991
 21
-104.9731140853201
 31
0.0
 12
-24.99999999999991
 22
-104.3064474186534
 32
0.0
 13
-24.99999999999991
 23
-104.3064474186534
 33
0.0
  0
SOLID
  5
AC
330
A6
100
AcDbEntity
  8
0
  6
ByBlock
 62
     0
100
AcDbTrace
 10
-15.9999999999999
 20
-103.6397807519867
 30
0.0
 11
-15.9999999999999
 21
-104.9731140853201
 31
0.0
 12
-19.9999999999999
 22
-104.3064474186534
 32
0.0
 13
-19.9999999999999
 23
-104.3064474186534
 33
0.0
  0
TEXT
  5
AD
330
A6
100
AcDbEntity
  8
0
  6
ByBlock
 62
     0
100
AcDbText
 10
-15.44657663292906
 20
-102.8064474186534
 30
0.0
 40
3.0
  1
5
  7
ROMANS
 72
     1
 11
-14.01800520435763
 21
-101.3064474186534
 31
0.0
100
AcDbText
 73
     2
  0
POINT
  5
AE
330
A6
100
AcDbEntity
  8
DEFPOINTS
  6
ByBlock
 62
     0
100
AcDbPoint
 10
-24.99999999999991
 20
-20.0
 30
0.0
  0
POINT
  5
AF
330
A6
100
AcDbEntity
  8
DEFPOINTS
  6
ByBlock
 62
     0
100
AcDbPoint
 10
-19.9999999999999
 20
-20.0
 30
0.0
  0
POINT
  5
B0
330
A6
100
AcDbEntity
  8
DEFPOINTS
  6
ByBlock
 62
     0
100
AcDbPoint
 10
-19.9999999999999
 20
-104.3064474186534
 30
0.0
  0
ENDBLK
  5
B2
330
A6
100
AcDbEntity
  8
0
100
AcDbBlockEnd
  0
BLOCK
  5
A3
330
98
100
AcDbEntity
  8
0
100
AcDbBlockBegin
  2
*D3
 70
     1
 10
0.0
 20
0.0
 30
0.0
  3
*D3
  1

  0
LINE
  5
99
330
98
100
AcDbEntity
  8
0
  6
ByBlock
 62
     0
100
AcDbLine
 10
3.0
 20
-42.99999999999998
 30
0.0
 11
3.0
 21
-107.3064474186534
 31
0.0
  0
LINE
  5
9A
330
98
100
AcDbEntity
  8
0
  6
ByBlock
 62
     0
100
AcDbLine
 10
0.0
 20
-42.99999999999998
 30
0.0
 11
0.0
 21
-107.3064474186534
 31
0.0
  0
LINE
  5
9B
330
98
100
AcDbEntity
  8
0
  6
ByBlock
 62
     0
100
AcDbLine
 10
7.0
 20
-104.3064474186534
 30
0.0
 11
11.0
 21
-104.3064474186534
 31
0.0
  0
LINE
  5
9C
330
98
100
AcDbEntity
  8
0
  6
ByBlock
 62
     0
100
AcDbLine
 10
-4.0
 20
-104.3064474186534
 30
0.0
 11
-8.0
 21
-104.3064474186534
 31
0.0
  0
SOLID
  5
9D
330
98
100
AcDbEntity
  8
0
  6
ByBlock
 62
     0
100
AcDbTrace
 10
7.0
 20
-103.6397807519868
 30
0.0
 11
7.0
 21
-104.9731140853201
 31
0.0
 12
3.0
 22
-104.3064474186534
 32
0.0
 13
3.0
 23
-104.3064474186534
 33
0.0
  0
SOLID
  5
9E
330
98
100
AcDbEntity
  8
0
  6
ByBlock
 62
     0
100
AcDbTrace
 10
-4.0
 20
-103.6397807519868
 30
0.0
 11
-4.0
 21
-104.9731140853201
 31
0.0
 12
0.0
 22
-104.3064474186534
 32
0.0
 13
0.0
 23
-104.3064474186534
 33
0.0
  0
TEXT
  5
9F
330
98
100
AcDbEntity
  8
0
  6
ByBlock
 62
     0
100
AcDbText
 10
-7.364265873269689
 20
-102.8064474186534
 30
0.0
 40
3.0
  1
3
  7
ROMANS
 72
     1
 11
-5.93569444469826
 21
-101.3064474186534
 31
0.0
100
AcDbText
 73
     2
  0
POINT
  5
A0
330
98
100
AcDbEntity
  8
DEFPOINTS
  6
ByBlock
 62
     0
100
AcDbPoint
 10
3.0
 20
-39.99999999999998
 30
0.0
  0
POINT
  5
A1
330
98
100
AcDbEntity
  8
DEFPOINTS
  6
ByBlock
 62
     0
100
AcDbPoint
 10
0.0
 20
-39.99999999999998
 30
0.0
  0
POINT
  5
A2
330
98
100
AcDbEntity
  8
DEFPOINTS
  6
ByBlock
 62
     0
100
AcDbPoint
 10
0.0
 20
-104.3064474186534
 30
0.0
  0
ENDBLK
  5
A4
330
98
100
AcDbEntity
  8
0
100
AcDbBlockEnd
  0
BLOCK
  5
E4
330
DA
100
AcDbEntity
  8
0
100
AcDbBlockBegin
  2
*D4
 70
     1
 10
0.0
 20
0.0
 30
0.0
  3
*D4
  1

  0
LINE
  5
DB
330
DA
100
AcDbEntity
  8
0
  6
ByBlock
 62
     0
100
AcDbLine
 10
3.0
 20
-78.00906028065293
 30
0.0
 11
3.0
 21
-107.3064474186534
 31
0.0
  0
LINE
  5
DC
330
DA
100
AcDbEntity
  8
0
  6
ByBlock
 62
     0
100
AcDbLine
 10
32.99658760790136
 20
-82.99999999999997
 30
0.0
 11
32.99658760790136
 21
-107.3064474186534
 31
0.0
  0
LINE
  5
DD
330
DA
100
AcDbEntity
  8
0
  6
ByBlock
 62
     0
100
AcDbLine
 10
7.0
 20
-104.3064474186534
 30
0.0
 11
28.99658760790136
 21
-104.3064474186534
 31
0.0
  0
SOLID
  5
DE
330
DA
100
AcDbEntity
  8
0
  6
ByBlock
 62
     0
100
AcDbTrace
 10
7.0
 20
-103.6397807519868
 30
0.0
 11
7.0
 21
-104.9731140853201
 31
0.0
 12
3.0
 22
-104.3064474186534
 32
0.0
 13
3.0
 23
-104.3064474186534
 33
0.0
  0
SOLID
  5
DF
330
DA
100
AcDbEntity
  8
0
  6
ByBlock
 62
     0
100
AcDbTrace
 10
28.99658760790136
 20
-103.6397807519868
 30
0.0
 11
28.99658760790136
 21
-104.9731140853201
 31
0.0
 12
32.99658760790136
 22
-104.3064474186534
 32
0.0
 13
32.99658760790136
 23
-104.3064474186534
 33
0.0
  0
TEXT
  5
E0
330
DA
100
AcDbEntity
  8
0
  6
ByBlock
 62
     0
100
AcDbText
 10
15.14115094680782
 20
-102.8064474186534
 30
0.0
 40
3.0
  1
30
  7
ROMANS
 72
     1
 11
17.99829380395068
 21
-101.3064474186534
 31
0.0
100
AcDbText
 73
     2
  0
POINT
  5
E1
330
DA
100
AcDbEntity
  8
DEFPOINTS
  6
ByBlock
 62
     0
100
AcDbPoint
 10
3.0
 20
-75.00906028065293
 30
0.0
  0
POINT
  5
E2
330
DA
100
AcDbEntity
  8
DEFPOINTS
  6
ByBlock
 62
     0
100
AcDbPoint
 10
32.99658760790136
 20
-79.99999999999997
 30
0.0
  0
POINT
  5
E3
330
DA
100
AcDbEntity
  8
DEFPOINTS
  6
ByBlock
 62
     0
100
AcDbPoint
 10
32.99658760790136
 20
-104.3064474186534
 30
0.0
  0
ENDBLK
  5
E5
330
DA
100
AcDbEntity
  8
0
100
AcDbBlockEnd
  0
BLOCK
  5
109
330
100
100
AcDbEntity
  8
0
100
AcDbBlockBegin
  2
*D5
 70
     1
 10
0.0
 20
0.0
 30
0.0
  3
*D5
  1

  0
LINE
  5
101
330
100
100
AcDbEntity
  8
0
  6
ByBlock
 62
     0
100
AcDbLine
 10
178.0
 20
25.00000000000001
 30
0.0
 11
198.5287232994666
 21
25.00000000000001
 31
0.0
  0
LINE
  5
102
330
100
100
AcDbEntity
  8
0
  6
ByBlock
 62
     0
100
AcDbLine
 10
178.0
 20
-24.99999999999998
 30
0.0
 11
198.5287232994666
 21
-24.99999999999998
 31
0.0
  0
LINE
  5
103
330
100
100
AcDbEntity
  8
0
  6
ByBlock
 62
     0
100
AcDbLine
 10
195.5287232994666
 20
21.0
 30
0.0
 11
195.5287232994666
 21
-20.99999999999998
 31
0.0
  0
SOLID
  5
104
330
100
100
AcDbEntity
  8
0
  6
ByBlock
 62
     0
100
AcDbTrace
 10
194.8620566328
 20
21.0
 30
0.0
 11
196.1953899661333
 21
21.0
 31
0.0
 12
195.5287232994666
 22
25.00000000000001
 32
0.0
 13
195.5287232994666
 23
25.00000000000001
 33
0.0
  0
SOLID
  5
105
330
100
100
AcDbEntity
  8
0
  6
ByBlock
 62
     0
100
AcDbTrace
 10
194.8620566328
 20
-20.99999999999998
 30
0.0
 11
196.1953899661333
 21
-20.99999999999998
 31
0.0
 12
195.5287232994666
 22
-24.99999999999998
 32
0.0
 13
195.5287232994666
 23
-24.99999999999998
 33
0.0
  0
POINT
  5
106
330
100
100
AcDbEntity
  8
DEFPOINTS
  6
ByBlock
 62
     0
100
AcDbPoint
 10
175.0
 20
25.00000000000001
 30
0.0
  0
POINT
  5
107
330
100
100
AcDbEntity
  8
DEFPOINTS
  6
ByBlock
 62
     0
100
AcDbPoint
 10
175.0
 20
-24.99999999999998
 30
0.0
  0
POINT
  5
108
330
100
100
AcDbEntity
  8
DEFPOINTS
  6
ByBlock
 62
     0
100
AcDbPoint
 10
195.5287232994666
 20
-24.99999999999998
 30
0.0
  0
ENDBLK
  5
10A
330
100
100
AcDbEntity
  8
0
100
AcDbBlockEnd
  0
BLOCK
  5
4F
330
45
100
AcDbEntity
  8
0
100
AcDbBlockBegin
  2
*D6
 70
     1
 10
0.0
 20
0.0
 30
0.0
  3
*D6
  1

  0
LINE
  5
46
330
45
100
AcDbEntity
  8
0
  6
ByBlock
 62
     0
100
AcDbLine
 10
0.0000000000000328
 20
-42.99999999999998
 30
0.0
 11
0.0000000000000328
 21
-131.4560170584012
 31
0.0
  0
LINE
  5
47
330
45
100
AcDbEntity
  8
0
  6
ByBlock
 62
     0
100
AcDbLine
 10
169.9965876079016
 20
-15.69999999999991
 30
0.0
 11
169.9965876079016
 21
-131.4560170584012
 31
0.0
  0
LINE
  5
48
330
45
100
AcDbEntity
  8
0
  6
ByBlock
 62
     0
100
AcDbLine
 10
4.000000000000032
 20
-128.4560170584012
 30
0.0
 11
165.9965876079016
 21
-128.4560170584012
 31
0.0
  0
SOLID
  5
49
330
45
100
AcDbEntity
  8
0
  6
ByBlock
 62
     0
100
AcDbTrace
 10
4.000000000000032
 20
-127.7893503917346
 30
0.0
 11
4.000000000000032
 21
-129.1226837250679
 31
0.0
 12
0.0000000000000328
 22
-128.4560170584012
 32
0.0
 13
0.0000000000000328
 23
-128.4560170584012
 33
0.0
  0
SOLID
  5
4A
330
45
100
AcDbEntity
  8
0
  6
ByBlock
 62
     0
100
AcDbTrace
 10
165.9965876079016
 20
-127.7893503917346
 30
0.0
 11
165.9965876079016
 21
-129.1226837250679
 31
0.0
 12
169.9965876079016
 22
-128.4560170584012
 32
0.0
 13
169.9965876079016
 23
-128.4560170584012
 33
0.0
  0
TEXT
  5
4B
330
45
100
AcDbEntity
  8
0
  6
ByBlock
 62
     0
100
AcDbText
 10
80.49829380395081
 20
-126.9560170584012
 30
0.0
 40
3.0
  1
170
  7
ROMANS
 72
     1
 11
84.99829380395082
 21
-125.4560170584012
 31
0.0
100
AcDbText
 73
     2
  0
POINT
  5
4C
330
45
100
AcDbEntity
  8
DEFPOINTS
  6
ByBlock
 62
     0
100
AcDbPoint
 10
0.0000000000000328
 20
-39.99999999999998
 30
0.0
  0
POINT
  5
4D
330
45
100
AcDbEntity
  8
DEFPOINTS
  6
ByBlock
 62
     0
100
AcDbPoint
 10
169.9965876079016
 20
-12.69999999999991
 30
0.0
  0
POINT
  5
4E
330
45
100
AcDbEntity
  8
DEFPOINTS
  6
ByBlock
 62
     0
100
AcDbPoint
 10
169.9965876079016
 20
-128.4560170584012
 30
0.0
  0
ENDBLK
  5
50
330
45
100
AcDbEntity
  8
0
100
AcDbBlockEnd
  0
BLOCK
  5
3B
330
2E
100
AcDbEntity
  8
0
100
AcDbBlockBegin
  2
*D7
 70
     1
 10
0.0
 20
0.0
 30
0.0
  3
*D7
  1

  0
LINE
  5
2F
330
2E
100
AcDbEntity
  8
0
  6
ByBlock
 62
     0
100
AcDbLine
 10
0.0
 20
-42.99999999999998
 30
0.0
 11
0.0
 21
-119.4560170584012
 31
0.0
  0
LINE
  5
30
330
2E
100
AcDbEntity
  8
0
  6
ByBlock
 62
     0
100
AcDbLine
 10
150.0
 20
-15.69999999999991
 30
0.0
 11
150.0
 21
-119.4560170584012
 31
0.0
  0
LINE
  5
31
330
2E
100
AcDbEntity
  8
0
  6
ByBlock
 62
     0
100
AcDbLine
 10
4.0
 20
-116.4560170584012
 30
0.0
 11
146.0
 21
-116.4560170584012
 31
0.0
  0
SOLID
  5
32
330
2E
100
AcDbEntity
  8
0
  6
ByBlock
 62
     0
100
AcDbTrace
 10
4.0
 20
-115.7893503917346
 30
0.0
 11
4.0
 21
-117.1226837250679
 31
0.0
 12
0.0
 22
-116.4560170584012
 32
0.0
 13
0.0
 23
-116.4560170584012
 33
0.0
  0
SOLID
  5
33
330
2E
100
AcDbEntity
  8
0
  6
ByBlock
 62
     0
100
AcDbTrace
 10
146.0
 20
-115.7893503917346
 30
0.0
 11
146.0
 21
-117.1226837250679
 31
0.0
 12
150.0
 22
-116.4560170584012
 32
0.0
 13
150.0
 23
-116.4560170584012
 33
0.0
  0
TEXT
  5
34
330
2E
100
AcDbEntity
  8
0
  6
ByBlock
 62
     0
100
AcDbText
 10
70.50000000000003
 20
-114.9560170584012
 30
0.0
 40
3.0
  1
150
  7
ROMANS
 72
     1
 11
75.00000000000003
 21
-113.4560170584012
 31
0.0
100
AcDbText
 73
     2
  0
POINT
  5
35
330
2E
100
AcDbEntity
  8
DEFPOINTS
  6
ByBlock
 62
     0
100
AcDbPoint
 10
0.0
 20
-39.99999999999998
 30
0.0
  0
POINT
  5
39
330
2E
100
AcDbEntity
  8
DEFPOINTS
  6
ByBlock
 62
     0
100
AcDbPoint
 10
150.0
 20
-12.69999999999991
 30
0.0
  0
POINT
  5
3A
330
2E
100
AcDbEntity
  8
DEFPOINTS
  6
ByBlock
 62
     0
100
AcDbPoint
 10
150.0
 20
-116.4560170584012
 30
0.0
  0
ENDBLK
  5
3C
330
2E
100
AcDbEntity
  8
0
100
AcDbBlockEnd
  0
BLOCK
  5
7F
330
75
100
AcDbEntity
  8
0
100
AcDbBlockBegin
  2
*D8
 70
     1
 10
0.0
 20
0.0
 30
0.0
  3
*D8
  1

  0
LINE
  5
76
330
75
100
AcDbEntity
  8
0
  6
ByBlock
 62
     0
100
AcDbLine
 10
-209.9999999999999
 20
-11.86810724167543
 30
0.0
 11
-209.9999999999999
 21
-131.4723827989217
 31
0.0
  0
LINE
  5
77
330
75
100
AcDbEntity
  8
0
  6
ByBlock
 62
     0
100
AcDbLine
 10
-19.99999999999997
 20
-23.0
 30
0.0
 11
-19.99999999999997
 21
-131.4723827989217
 31
0.0
  0
LINE
  5
78
330
75
100
AcDbEntity
  8
0
  6
ByBlock
 62
     0
100
AcDbLine
 10
-205.9999999999999
 20
-128.4723827989217
 30
0.0
 11
-23.99999999999997
 21
-128.4723827989217
 31
0.0
  0
SOLID
  5
79
330
75
100
AcDbEntity
  8
0
  6
ByBlock
 62
     0
100
AcDbTrace
 10
-205.9999999999999
 20
-127.805716132255
 30
0.0
 11
-205.9999999999999
 21
-129.1390494655883
 31
0.0
 12
-209.9999999999999
 22
-128.4723827989217
 32
0.0
 13
-209.9999999999999
 23
-128.4723827989217
 33
0.0
  0
SOLID
  5
7A
330
75
100
AcDbEntity
  8
0
  6
ByBlock
 62
     0
100
AcDbTrace
 10
-23.99999999999997
 20
-127.805716132255
 30
0.0
 11
-23.99999999999997
 21
-129.1390494655883
 31
0.0
 12
-19.99999999999997
 22
-128.4723827989217
 32
0.0
 13
-19.99999999999997
 23
-128.4723827989217
 33
0.0
  0
TEXT
  5
7B
330
75
100
AcDbEntity
  8
0
  6
ByBlock
 62
     0
100
AcDbText
 10
-119.4999999999999
 20
-126.9723827989217
 30
0.0
 40
3.0
  1
190
  7
ROMANS
 72
     1
 11
-114.9999999999999
 21
-125.4723827989216
 31
0.0
100
AcDbText
 73
     2
  0
POINT
  5
7C
330
75
100
AcDbEntity
  8
DEFPOINTS
  6
ByBlock
 62
     0
100
AcDbPoint
 10
-209.9999999999999
 20
-8.868107241675431
 30
0.0
  0
POINT
  5
7D
330
75
100
AcDbEntity
  8
DEFPOINTS
  6
ByBlock
 62
     0
100
AcDbPoint
 10
-19.99999999999997
 20
-20.0
 30
0.0
  0
POINT
  5
7E
330
75
100
AcDbEntity
  8
DEFPOINTS
  6
ByBlock
 62
     0
100
AcDbPoint
 10
-19.99999999999997
 20
-128.4723827989217
 30
0.0
  0
ENDBLK
  5
80
330
75
100
AcDbEntity
  8
0
100
AcDbBlockEnd
  0
BLOCK
  5
93
330
89
100
AcDbEntity
  8
0
100
AcDbBlockBegin
  2
*D9
 70
     1
 10
0.0
 20
0.0
 30
0.0
  3
*D9
  1

  0
LINE
  5
8A
330
89
100
AcDbEntity
  8
0
  6
ByBlock
 62
     0
100
AcDbLine
 10
-20.0
 20
-60.49649990072539
 30
0.0
 11
-20.0
 21
-131.4560170584012
 31
0.0
  0
LINE
  5
8B
330
89
100
AcDbEntity
  8
0
  6
ByBlock
 62
     0
100
AcDbLine
 10
0.0
 20
-78.00906028065293
 30
0.0
 11
0.0
 21
-131.4560170584012
 31
0.0
  0
LINE
  5
8C
330
89
100
AcDbEntity
  8
0
  6
ByBlock
 62
     0
100
AcDbLine
 10
-16.0
 20
-128.4560170584012
 30
0.0
 11
-4.0
 21
-128.4560170584012
 31
0.0
  0
SOLID
  5
8D
330
89
100
AcDbEntity
  8
0
  6
ByBlock
 62
     0
100
AcDbTrace
 10
-16.0
 20
-127.7893503917346
 30
0.0
 11
-16.0
 21
-129.1226837250679
 31
0.0
 12
-20.0
 22
-128.4560170584012
 32
0.0
 13
-20.0
 23
-128.4560170584012
 33
0.0
  0
SOLID
  5
8E
330
89
100
AcDbEntity
  8
0
  6
ByBlock
 62
     0
100
AcDbTrace
 10
-4.0
 20
-127.7893503917346
 30
0.0
 11
-4.0
 21
-129.1226837250679
 31
0.0
 12
0.0
 22
-128.4560170584012
 32
0.0
 13
0.0
 23
-128.4560170584012
 33
0.0
  0
TEXT
  5
8F
330
89
100
AcDbEntity
  8
0
  6
ByBlock
 62
     0
100
AcDbText
 10
-12.85714285714285
 20
-126.9560170584012
 30
0.0
 40
3.0
  1
20
  7
ROMANS
 72
     1
 11
-10.0
 21
-125.4560170584012
 31
0.0
100
AcDbText
 73
     2
  0
POINT
  5
90
330
89
100
AcDbEntity
  8
DEFPOINTS
  6
ByBlock
 62
     0
100
AcDbPoint
 10
-20.0
 20
-57.49649990072539
 30
0.0
  0
POINT
  5
91
330
89
100
AcDbEntity
  8
DEFPOINTS
  6
ByBlock
 62
     0
100
AcDbPoint
 10
0.0
 20
-75.00906028065293
 30
0.0
  0
POINT
  5
92
330
89
100
AcDbEntity
  8
DEFPOINTS
  6
ByBlock
 62
     0
100
AcDbPoint
 10
0.0
 20
-128.4560170584012
 30
0.0
  0
ENDBLK
  5
94
330
89
100
AcDbEntity
  8
0
100
AcDbBlockEnd
  0
BLOCK
  5
71
330
68
100
AcDbEntity
  8
0
 62
     1
100
AcDbBlockBegin
  2
A$C6BE937E7
 70
     0
 10
0.0
 20
0.0
 30
0.0
  3
A$C6BE937E7
  1

  0
TEXT
  5
69
330
68
100
AcDbEntity
  8
SPECD
 62
     6
100
AcDbText
 10
4.668392196768905
 20
18.71588358345923
 30
0.0
 40
5.0
  1
AND 20mm-JOINT. AND UNFREEZE DESIRED NEW 
  7
ROMANS
 72
     4
 11
102.5255350539117
 21
21.21588358345923
 31
0.0
100
AcDbText
  0
LINE
  5
6A
330
68
100
AcDbEntity
  8
SPECD
 62
     6
100
AcDbLine
 10
0.0000004097963711
 20
53.03369301694681
 30
0.0
 11
202.4869505164367
 21
53.03369301694681
 31
0.0
  0
LINE
  5
6B
330
68
100
AcDbEntity
  8
SPECD
 62
     6
100
AcDbLine
 10
0.0000004097963711
 20
0.0000004313964723
 30
0.0
 11
202.4869505164367
 21
0.0000004313964723
 31
0.0
  0
TEXT
  5
6C
330
68
100
AcDbEntity
  8
SPECD
 62
     6
100
AcDbText
 10
4.207581425801549
 20
28.3361790613278
 30
0.0
 40
5.0
  1
FOR OTHER WIDTHS, FREEZE LAYERS 20mm-DIMS
  7
ROMANS
 72
     4
 11
101.3504385686587
 21
30.35998858513733
 31
0.0
100
AcDbText
  0
TEXT
  5
6D
330
68
100
AcDbEntity
  8
SPECD
 62
     6
100
AcDbText
 10
4.215424032625506
 20
43.79289347717675
 30
0.0
 40
5.0
  1
DRAWING SHOWS 20mm JOINT.
  7
ROMANS
 72
     4
 11
63.73923355643501
 21
46.29289347717675
 31
0.0
100
AcDbText
  0
TEXT
  5
6E
330
68
100
AcDbEntity
  8
SPECD
 62
     6
100
AcDbText
 10
4.481432930145061
 20
8.212600757984517
 30
0.0
 40
5.0
  1
JOINT AND DIMS LAYERS.
  7
ROMANS
 72
     4
 11
52.33857578728794
 21
10.71260075798451
 31
0.0
100
AcDbText
  0
LINE
  5
6F
330
68
100
AcDbEntity
  8
SPECD
 62
     6
100
AcDbLine
 10
0.0000004097963711
 20
53.03369301694681
 30
0.0
 11
0.0000004097963711
 21
0.0000004313964723
 31
0.0
  0
LINE
  5
70
330
68
100
AcDbEntity
  8
SPECD
 62
     6
100
AcDbLine
 10
202.4869505164367
 20
53.03369301694681
 30
0.0
 11
202.4869505164367
 21
0.0000004313964723
 31
0.0
  0
ENDBLK
  5
72
330
68
100
AcDbEntity
  8
0
 62
     1
100
AcDbBlockEnd
  0
ENDSEC
  0
SECTION
  2
ENTITIES
  0
DIMENSION
  5
2D
330
2
100
AcDbEntity
  8
DIMS
100
AcDbDimension
  2
*D7
 10
150.0
 20
-116.4560170584012
 30
0.0
 11
75.00000000000003
 21
-113.4560170584012
 31
0.0
 71
     5
 42
-1.0
  3
1-2
100
AcDbAlignedDimension
 13
0.0
 23
-39.99999999999998
 33
0.0
 14
150.0
 24
-12.69999999999991
 34
0.0
100
AcDbRotatedDimension
  0
LINE
  5
3D
330
2
100
AcDbEntity
  8
ANCON-DSD
  6
Continuous
100
AcDbLine
 10
3.0
 20
-24.99999999999998
 30
0.0
 11
175.0
 21
-24.99999999999998
 31
0.0
  0
LINE
  5
3F
330
2
100
AcDbEntity
  8
ANCON-DSD
  6
Continuous
100
AcDbLine
 10
2.999999999999999
 20
25.00000000000001
 30
0.0
 11
175.0
 21
25.00000000000001
 31
0.0
  0
LINE
  5
40
330
2
100
AcDbEntity
  8
20MM-JOINT
  6
HIDDEN
 62
     3
100
AcDbLine
 10
128.0
 20
11.13189275832337
 30
0.0
 11
0.0000000000000238
 21
11.13189275832379
 31
0.0
  0
LINE
  5
43
330
2
100
AcDbEntity
  8
20MM-JOINT
  6
HIDDEN
 62
     3
100
AcDbLine
 10
128.0
 20
-10.86810724167668
 30
0.0
 11
0.0000000000000281
 21
-10.86810724167621
 31
0.0
  0
DIMENSION
  5
44
330
2
100
AcDbEntity
  8
DIMS
100
AcDbDimension
  2
*D6
 10
169.9965876079016
 20
-128.4560170584012
 30
0.0
 11
84.99829380395082
 21
-125.4560170584012
 31
0.0
 71
     5
 42
-1.0
  3
1-2
100
AcDbAlignedDimension
 13
0.0000000000000328
 23
-39.99999999999998
 33
0.0
 14
169.9965876079016
 24
-12.69999999999991
 34
0.0
100
AcDbRotatedDimension
  0
TEXT
  5
51
330
2
100
AcDbEntity
  8
SPECD
 62
     1
100
AcDbText
 10
6.715741556398398
 20
149.0065227689153
 30
0.0
 40
5.0
  1
SPECIFICATION BY DESCRIPTION
  7
ROMANS
 72
     4
 11
66.35859869925553
 21
151.5065227689153
 31
0.0
100
AcDbText
  0
TEXT
  5
53
330
2
100
AcDbEntity
  8
SPECP
 62
     1
100
AcDbText
 10
6.802727367974569
 20
178.9767258599356
 30
0.0
 40
5.0
  1
SPECIFICATION BY PRODUCT
  7
ROMANS
 72
     4
 11
60.2551083203555
 21
181.4767258599357
 31
0.0
100
AcDbText
  0
LINE
  5
55
330
2
100
AcDbEntity
  8
ANCON-DSD
  6
HIDDEN
100
AcDbLine
 10
3.0
 20
-12.69999999999991
 30
0.0
 11
150.0
 21
-12.69999999999991
 31
0.0
  0
LINE
  5
56
330
2
100
AcDbEntity
  8
ANCON-DSD
  6
HIDDEN
100
AcDbLine
 10
3.0
 20
12.70000000000005
 30
0.0
 11
150.0
 21
12.70000000000006
 31
0.0
  0
LINE
  5
57
330
2
100
AcDbEntity
  8
DIMS
  6
CENTER2
100
AcDbLine
 10
-0.000000000000026
 20
0.0000000000000173
 30
0.0
 11
183.28868029455
 21
0.0000000000000173
 31
0.0
  0
LINE
  5
59
330
2
100
AcDbEntity
  8
20MM-JOINT
  6
Continuous
 62
     3
100
AcDbLine
 10
-45.99999999999973
 20
49.9999999999996
 30
0.0
 11
-45.99999999999986
 21
11.13189275832394
 31
0.0
  0
LINE
  5
5A
330
2
100
AcDbEntity
  8
20MM-JOINT
  6
Continuous
 62
     3
100
AcDbLine
 10
-59.99999999999974
 20
49.9999999999996
 30
0.0
 11
-59.99999999999986
 21
11.131892758324
 31
0.0
  0
LINE
  5
5B
330
2
100
AcDbEntity
  8
20MM-JOINT
  6
Continuous
 62
     3
100
AcDbLine
 10
-91.99999999999988
 20
90.0761145828522
 30
0.0
 11
-91.99999999999992
 21
11.13189275832411
 31
0.0
  0
LINE
  5
5C
330
2
100
AcDbEntity
  8
20MM-JOINT
  6
Continuous
 62
     3
100
AcDbLine
 10
-77.99999999999991
 20
90.0761145828522
 30
0.0
 11
-77.99999999999991
 21
11.13189275832405
 31
0.0
  0
LINE
  5
5D
330
2
100
AcDbEntity
  8
20MM-JOINT
  6
CENTER2
 62
     1
100
AcDbLine
 10
-84.99999999999989
 20
95.0761145828522
 30
0.0
 11
-84.99999999999994
 21
-94.92388541714779
 31
0.0
  0
LINE
  5
5E
330
2
100
AcDbEntity
  8
20MM-JOINT
  6
CENTER2
 62
     1
100
AcDbLine
 10
-52.99999999999971
 20
54.9999999999996
 30
0.0
 11
-53.00000000000012
 21
-55.00000000000042
 31
0.0
  0
LINE
  5
5F
330
2
100
AcDbEntity
  8
ANCON-DSD
  6
Continuous
100
AcDbLine
 10
25.99658760790175
 20
75.0
 30
0.0
 11
25.99658760790164
 21
25.00000000000001
 31
0.0
  0
LINE
  5
60
330
2
100
AcDbEntity
  8
ANCON-DSD
  6
Continuous
100
AcDbLine
 10
39.99658760790174
 20
75.00000000000001
 30
0.0
 11
39.99658760790164
 21
25.00000000000001
 31
0.0
  0
LINE
  5
61
330
2
100
AcDbEntity
  8
ANCON-DSD
100
AcDbLine
 10
2.999999999999999
 20
40.00000000000001
 30
0.0
 11
3.0
 21
-39.99999999999998
 31
0.0
  0
LINE
  5
62
330
2
100
AcDbEntity
  8
ANCON-DSD
100
AcDbLine
 10
-0.0000000000000009
 20
40.01812056130582
 30
0.0
 11
0.0
 21
-39.99999999999998
 31
0.0
  0
LINE
  5
63
330
2
100
AcDbEntity
  8
DIMS
  6
CENTER2
100
AcDbLine
 10
32.99658760790177
 20
80.00000000000001
 30
0.0
 11
32.99658760790136
 21
-79.99999999999997
 31
0.0
  0
LINE
  5
64
330
2
100
AcDbEntity
  8
20MM-JOINT
 62
     2
100
AcDbLine
 10
-19.99999999999994
 20
-157.3689569249884
 30
0.0
 11
-20.0
 21
132.1050521397289
 31
0.0
  0
LINE
  5
65
330
2
100
AcDbEntity
  8
CONCRETE
100
AcDbLine
 10
0.0000000000000568
 20
-157.3598966443354
 30
0.0
 11
0.0
 21
132.1141124203818
 31
0.0
  0
DIMENSION
  5
73
330
2
100
AcDbEntity
  8
20MM-DIMS
100
AcDbDimension
  2
*D8
 10
-19.99999999999997
 20
-128.4723827989217
 30
0.0
 11
-114.9999999999999
 21
-125.4723827989216
 31
0.0
 71
     5
 42
-1.0
  3
1-2
100
AcDbAlignedDimension
 13
-209.9999999999999
 23
-8.868107241675431
 33
0.0
 14
-19.99999999999997
 24
-20.0
 34
0.0
100
AcDbRotatedDimension
  0
LINE
  5
81
330
2
100
AcDbEntity
  8
20MM-JOINT
  6
CENTER2
 62
     1
100
AcDbLine
 10
-219.9999999999999
 20
-0.0000000000000568
 30
0.0
 11
0.0000000000000259
 21
0.0000000000000027
 31
0.0
  0
LINE
  5
82
330
2
100
AcDbEntity
  8
20MM-JOINT
  6
Continuous
 62
     3
100
AcDbLine
 10
-207.9999999999999
 20
-10.86810724167543
 30
0.0
 11
-24.99999999999992
 21
-10.86810724167611
 31
0.0
  0
LINE
  5
83
330
2
100
AcDbEntity
  8
20MM-JOINT
  6
Continuous
 62
     3
100
AcDbLine
 10
-207.9999999999999
 20
11.13189275832456
 30
0.0
 11
-24.99999999999992
 21
11.13189275832388
 31
0.0
  0
LINE
  5
84
330
2
100
AcDbEntity
  8
20MM-JOINT
 62
     3
100
AcDbLine
 10
-207.9999999999999
 20
11.13189275832456
 30
0.0
 11
-209.9999999999999
 21
9.131892758324568
 31
0.0
  0
LINE
  5
85
330
2
100
AcDbEntity
  8
20MM-JOINT
 62
     3
100
AcDbLine
 10
-207.9999999999999
 20
-10.86810724167543
 30
0.0
 11
-209.9999999999999
 21
-8.868107241675431
 31
0.0
  0
LINE
  5
86
330
2
100
AcDbEntity
  8
20MM-JOINT
 62
     3
100
AcDbLine
 10
-209.9999999999999
 20
9.131892758324568
 30
0.0
 11
-209.9999999999999
 21
-8.868107241675375
 31
0.0
  0
LINE
  5
87
330
2
100
AcDbEntity
  8
20MM-JOINT
 62
     3
100
AcDbLine
 10
-207.9999999999999
 20
11.13189275832456
 30
0.0
 11
-207.9999999999999
 21
-10.86810724167543
 31
0.0
  0
DIMENSION
  5
88
330
2
100
AcDbEntity
  8
20MM-DIMS
 62
     1
100
AcDbDimension
  2
*D9
 10
0.0
 20
-128.4560170584012
 30
0.0
 11
-10.0
 21
-125.4560170584012
 31
0.0
 71
     5
 42
-1.0
  3
1-2
100
AcDbAlignedDimension
 13
-20.0
 23
-57.49649990072539
 33
0.0
 14
0.0
 24
-75.00906028065293
 34
0.0
100
AcDbRotatedDimension
  0
LINE
  5
95
330
2
100
AcDbEntity
  8
20MM-JOINT
  6
Continuous
 62
     3
100
AcDbLine
 10
-19.99999999999992
 20
-10.86810724167611
 30
0.0
 11
0.0000000000000281
 21
-10.86810724167622
 31
0.0
  0
LINE
  5
96
330
2
100
AcDbEntity
  8
20MM-JOINT
  6
Continuous
 62
     3
100
AcDbLine
 10
-19.99999999999992
 20
11.13189275832388
 30
0.0
 11
0.0000000000000238
 21
11.13189275832377
 31
0.0
  0
DIMENSION
  5
97
330
2
100
AcDbEntity
  8
DIMS
100
AcDbDimension
  2
*D3
 10
0.0
 20
-104.3064474186534
 30
0.0
 11
-5.93569444469826
 21
-101.3064474186534
 31
0.0
 70
   128
 71
     5
 42
-1.0
  3
1-2
100
AcDbAlignedDimension
 13
3.0
 23
-39.99999999999998
 33
0.0
 14
0.0
 24
-39.99999999999998
 34
0.0
100
AcDbRotatedDimension
  0
DIMENSION
  5
A5
330
2
100
AcDbEntity
  8
20MM-DIMS
100
AcDbDimension
  2
*D2
 10
-19.9999999999999
 20
-104.3064474186534
 30
0.0
 11
-14.01800520435763
 21
-101.3064474186534
 31
0.0
 70
   128
 71
     5
 42
-1.0
  3
1-2
100
AcDbAlignedDimension
 13
-24.99999999999991
 23
-20.0
 33
0.0
 14
-19.9999999999999
 24
-20.0
 34
0.0
100
AcDbRotatedDimension
  0
LINE
  5
B3
330
2
100
AcDbEntity
  8
20MM-JOINT
  6
Continuous
 62
     3
100
AcDbLine
 10
-45.99999999999994
 20
-10.86810724167605
 30
0.0
 11
-46.00000000000009
 21
-50.00000000000042
 31
0.0
  0
LINE
  5
B4
330
2
100
AcDbEntity
  8
20MM-JOINT
  6
Continuous
 62
     3
100
AcDbLine
 10
-59.99999999999995
 20
-10.868107241676
 30
0.0
 11
-60.00000000000009
 21
-50.00000000000042
 31
0.0
  0
LINE
  5
B5
330
2
100
AcDbEntity
  8
20MM-JOINT
  6
Continuous
 62
     3
100
AcDbLine
 10
-77.99999999999991
 20
-10.86810724167594
 30
0.0
 11
-77.99999999999991
 21
-89.92388541714777
 31
0.0
  0
LINE
  5
B6
330
2
100
AcDbEntity
  8
20MM-JOINT
  6
Continuous
 62
     3
100
AcDbLine
 10
-91.99999999999992
 20
-10.86810724167588
 30
0.0
 11
-91.99999999999993
 21
-89.92388541714779
 31
0.0
  0
DIMENSION
  5
B7
330
2
100
AcDbEntity
  8
20MM-DIMS
 62
     1
100
AcDbDimension
  2
*D0
 10
-53.0
 20
-104.3064474186534
 30
0.0
 11
-39.0
 21
-101.3064474186534
 31
0.0
 71
     5
 42
-1.0
  3
1-2
100
AcDbAlignedDimension
 13
-25.0
 23
-57.49649990072539
 33
0.0
 14
-53.0
 24
-15.00000000000037
 34
0.0
100
AcDbRotatedDimension
  0
DIMENSION
  5
C4
330
2
100
AcDbEntity
  8
20MM-DIMS
 62
     1
100
AcDbDimension
  2
*D1
 10
-85.0
 20
-104.3064474186534
 30
0.0
 11
-69.0
 21
-101.3064474186534
 31
0.0
 71
     5
 42
-1.0
  3
1-2
100
AcDbAlignedDimension
 13
-53.0
 23
-15.00000000000037
 33
0.0
 14
-85.0
 24
-15.00000000000026
 34
0.0
100
AcDbRotatedDimension
  0
LINE
  5
D1
330
2
100
AcDbEntity
  8
20MM-JOINT
  6
Continuous
 62
     3
100
AcDbLine
 10
-60.00000000000009
 20
-50.00000000000042
 30
0.0
 11
-46.00000000000009
 21
-50.00000000000042
 31
0.0
  0
LINE
  5
D2
330
2
100
AcDbEntity
  8
20MM-JOINT
  6
Continuous
 62
     3
100
AcDbLine
 10
-91.99999999999993
 20
-89.92388541714779
 30
0.0
 11
-77.99999999999991
 21
-89.92388541714779
 31
0.0
  0
LINE
  5
D3
330
2
100
AcDbEntity
  8
20MM-JOINT
 62
     3
100
AcDbLine
 10
-24.99999999999991
 20
20.0
 30
0.0
 11
-24.99999999999991
 21
-20.0
 31
0.0
  0
LINE
  5
D4
330
2
100
AcDbEntity
  8
20MM-JOINT
 62
     3
100
AcDbLine
 10
-19.9999999999999
 20
20.0
 30
0.0
 11
-19.9999999999999
 21
-20.0
 31
0.0
  0
LINE
  5
D5
330
2
100
AcDbEntity
  8
20MM-JOINT
 62
     3
100
AcDbLine
 10
-24.9999999999999
 20
-20.0
 30
0.0
 11
-19.9999999999999
 21
-20.0
 31
0.0
  0
LINE
  5
D6
330
2
100
AcDbEntity
  8
20MM-JOINT
 62
     3
100
AcDbLine
 10
-24.9999999999999
 20
20.0
 30
0.0
 11
-19.9999999999999
 21
20.0
 31
0.0
  0
LINE
  5
D7
330
2
100
AcDbEntity
  8
ANCON-DSD
  6
Continuous
100
AcDbLine
 10
25.9965876079015
 20
-24.99999999999998
 30
0.0
 11
25.99658760790138
 21
-74.99999999999997
 31
0.0
  0
LINE
  5
D8
330
2
100
AcDbEntity
  8
ANCON-DSD
  6
Continuous
100
AcDbLine
 10
39.99658760790149
 20
-24.99999999999998
 30
0.0
 11
39.99658760790138
 21
-74.99999999999997
 31
0.0
  0
DIMENSION
  5
D9
330
2
100
AcDbEntity
  8
DIMS
100
AcDbDimension
  2
*D4
 10
32.99658760790136
 20
-104.3064474186534
 30
0.0
 11
17.99829380395068
 21
-101.3064474186534
 31
0.0
 71
     5
 42
-1.0
  3
1-2
100
AcDbAlignedDimension
 13
3.0
 23
-75.00906028065293
 33
0.0
 14
32.99658760790136
 24
-79.99999999999997
 34
0.0
100
AcDbRotatedDimension
  0
LINE
  5
E6
330
2
100
AcDbEntity
  8
ANCON-DSD
  6
Continuous
100
AcDbLine
 10
25.99658760790139
 20
-74.99999999999999
 30
0.0
 11
39.99658760790138
 21
-74.99999999999999
 31
0.0
  0
LINE
  5
E9
330
2
100
AcDbEntity
  8
ANCON-DSD
100
AcDbLine
 10
0.0
 20
-39.99999999999998
 30
0.0
 11
3.0
 21
-39.99999999999998
 31
0.0
  0
TEXT
  5
EA
330
2
100
AcDbEntity
  8
20MM-JOINT
 62
     6
100
AcDbText
 10
-109.244946761552
 20
166.5699411483584
 30
0.0
 40
5.0
  1
LOAD ( kN )
  7
ROMANS
 72
     4
 11
-84.48304199964725
 21
168.7127982912155
 31
0.0
100
AcDbText
  0
LINE
  5
EB
330
2
100
AcDbEntity
  8
20MM-JOINT
 62
     6
100
AcDbLine
 10
-228.3685061116759
 20
187.7741057493468
 30
0.0
 11
-52.98982841981346
 21
187.7741057493468
 31
0.0
  0
LINE
  5
EC
330
2
100
AcDbEntity
  8
20MM-JOINT
 62
     6
100
AcDbLine
 10
-228.3685061116759
 20
161.7033446903011
 30
0.0
 11
-52.98982841981343
 21
161.7033446903011
 31
0.0
  0
LINE
  5
ED
330
2
100
AcDbEntity
  8
20MM-JOINT
 62
     6
100
AcDbLine
 10
-228.3685061116759
 20
134.6758596152541
 30
0.0
 11
-52.98982841981346
 21
134.675859615254
 31
0.0
  0
TEXT
  5
EE
330
2
100
AcDbEntity
  8
20MM-JOINT
 62
     6
100
AcDbText
 10
-112.3401848567901
 20
177.5132200869368
 30
0.0
 40
5.0
  1
SERVICEABILITY
  7
ROMANS
 72
     4
 11
-84.48304199964725
 21
180.0132200869368
 31
0.0
100
AcDbText
  0
TEXT
  5
EF
330
2
100
AcDbEntity
  8
20MM-JOINT
 62
     6
100
AcDbText
 10
-221.1761219626045
 20
177.5083895898052
 30
0.0
 40
5.0
  1
DSD REF:
  7
ROMANS
 72
     4
 11
-203.199931486414
 21
180.0083895898052
 31
0.0
100
AcDbText
  0
TEXT
  5
F0
330
2
100
AcDbEntity
  8
20MM-JOINT
 62
     6
100
AcDbText
 10
-219.3639943805996
 20
145.7295119464478
 30
0.0
 40
5.0
  1
DSDQ75
  7
ROMANS
 72
     4
 11
-204.4830419996472
 21
147.9914167083526
 31
0.0
100
AcDbText
  0
LINE
  5
F1
330
2
100
AcDbEntity
  8
20MM-JOINT
 62
     6
100
AcDbLine
 10
-228.3685061116759
 20
187.7741057493468
 30
0.0
 11
-228.3685061116759
 21
134.675859615254
 31
0.0
  0
TEXT
  5
F2
330
2
100
AcDbEntity
  8
20MM-JOINT
 62
     6
100
AcDbText
 10
-173.264837746787
 20
177.5083895898052
 30
0.0
 40
5.0
  1
DESIGN JOINT
  7
ROMANS
 72
     4
 11
-147.1934091753584
 21
180.0083895898052
 31
0.0
100
AcDbText
  0
LINE
  5
F3
330
2
100
AcDbEntity
  8
20MM-JOINT
 62
     6
100
AcDbLine
 10
-178.3685061116759
 20
187.7741057493468
 30
0.0
 11
-178.3685061116759
 21
134.675859615254
 31
0.0
  0
LINE
  5
F4
330
2
100
AcDbEntity
  8
20MM-JOINT
 62
     6
100
AcDbLine
 10
-117.8604125546131
 20
187.7741057493468
 30
0.0
 11
-117.8604125546131
 21
134.675859615254
 31
0.0
  0
TEXT
  5
F5
330
2
100
AcDbEntity
  8
20MM-JOINT
 62
     6
100
AcDbText
 10
-157.3401848567901
 20
145.4914167083526
 30
0.0
 40
5.0
  1
20 MM
  7
ROMANS
 72
     4
 11
-144.4830419996472
 21
147.9914167083526
 31
0.0
100
AcDbText
  0
TEXT
  5
F6
330
2
100
AcDbEntity
  8
20MM-JOINT
 62
     6
100
AcDbText
 10
-157.7886472705965
 20
166.6107662021862
 30
0.0
 40
5.0
  1
WIDTH
  7
ROMANS
 72
     4
 11
-147.1934091753584
 21
169.1107662021862
 31
0.0
100
AcDbText
  0
LINE
  5
F7
330
2
100
AcDbEntity
  8
20MM-JOINT
  6
Continuous
 62
     3
100
AcDbLine
 10
-59.99999999999974
 20
49.9999999999996
 30
0.0
 11
-45.99999999999973
 21
49.9999999999996
 31
0.0
  0
LINE
  5
F8
330
2
100
AcDbEntity
  8
20MM-JOINT
  6
Continuous
 62
     3
100
AcDbLine
 10
-91.99999999999988
 20
90.0761145828522
 30
0.0
 11
-77.99999999999991
 21
90.0761145828522
 31
0.0
  0
TEXT
  5
F9
330
2
100
AcDbEntity
  8
20MM-JOINT
 62
     6
100
AcDbText
 10
-92.9354229520282
 20
145.4914167083526
 30
0.0
 40
5.0
  1
66.8
  7
ROMANS
 72
     4
 11
-84.48304199964725
 21
147.9914167083526
 31
0.0
100
AcDbText
  0
LINE
  5
FA
330
2
100
AcDbEntity
  8
20MM-JOINT
 62
     6
100
AcDbLine
 10
-52.98982841981346
 20
187.7741057493468
 30
0.0
 11
-52.98982841981346
 21
134.675859615254
 31
0.0
  0
LINE
  5
FB
330
2
100
AcDbEntity
  8
ANCON-DSD
100
AcDbLine
 10
-0.0000000000000009
 20
40.00000000000001
 30
0.0
 11
2.999999999999999
 21
40.00000000000001
 31
0.0
  0
LINE
  5
FC
330
2
100
AcDbEntity
  8
ANCON-DSD
100
AcDbLine
 10
-0.0000000000000009
 20
40.00000000000001
 30
0.0
 11
-0.0000000000000009
 21
40.01812056130582
 31
0.0
  0
LINE
  5
FD
330
2
100
AcDbEntity
  8
ANCON-DSD
  6
Continuous
100
AcDbLine
 10
25.99658760790175
 20
75.0
 30
0.0
 11
39.99658760790174
 21
75.00000000000001
 31
0.0
  0
DIMENSION
  5
FE
330
2
100
AcDbEntity
  8
ANCON-TEXT
100
AcDbDimension
  2
*D5
 10
195.5287232994666
 20
-24.99999999999998
 30
0.0
 11
17.99829380395068
 21
-101.3064474186534
 31
0.0
  1
 
 71
     5
 42
-1.0
  3
1-2
100
AcDbAlignedDimension
 13
175.0
 23
25.00000000000001
 33
0.0
 14
175.0
 24
-24.99999999999998
 34
0.0
 50
90.0
100
AcDbRotatedDimension
  0
LINE
  5
10B
330
2
100
AcDbEntity
  8
20MM-JOINT
  6
HIDDEN
 62
     3
100
AcDbLine
 10
130.0
 20
9.131892758323431
 30
0.0
 11
130.0
 21
-8.868107241676682
 31
0.0
  0
LINE
  5
10C
330
2
100
AcDbEntity
  8
20MM-JOINT
  6
HIDDEN
 62
     3
100
AcDbLine
 10
128.0
 20
11.13189275832337
 30
0.0
 11
128.0
 21
-10.86810724167668
 31
0.0
  0
LINE
  5
10D
330
2
100
AcDbEntity
  8
20MM-JOINT
  6
HIDDEN
 62
     3
100
AcDbLine
 10
128.0
 20
-10.86810724167668
 30
0.0
 11
130.0
 21
-8.868107241676682
 31
0.0
  0
LINE
  5
10E
330
2
100
AcDbEntity
  8
20MM-JOINT
  6
HIDDEN
 62
     3
100
AcDbLine
 10
128.0
 20
11.13189275832331
 30
0.0
 11
130.0
 21
9.131892758323317
 31
0.0
  0
LINE
  5
10F
330
2
100
AcDbEntity
  8
ANCON-DSD
  6
Continuous
100
AcDbLine
 10
175.0
 20
-24.99999999999997
 30
0.0
 11
175.0
 21
25.00000000000001
 31
0.0
  0
LINE
  5
110
330
2
100
AcDbEntity
  8
ANCON-DSD
  6
Continuous
100
AcDbLine
 10
170.0
 20
-24.99999999999997
 30
0.0
 11
170.0
 21
25.00000000000001
 31
0.0
  0
LINE
  5
111
330
2
100
AcDbEntity
  8
ANCON-DSD
  6
HIDDEN
100
AcDbLine
 10
150.0
 20
-12.69999999999991
 30
0.0
 11
150.0
 21
12.70000000000006
 31
0.0
  0
TEXT
  5
112
330
2
100
AcDbEntity
  8
SPECD
 62
     6
100
AcDbText
 10
199.7915063438205
 20
1.653620865320244
 30
0.0
 40
3.0
  1
MAX. LATERAL MOVEMENT
  7
ROMANS
 72
     4
 11
228.8629349152491
 21
3.153620865320245
 31
0.0
100
AcDbText
  0
TEXT
  5
113
330
2
100
AcDbEntity
  8
SPECD
 62
     6
100
AcDbText
 10
221.1486492009634
 20
-4.953051556067705
 30
0.0
 40
3.0
  1
20 MM
  7
ROMANS
 72
     4
 11
228.8629349152491
 21
-3.453051556067705
 31
0.0
100
AcDbText
  0
TEXT
  5
114
330
2
100
AcDbEntity
  8
SPECD
 62
     6
100
AcDbText
 10
139.0854762322134
 20
149.0065227689153
 30
0.0
 40
5.0
  1
TWO PART STAINLESS STEEL SHEAR CONNECTOR
  7
ROMANS
 72
     4
 11
231.7045238512611
 21
151.5065227689153
 31
0.0
100
AcDbText
  0
TEXT
  5
115
330
2
100
AcDbEntity
  8
SPECD
 62
     6
100
AcDbText
 10
138.3642918261576
 20
138.9018104431247
 30
0.0
 40
5.0
  1
COMPRISING SLEEVE AND DOWEL COMPONENT
  7
ROMANS
 72
     4
 11
226.3404823023481
 21
141.4018104431247
 31
0.0
100
AcDbText
  0
TEXT
  5
116
330
2
100
AcDbEntity
  8
SPECD
 62
     6
100
AcDbText
 10
138.8774237561653
 20
118.9516053195258
 30
0.0
 40
5.0
  1
AND CAPABLE OF TRANSFERRING A SERVICEABILITY
  7
ROMANS
 72
     4
 11
236.2583761371177
 21
121.4516053195258
 31
0.0
100
AcDbText
  0
LINE
  5
117
330
2
100
AcDbEntity
  8
SPECD
 62
     6
100
AcDbLine
 10
134.7937430273738
 20
105.2136297231349
 30
0.0
 11
337.2806931340141
 21
105.2136297231349
 31
0.0
  0
LINE
  5
118
330
2
100
AcDbEntity
  8
SPECD
 62
     6
100
AcDbLine
 10
134.7937430273738
 20
158.2473223086853
 30
0.0
 11
337.2806931340141
 21
158.2473223086853
 31
0.0
  0
TEXT
  5
119
330
2
100
AcDbEntity
  8
SPECD
 62
     6
100
AcDbText
 10
138.4229885862152
 20
129.0006627334549
 30
0.0
 40
5.0
  1
SUITABLE FOR A DESIGN JOINT WIDTH OF ?? MM
  7
ROMANS
 72
     4
 11
233.3039409671676
 21
131.5006627334549
 31
0.0
100
AcDbText
  0
TEXT
  5
11A
330
2
100
AcDbEntity
  8
SPECD
 62
     6
100
AcDbText
 10
140.0632045125083
 20
108.9166801545636
 30
0.0
 40
5.0
  1
LOAD OF ??? kN
  7
ROMANS
 72
     4
 11
172.682252131556
 21
111.4166801545636
 31
0.0
100
AcDbText
  0
LINE
  5
11B
330
2
100
AcDbEntity
  8
SPECP
 62
     6
100
AcDbLine
 10
134.7937430273738
 20
187.6138359757791
 30
0.0
 11
202.3835939501357
 21
187.6138359757791
 31
0.0
  0
LINE
  5
11C
330
2
100
AcDbEntity
  8
SPECP
 62
     6
100
AcDbLine
 10
134.7937430273738
 20
175.6958606837778
 30
0.0
 11
202.3835939501357
 21
175.6958606837779
 31
0.0
  0
TEXT
  5
11D
330
2
100
AcDbEntity
  8
SPECP
 62
     6
100
AcDbText
 10
139.2878527007658
 20
178.9767258599356
 30
0.0
 40
5.0
  1
STAIFIX DSD ??
  7
ROMANS
 72
     4
 11
168.8116622245753
 21
181.4767258599357
 31
0.0
100
AcDbText
  0
LINE
  5
11E
330
2
100
AcDbEntity
  8
SPECD
 62
     6
100
AcDbLine
 10
134.7937430273738
 20
158.2473223086853
 30
0.0
 11
134.7937430273738
 21
105.2136297231349
 31
0.0
  0
LINE
  5
11F
330
2
100
AcDbEntity
  8
SPECP
 62
     6
100
AcDbLine
 10
134.7937430273738
 20
187.6138359757791
 30
0.0
 11
134.7937430273738
 21
175.6958606837778
 31
0.0
  0
LINE
  5
120
330
2
100
AcDbEntity
  8
SPECP
 62
     6
100
AcDbLine
 10
202.3835939501357
 20
187.6138359757791
 30
0.0
 11
202.3835939501357
 21
175.6958606837778
 31
0.0
  0
LINE
  5
121
330
2
100
AcDbEntity
  8
SPECD
 62
     6
100
AcDbLine
 10
337.2806931340141
 20
158.2473223086853
 30
0.0
 11
337.2806931340141
 21
105.2136297231349
 31
0.0
  0
ENDSEC
  0
SECTION
  2
OBJECTS
  0
DICTIONARY
  5
26
330
0
100
AcDbDictionary
281
     1
  3
ACAD_GROUP
350
22
  3
ACAD_LAYOUT
350
125
  3
ACAD_MLINESTYLE
350
23
  3
ACAD_PLOTSETTINGS
350
126
  3
ACAD_PLOTSTYLENAME
350
123
  0
DICTIONARY
  5
3
330
2
100
AcDbDictionary
280
     1
281
     1
  3
ACAD_LAYOUTSELFREF
360
156
  0
DICTIONARY
  5
B
330
A
100
AcDbDictionary
280
     1
281
     1
  3
ACAD_LAYOUTSELFREF
360
157
  0
DICTIONARY
  5
22
102
{ACAD_REACTORS
330
26
102
}
330
26
100
AcDbDictionary
281
     1
  0
DICTIONARY
  5
125
102
{ACAD_REACTORS
330
26
102
}
330
26
100
AcDbDictionary
281
     1
  3
Layout1
350
128
  3
Model
350
127
  0
DICTIONARY
  5
23
102
{ACAD_REACTORS
330
26
102
}
330
26
100
AcDbDictionary
281
     1
  3
Standard
350
29
  0
DICTIONARY
  5
126
102
{ACAD_REACTORS
330
26
102
}
330
26
100
AcDbDictionary
281
     1
  0
ACDBDICTIONARYWDFLT
  5
123
102
{ACAD_REACTORS
330
26
102
}
330
26
100
AcDbDictionary
281
     1
  3
Normal
350
124
100
AcDbDictionaryWithDefault
340
124
  0
XRECORD
  5
156
102
{ACAD_REACTORS
330
3
102
}
330
3
100
AcDbXrecord
280
     1
340
2
  0
XRECORD
  5
157
102
{ACAD_REACTORS
330
B
102
}
330
B
100
AcDbXrecord
280
     1
340
A
  0
LAYOUT
  5
128
102
{ACAD_REACTORS
330
125
102
}
330
125
100
AcDbPlotSettings
  1

  2
None
  4

  6

 40
0.0
 41
0.0
 42
0.0
 43
0.0
 44
0.0
 45
0.0
 46
0.0
 47
0.0
 48
0.0
 49
0.0
140
0.0
141
0.0
142
1.0
143
1.0
 70
   688
 72
     0
 73
     0
 74
     5
  7
Std pen settings.ctb
 75
    16
147
1.0
148
0.0
149
0.0
100
AcDbLayout
  1
Layout1
 70
     1
 71
     1
 10
-0.1979161059762549
 20
-0.1979166691697489
 11
16.34375024029589
 21
11.49541603298637
 12
0.0
 22
0.0
 32
0.0
 14
1.614583349603368
 24
1.129749872553066
 34
0.0
 15
14.5312501464303
 25
10.1677488529776
 35
0.0
146
0.0
 13
0.0
 23
0.0
 33
0.0
 16
1.0
 26
0.0
 36
0.0
 17
0.0
 27
1.0
 37
0.0
 76
     0
330
A
  0
LAYOUT
  5
127
102
{ACAD_REACTORS
330
125
102
}
330
125
100
AcDbPlotSettings
  1

  2
None
  4

  6

 40
0.0
 41
0.0
 42
0.0
 43
0.0
 44
0.0
 45
0.0
 46
0.0
 47
0.0
 48
0.0
 49
0.0
140
0.0
141
0.0
142
1.0
143
1.0
 70
  1712
 72
     0
 73
     0
 74
     0
  7
Std pen settings.ctb
 75
     0
147
1.0
148
0.0
149
0.0
100
AcDbLayout
  1
Model
 70
     1
 71
     0
 10
0.0
 20
0.0
 11
12.0
 21
9.0
 12
0.0
 22
0.0
 32
0.0
 14
0.0
 24
0.0
 34
0.0
 15
0.0
 25
0.0
 35
0.0
146
0.0
 13
0.0
 23
0.0
 33
0.0
 16
1.0
 26
0.0
 36
0.0
 17
0.0
 27
1.0
 37
0.0
 76
     0
330
2
  0
MLINESTYLE
  5
29
102
{ACAD_REACTORS
330
23
102
}
330
23
100
AcDbMlineStyle
  2
STANDARD
 70
     0
  3

 62
   256
 51
90.0
 52
90.0
 71
     2
 49
0.5
 62
   256
  6
BYLAYER
 49
-0.5
 62
   256
  6
BYLAYER
  0
ACDBPLACEHOLDER
  5
124
102
{ACAD_REACTORS
330
123
102
}
330
123
  0
ENDSEC
  0
EOF
