  0
SECTION
  2
HEADER
  9
$ACADVER
  1
AC1015
  9
$ACADMAINTVER
 70
    10
  9
$DWGCODEPAGE
  3
ANSI_1252
  9
$INSBASE
 10
0.0
 20
0.0
 30
0.0
  9
$EXTMIN
 10
-229.3924702501002
 20
-175.6031504942892
 30
0.0
  9
$EXTMAX
 10
334.8426136024051
 20
199.5318397853139
 30
0.0
  9
$LIMMIN
 10
0.0
 20
0.0
  9
$LIMMAX
 10
420.0
 20
297.0
  9
$ORTHOMODE
 70
     1
  9
$REGENMODE
 70
     1
  9
$FILLMODE
 70
     1
  9
$QTEXTMODE
 70
     0
  9
$MIRRTEXT
 70
     1
  9
$LTSCALE
 40
0.25
  9
$ATTMODE
 70
     1
  9
$TEXTSIZE
 40
5.0
  9
$TRACEWID
 40
10.0
  9
$TEXTSTYLE
  7
ROMANS
  9
$CLAYER
  8
DIMS
  9
$CELTYPE
  6
ByLayer
  9
$CECOLOR
 62
   256
  9
$CELTSCALE
 40
1.0
  9
$DISPSILH
 70
     0
  9
$DIMSCALE
 40
0.0
  9
$DIMASZ
 40
2.0
  9
$DIMEXO
 40
4.5
  9
$DIMDLI
 40
10.0
  9
$DIMRND
 40
0.0
  9
$DIMDLE
 40
1.25
  9
$DIMEXE
 40
1.5
  9
$DIMTP
 40
0.0
  9
$DIMTM
 40
0.0
  9
$DIMTXT
 40
3.0
  9
$DIMCEN
 40
-3.0
  9
$DIMTSZ
 40
0.0
  9
$DIMTOL
 70
     0
  9
$DIMLIM
 70
     0
  9
$DIMTIH
 70
     0
  9
$DIMTOH
 70
     0
  9
$DIMSE1
 70
     0
  9
$DIMSE2
 70
     0
  9
$DIMTAD
 70
     1
  9
$DIMZIN
 70
    12
  9
$DIMBLK
  1

  9
$DIMASO
 70
     1
  9
$DIMSHO
 70
     0
  9
$DIMPOST
  1

  9
$DIMAPOST
  1

  9
$DIMALT
 70
     0
  9
$DIMALTD
 70
     2
  9
$DIMALTF
 40
0.039
  9
$DIMLFAC
 40
1.0
  9
$DIMTOFL
 70
     0
  9
$DIMTVP
 40
0.0
  9
$DIMTIX
 70
     0
  9
$DIMSOXD
 70
     0
  9
$DIMSAH
 70
     0
  9
$DIMBLK1
  1

  9
$DIMBLK2
  1

  9
$DIMSTYLE
  2
1-1
  9
$DIMCLRD
 70
     0
  9
$DIMCLRE
 70
     0
  9
$DIMCLRT
 70
     0
  9
$DIMTFAC
 40
0.75
  9
$DIMGAP
 40
1.5
  9
$DIMJUST
 70
     0
  9
$DIMSD1
 70
     0
  9
$DIMSD2
 70
     0
  9
$DIMTOLJ
 70
     1
  9
$DIMTZIN
 70
    12
  9
$DIMALTZ
 70
    12
  9
$DIMALTTZ
 70
    12
  9
$DIMUPT
 70
     0
  9
$DIMDEC
 70
     2
  9
$DIMTDEC
 70
     2
  9
$DIMALTU
 70
     2
  9
$DIMALTTD
 70
     2
  9
$DIMTXSTY
  7
STANDARD
  9
$DIMAUNIT
 70
     0
  9
$DIMADEC
 70
     0
  9
$DIMALTRND
 40
0.0
  9
$DIMAZIN
 70
     0
  9
$DIMDSEP
 70
    46
  9
$DIMATFIT
 70
     3
  9
$DIMFRAC
 70
     0
  9
$DIMLDRBLK
  1

  9
$DIMLUNIT
 70
     2
  9
$DIMLWD
 70
    -2
  9
$DIMLWE
 70
    -2
  9
$DIMTMOVE
 70
     2
  9
$LUNITS
 70
     2
  9
$LUPREC
 70
     2
  9
$SKETCHINC
 40
1.0
  9
$FILLETRAD
 40
0.0
  9
$AUNITS
 70
     0
  9
$AUPREC
 70
     4
  9
$MENU
  1
acad
  9
$ELEVATION
 40
0.0
  9
$PELEVATION
 40
0.0
  9
$THICKNESS
 40
0.0
  9
$LIMCHECK
 70
     0
  9
$CHAMFERA
 40
0.0
  9
$CHAMFERB
 40
0.0
  9
$CHAMFERC
 40
0.0
  9
$CHAMFERD
 40
0.0
  9
$SKPOLY
 70
     0
  9
$TDCREATE
 40
2449527.571155092
  9
$TDUCREATE
 40
2449527.529488425
  9
$TDUPDATE
 40
2452498.547317245
  9
$TDUUPDATE
 40
2452498.505650578
  9
$TDINDWG
 40
0.3536481366
  9
$TDUSRTIMER
 40
0.3536481366
  9
$USRTIMER
 70
     1
  9
$ANGBASE
 50
0.0
  9
$ANGDIR
 70
     0
  9
$PDMODE
 70
     0
  9
$PDSIZE
 40
0.0
  9
$PLINEWID
 40
0.0
  9
$SPLFRAME
 70
     0
  9
$SPLINETYPE
 70
     6
  9
$SPLINESEGS
 70
     8
  9
$HANDSEED
  5
1A7
  9
$SURFTAB1
 70
    18
  9
$SURFTAB2
 70
    18
  9
$SURFTYPE
 70
     6
  9
$SURFU
 70
    18
  9
$SURFV
 70
    18
  9
$UCSBASE
  2

  9
$UCSNAME
  2

  9
$UCSORG
 10
0.0
 20
0.0
 30
0.0
  9
$UCSXDIR
 10
1.0
 20
0.0
 30
0.0
  9
$UCSYDIR
 10
0.0
 20
1.0
 30
0.0
  9
$UCSORTHOREF
  2

  9
$UCSORTHOVIEW
 70
     0
  9
$UCSORGTOP
 10
0.0
 20
0.0
 30
0.0
  9
$UCSORGBOTTOM
 10
0.0
 20
0.0
 30
0.0
  9
$UCSORGLEFT
 10
0.0
 20
0.0
 30
0.0
  9
$UCSORGRIGHT
 10
0.0
 20
0.0
 30
0.0
  9
$UCSORGFRONT
 10
0.0
 20
0.0
 30
0.0
  9
$UCSORGBACK
 10
0.0
 20
0.0
 30
0.0
  9
$PUCSBASE
  2

  9
$PUCSNAME
  2

  9
$PUCSORG
 10
0.0
 20
0.0
 30
0.0
  9
$PUCSXDIR
 10
1.0
 20
0.0
 30
0.0
  9
$PUCSYDIR
 10
0.0
 20
1.0
 30
0.0
  9
$PUCSORTHOREF
  2

  9
$PUCSORTHOVIEW
 70
     0
  9
$PUCSORGTOP
 10
0.0
 20
0.0
 30
0.0
  9
$PUCSORGBOTTOM
 10
0.0
 20
0.0
 30
0.0
  9
$PUCSORGLEFT
 10
0.0
 20
0.0
 30
0.0
  9
$PUCSORGRIGHT
 10
0.0
 20
0.0
 30
0.0
  9
$PUCSORGFRONT
 10
0.0
 20
0.0
 30
0.0
  9
$PUCSORGBACK
 10
0.0
 20
0.0
 30
0.0
  9
$USERI1
 70
     0
  9
$USERI2
 70
     0
  9
$USERI3
 70
     0
  9
$USERI4
 70
     0
  9
$USERI5
 70
     0
  9
$USERR1
 40
0.0
  9
$USERR2
 40
0.0
  9
$USERR3
 40
0.0
  9
$USERR4
 40
0.0
  9
$USERR5
 40
0.0
  9
$WORLDVIEW
 70
     1
  9
$SHADEDGE
 70
     3
  9
$SHADEDIF
 70
    70
  9
$TILEMODE
 70
     1
  9
$MAXACTVP
 70
    16
  9
$PINSBASE
 10
0.0
 20
0.0
 30
0.0
  9
$PLIMCHECK
 70
     0
  9
$PEXTMIN
 10
1.614583349603368
 20
1.129749872553066
 30
0.0
  9
$PEXTMAX
 10
14.5312501464303
 20
10.1677488529776
 30
0.0
  9
$PLIMMIN
 10
-0.1979161059762549
 20
-0.1979166691697489
  9
$PLIMMAX
 10
16.34375024029589
 20
11.49541603298637
  9
$UNITMODE
 70
     0
  9
$VISRETAIN
 70
     0
  9
$PLINEGEN
 70
     0
  9
$PSLTSCALE
 70
     1
  9
$TREEDEPTH
 70
  3020
  9
$CMLSTYLE
  2
Standard
  9
$CMLJUST
 70
     0
  9
$CMLSCALE
 40
1.0
  9
$PROXYGRAPHICS
 70
     1
  9
$MEASUREMENT
 70
     0
  9
$CELWEIGHT
370
    -1
  9
$ENDCAPS
280
     0
  9
$JOINSTYLE
280
     0
  9
$LWDISPLAY
290
     0
  9
$INSUNITS
 70
     0
  9
$HYPERLINKBASE
  1

  9
$STYLESHEET
  1

  9
$XEDIT
290
     1
  9
$CEPSNTYPE
380
     0
  9
$PSTYLEMODE
290
     1
  9
$FINGERPRINTGUID
  2
{8938FE02-9646-4194-AC20-C9881FA6178D}
  9
$VERSIONGUID
  2
{627E28AE-AD1D-11D6-AAC6-0010A4A25215}
  9
$EXTNAMES
290
     1
  9
$PSVPSCALE
 40
0.0
  9
$OLESTARTUP
290
     0
  0
ENDSEC
  0
SECTION
  2
CLASSES
  0
CLASS
  1
ACDBDICTIONARYWDFLT
  2
AcDbDictionaryWithDefault
  3
AutoCAD 2000
 90
        0
280
     1
281
     0
  0
CLASS
  1
ACDBPLACEHOLDER
  2
AcDbPlaceHolder
  3
AutoCAD 2000
 90
        0
280
     1
281
     0
  0
CLASS
  1
LAYOUT
  2
AcDbLayout
  3
AutoCAD 2000
 90
        0
280
     1
281
     0
  0
CLASS
  1
LONG_TRANSACTION
  2
AcDbLongTransaction
  3
AutoCAD 2000
 90
    32768
280
     1
281
     0
  0
CLASS
  1
LWPOLYLINE
  2
AcDbPolyline
  3
AutoCAD 2000
 90
    32768
280
     0
281
     1
  0
CLASS
  1
HATCH
  2
AcDbHatch
  3
AutoCAD 2000
 90
    32768
280
     0
281
     1
  0
CLASS
  1
XRECORD
  2
AcDbXrecord
  3
AutoCAD 2000
 90
    32768
280
     0
281
     0
  0
CLASS
  1
LONG_TRANSACTION
  2
AcDbLongTransaction
  3
AutoCAD 2000
 90
    32768
280
     0
281
     0
  0
CLASS
  1
LWPOLYLINE
  2
AcDbPolyline
  3
AutoCAD 2000
 90
    32768
280
     0
281
     1
  0
CLASS
  1
HATCH
  2
AcDbHatch
  3
AutoCAD 2000
 90
    32768
280
     0
281
     1
  0
CLASS
  1
XRECORD
  2
AcDbXrecord
  3
AutoCAD 2000
 90
    32768
280
     0
281
     0
  0
ENDSEC
  0
SECTION
  2
TABLES
  0
TABLE
  2
VPORT
  5
1C
330
0
100
AcDbSymbolTable
 70
     3
  0
VPORT
  5
1A6
330
1C
100
AcDbSymbolTableRecord
100
AcDbViewportTableRecord
  2
*Active
 70
     0
 10
0.0
 20
0.0
 11
1.0
 21
1.0
 12
18.32396593892553
 22
49.65731889528774
 13
0.0
 23
0.0
 14
5.0
 24
5.0
 15
10.0
 25
10.0
 16
0.0
 26
0.0
 36
1.0
 17
0.0
 27
0.0
 37
0.0
 40
577.4876688513854
 41
1.760948905109489
 42
50.0
 43
0.0
 44
0.0
 50
0.0
 51
0.0
 71
     0
 72
   100
 73
     1
 74
     1
 75
     0
 76
     0
 77
     0
 78
     0
281
     0
 65
     1
110
0.0
120
0.0
130
0.0
111
1.0
121
0.0
131
0.0
112
0.0
122
1.0
132
0.0
 79
     0
146
0.0
  0
ENDTAB
  0
TABLE
  2
LTYPE
  5
13
330
0
100
AcDbSymbolTable
 70
     4
  0
LTYPE
  5
14
330
13
100
AcDbSymbolTableRecord
100
AcDbLinetypeTableRecord
  2
ByBlock
 70
     0
  3

 72
    65
 73
     0
 40
0.0
  0
LTYPE
  5
17
330
13
100
AcDbSymbolTableRecord
100
AcDbLinetypeTableRecord
  2
ByLayer
 70
     0
  3

 72
    65
 73
     0
 40
0.0
  0
LTYPE
  5
8
330
13
100
AcDbSymbolTableRecord
100
AcDbLinetypeTableRecord
  2
CONTINUOUS
 70
     0
  3
Solid line
 72
    65
 73
     0
 40
0.0
  0
LTYPE
  5
68
330
13
100
AcDbSymbolTableRecord
100
AcDbLinetypeTableRecord
  2
CENTER2
 70
     0
  3
___ _ ___ _ ___ _ ___ _ ___ _ ___ _ ___ _ ___ _
 72
    65
 73
     4
 40
28.57499999999999
 49
19.05
 74
     0
 49
-3.174999999999999
 74
     0
 49
3.174999999999999
 74
     0
 49
-3.174999999999999
 74
     0
  0
LTYPE
  5
51
330
13
100
AcDbSymbolTableRecord
100
AcDbLinetypeTableRecord
  2
HIDDEN
 70
     0
  3
__ __ __ __ __ __ __ __ __ __ __ __ __ __ __ __
 72
    65
 73
     2
 40
9.524999999999998
 49
6.349999999999999
 74
     0
 49
-3.174999999999999
 74
     0
  0
LTYPE
  5
A0
330
13
100
AcDbSymbolTableRecord
100
AcDbLinetypeTableRecord
  2
CENTER
 70
     0
  3
____ _ ____ _ ____ _ ____ _ ____ _ ____ _ ____ 
 72
    65
 73
     4
 40
50.8
 49
31.75
 74
     0
 49
-6.349999999999999
 74
     0
 49
6.349999999999999
 74
     0
 49
-6.349999999999999
 74
     0
  0
ENDTAB
  0
TABLE
  2
LAYER
  5
10
330
0
100
AcDbSymbolTable
 70
    10
  0
LAYER
  5
7
330
10
100
AcDbSymbolTableRecord
100
AcDbLayerTableRecord
  2
0
 70
     0
 62
     7
  6
CONTINUOUS
370
    -3
390
165
  0
LAYER
  5
27
330
10
100
AcDbSymbolTableRecord
100
AcDbLayerTableRecord
  2
DIMS
 70
     0
 62
     1
  6
CONTINUOUS
370
    -3
390
165
  0
LAYER
  5
4B
330
10
100
AcDbSymbolTableRecord
100
AcDbLayerTableRecord
  2
ANCON-DSD
 70
     0
 62
     3
  6
CONTINUOUS
370
    -3
390
165
  0
LAYER
  5
36
330
10
100
AcDbSymbolTableRecord
100
AcDbLayerTableRecord
  2
DEFPOINTS
 70
     0
 62
     7
  6
CONTINUOUS
290
     0
370
    -3
390
165
  0
LAYER
  5
74
330
10
100
AcDbSymbolTableRecord
100
AcDbLayerTableRecord
  2
CONCRETE
 70
     0
 62
     2
  6
CONTINUOUS
370
    -3
390
165
  0
LAYER
  5
F5
330
10
100
AcDbSymbolTableRecord
100
AcDbLayerTableRecord
  2
ORIGIN
 70
     0
 62
     7
  6
CONTINUOUS
370
    -3
390
165
  0
LAYER
  5
50
330
10
100
AcDbSymbolTableRecord
100
AcDbLayerTableRecord
  2
20MM-JOINT
 70
     0
 62
     7
  6
CONTINUOUS
370
    -3
390
165
  0
LAYER
  5
82
330
10
100
AcDbSymbolTableRecord
100
AcDbLayerTableRecord
  2
20MM-DIMS
 70
     0
 62
     1
  6
CONTINUOUS
370
    -3
390
165
  0
LAYER
  5
58
330
10
100
AcDbSymbolTableRecord
100
AcDbLayerTableRecord
  2
SPECP
 70
     0
 62
     6
  6
CONTINUOUS
370
    -3
390
165
  0
LAYER
  5
56
330
10
100
AcDbSymbolTableRecord
100
AcDbLayerTableRecord
  2
SPECD
 70
     0
 62
     6
  6
CONTINUOUS
370
    -3
390
165
  0
ENDTAB
  0
TABLE
  2
STYLE
  5
11
330
0
100
AcDbSymbolTable
 70
     2
  0
STYLE
  5
12
330
11
100
AcDbSymbolTableRecord
100
AcDbTextStyleTableRecord
  2
STANDARD
 70
     0
 40
0.0
 41
1.0
 50
0.0
 71
     0
 42
6.0
  3
txt.shx
  4

  0
STYLE
  5
28
330
11
100
AcDbSymbolTableRecord
100
AcDbTextStyleTableRecord
  2
ROMANS
 70
     0
 40
0.0
 41
1.0
 50
0.0
 71
     0
 42
5.0
  3
romans
  4

  0
ENDTAB
  0
TABLE
  2
VIEW
  5
1A
330
0
100
AcDbSymbolTable
 70
     0
  0
ENDTAB
  0
TABLE
  2
UCS
  5
1B
330
0
100
AcDbSymbolTable
 70
     0
  0
ENDTAB
  0
TABLE
  2
APPID
  5
1E
330
0
100
AcDbSymbolTable
 70
     1
  0
APPID
  5
1F
330
1E
100
AcDbSymbolTableRecord
100
AcDbRegAppTableRecord
  2
ACAD
 70
     0
  0
ENDTAB
  0
TABLE
  2
DIMSTYLE
  5
20
330
0
100
AcDbSymbolTable
 70
     1
100
AcDbDimStyleTable
 71
     0
  0
DIMSTYLE
105
2A
102
{ACAD_REACTORS
330
B6
330
120
330
59
330
8F
330
C5
330
D2
330
81
330
A7
330
112
330
151
330
134
330
E5
330
3D
330
2D
102
}
330
20
100
AcDbSymbolTableRecord
100
AcDbDimStyleTableRecord
  2
1-1
 70
     0
 40
0.0
 41
2.0
 42
4.5
 43
10.0
 44
1.5
 46
1.25
 73
     0
 74
     0
 77
     1
 78
    12
140
3.0
141
-3.0
143
0.039
146
0.75
147
1.5
271
     2
272
     2
279
     2
284
    12
285
    12
286
    12
340
12
  0
ENDTAB
  0
TABLE
  2
BLOCK_RECORD
  5
1
330
0
100
AcDbSymbolTable
 70
    15
  0
BLOCK_RECORD
  5
2
102
{ACAD_XDICTIONARY
360
3
102
}
330
1
100
AcDbSymbolTableRecord
100
AcDbBlockTableRecord
  2
*Model_Space
340
168
  0
BLOCK_RECORD
  5
A
102
{ACAD_XDICTIONARY
360
B
102
}
330
1
100
AcDbSymbolTableRecord
100
AcDbBlockTableRecord
  2
*Paper_Space
340
169
  0
BLOCK_RECORD
  5
B7
330
1
100
AcDbSymbolTableRecord
100
AcDbBlockTableRecord
  2
*D0
340
0
  0
BLOCK_RECORD
  5
121
330
1
100
AcDbSymbolTableRecord
100
AcDbBlockTableRecord
  2
*D1
340
0
  0
BLOCK_RECORD
  5
5A
330
1
100
AcDbSymbolTableRecord
100
AcDbBlockTableRecord
  2
*D2
340
0
  0
BLOCK_RECORD
  5
90
330
1
100
AcDbSymbolTableRecord
100
AcDbBlockTableRecord
  2
*D3
340
0
  0
BLOCK_RECORD
  5
C6
330
1
100
AcDbSymbolTableRecord
100
AcDbBlockTableRecord
  2
*D4
340
0
  0
BLOCK_RECORD
  5
D3
330
1
100
AcDbSymbolTableRecord
100
AcDbBlockTableRecord
  2
*D5
340
0
  0
BLOCK_RECORD
  5
113
330
1
100
AcDbSymbolTableRecord
100
AcDbBlockTableRecord
  2
*D6
340
0
  0
BLOCK_RECORD
  5
152
330
1
100
AcDbSymbolTableRecord
100
AcDbBlockTableRecord
  2
*D7
340
0
  0
BLOCK_RECORD
  5
135
330
1
100
AcDbSymbolTableRecord
100
AcDbBlockTableRecord
  2
*D8
340
0
  0
BLOCK_RECORD
  5
E6
330
1
100
AcDbSymbolTableRecord
100
AcDbBlockTableRecord
  2
*D9
340
0
  0
BLOCK_RECORD
  5
3E
330
1
100
AcDbSymbolTableRecord
100
AcDbBlockTableRecord
  2
*D10
340
0
  0
BLOCK_RECORD
  5
2E
330
1
100
AcDbSymbolTableRecord
100
AcDbBlockTableRecord
  2
*D11
340
0
  0
BLOCK_RECORD
  5
83
330
1
100
AcDbSymbolTableRecord
100
AcDbBlockTableRecord
  2
*D12
340
0
  0
BLOCK_RECORD
  5
A8
330
1
100
AcDbSymbolTableRecord
100
AcDbBlockTableRecord
  2
*D13
340
0
  0
BLOCK_RECORD
  5
76
330
1
100
AcDbSymbolTableRecord
100
AcDbBlockTableRecord
  2
A$C6BE937E7
340
0
  0
ENDTAB
  0
ENDSEC
  0
SECTION
  2
BLOCKS
  0
BLOCK
  5
6
330
2
100
AcDbEntity
  8
0
100
AcDbBlockBegin
  2
*Model_Space
 70
     0
 10
0.0
 20
0.0
 30
0.0
  3
*Model_Space
  1

  0
ENDBLK
  5
9
330
2
100
AcDbEntity
  8
0
100
AcDbBlockEnd
  0
BLOCK
  5
E
330
A
100
AcDbEntity
 67
     1
  8
0
100
AcDbBlockBegin
  2
*Paper_Space
 70
     0
 10
0.0
 20
0.0
 30
0.0
  3
*Paper_Space
  1

  0
ENDBLK
  5
F
330
A
100
AcDbEntity
 67
     1
  8
0
100
AcDbBlockEnd
  0
BLOCK
  5
C3
330
B7
100
AcDbEntity
  8
0
100
AcDbBlockBegin
  2
*D0
 70
     1
 10
0.0
 20
0.0
 30
0.0
  3
*D0
  1

  0
LINE
  5
B8
330
B7
100
AcDbEntity
  8
0
  6
ByBlock
 62
     0
100
AcDbLine
 10
4.0
 20
-104.4999999999999
 30
0.0
 11
4.0
 21
-130.0584405018526
 31
0.0
  0
LINE
  5
B9
330
B7
100
AcDbEntity
  8
0
  6
ByBlock
 62
     0
100
AcDbLine
 10
0.0
 20
-104.4999999999999
 30
0.0
 11
0.0
 21
-130.0584405018526
 31
0.0
  0
LINE
  5
BA
330
B7
100
AcDbEntity
  8
0
  6
ByBlock
 62
     0
100
AcDbLine
 10
6.0
 20
-128.5584405018526
 30
0.0
 11
8.0
 21
-128.5584405018526
 31
0.0
  0
LINE
  5
BB
330
B7
100
AcDbEntity
  8
0
  6
ByBlock
 62
     0
100
AcDbLine
 10
-2.0
 20
-128.5584405018526
 30
0.0
 11
-4.0
 21
-128.5584405018526
 31
0.0
  0
LINE
  5
BC
330
B7
100
AcDbEntity
  8
0
  6
ByBlock
 62
     0
100
AcDbLine
 10
-4.0
 20
-128.5584405018526
 30
0.0
 11
-7.642857142857142
 21
-128.5584405018526
 31
0.0
  0
SOLID
  5
BD
330
B7
100
AcDbEntity
  8
0
  6
ByBlock
 62
     0
100
AcDbTrace
 10
6.0
 20
-128.2251071685193
 30
0.0
 11
6.0
 21
-128.8917738351859
 31
0.0
 12
4.0
 22
-128.5584405018526
 32
0.0
 13
4.0
 23
-128.5584405018526
 33
0.0
  0
SOLID
  5
BE
330
B7
100
AcDbEntity
  8
0
  6
ByBlock
 62
     0
100
AcDbTrace
 10
-2.0
 20
-128.2251071685193
 30
0.0
 11
-2.0
 21
-128.8917738351859
 31
0.0
 12
0.0
 22
-128.5584405018526
 32
0.0
 13
0.0
 23
-128.5584405018526
 33
0.0
  0
TEXT
  5
BF
330
B7
100
AcDbEntity
  8
0
  6
ByBlock
 62
     0
100
AcDbText
 10
-8.071428571428571
 20
-127.0584405018526
 30
0.0
 40
3.0
  1
4
  7
ROMANS
 72
     1
 11
-6.571428571428571
 21
-125.5584405018526
 31
0.0
100
AcDbText
 73
     2
  0
POINT
  5
C0
330
B7
100
AcDbEntity
  8
DEFPOINTS
  6
ByBlock
 62
     0
100
AcDbPoint
 10
4.0
 20
-100.0
 30
0.0
  0
POINT
  5
C1
330
B7
100
AcDbEntity
  8
DEFPOINTS
  6
ByBlock
 62
     0
100
AcDbPoint
 10
0.0
 20
-100.0
 30
0.0
  0
POINT
  5
C2
330
B7
100
AcDbEntity
  8
DEFPOINTS
  6
ByBlock
 62
     0
100
AcDbPoint
 10
0.0
 20
-128.5584405018526
 30
0.0
  0
ENDBLK
  5
C4
330
B7
100
AcDbEntity
  8
0
100
AcDbBlockEnd
  0
BLOCK
  5
12B
330
121
100
AcDbEntity
  8
0
100
AcDbBlockBegin
  2
*D1
 70
     1
 10
0.0
 20
0.0
 30
0.0
  3
*D1
  1

  0
LINE
  5
122
330
121
100
AcDbEntity
  8
0
  6
ByBlock
 62
     0
100
AcDbLine
 10
246.0
 20
50.0
 30
0.0
 11
306.0207567129534
 21
50.0
 31
0.0
  0
LINE
  5
123
330
121
100
AcDbEntity
  8
0
  6
ByBlock
 62
     0
100
AcDbLine
 10
245.9999999999999
 20
-50.0
 30
0.0
 11
306.0207567129534
 21
-50.0
 31
0.0
  0
LINE
  5
124
330
121
100
AcDbEntity
  8
0
  6
ByBlock
 62
     0
100
AcDbLine
 10
304.5207567129534
 20
48.0
 30
0.0
 11
304.5207567129534
 21
-48.0
 31
0.0
  0
SOLID
  5
125
330
121
100
AcDbEntity
  8
0
  6
ByBlock
 62
     0
100
AcDbTrace
 10
304.1874233796201
 20
48.0
 30
0.0
 11
304.8540900462867
 21
48.0
 31
0.0
 12
304.5207567129534
 22
50.0
 32
0.0
 13
304.5207567129534
 23
50.0
 33
0.0
  0
SOLID
  5
126
330
121
100
AcDbEntity
  8
0
  6
ByBlock
 62
     0
100
AcDbTrace
 10
304.1874233796201
 20
-48.0
 30
0.0
 11
304.8540900462867
 21
-48.0
 31
0.0
 12
304.5207567129534
 22
-50.0
 32
0.0
 13
304.5207567129534
 23
-50.0
 33
0.0
  0
TEXT
  5
127
330
121
100
AcDbEntity
  8
0
  6
ByBlock
 62
     0
100
AcDbText
 10
303.0207567129534
 20
-4.5
 30
0.0
 40
3.0
  1
100
 50
90.0
  7
ROMANS
 72
     1
 11
301.5207567129534
 21
0.0
 31
0.0
100
AcDbText
 73
     2
  0
POINT
  5
128
330
121
100
AcDbEntity
  8
DEFPOINTS
  6
ByBlock
 62
     0
100
AcDbPoint
 10
241.5
 20
50.0
 30
0.0
  0
POINT
  5
129
330
121
100
AcDbEntity
  8
DEFPOINTS
  6
ByBlock
 62
     0
100
AcDbPoint
 10
241.4999999999998
 20
-50.0
 30
0.0
  0
POINT
  5
12A
330
121
100
AcDbEntity
  8
DEFPOINTS
  6
ByBlock
 62
     0
100
AcDbPoint
 10
304.5207567129534
 20
-50.0
 30
0.0
  0
ENDBLK
  5
12C
330
121
100
AcDbEntity
  8
0
100
AcDbBlockEnd
  0
BLOCK
  5
64
330
5A
100
AcDbEntity
  8
0
100
AcDbBlockBegin
  2
*D2
 70
     1
 10
0.0
 20
0.0
 30
0.0
  3
*D2
  1

  0
LINE
  5
5B
330
5A
100
AcDbEntity
  8
0
  6
ByBlock
 62
     0
100
AcDbLine
 10
8.5
 20
100.0
 30
0.0
 11
334.681868795887
 21
100.0
 31
0.0
  0
LINE
  5
5C
330
5A
100
AcDbEntity
  8
0
  6
ByBlock
 62
     0
100
AcDbLine
 10
8.5
 20
-100.0
 30
0.0
 11
334.681868795887
 21
-100.0
 31
0.0
  0
LINE
  5
5D
330
5A
100
AcDbEntity
  8
0
  6
ByBlock
 62
     0
100
AcDbLine
 10
333.181868795887
 20
98.0
 30
0.0
 11
333.181868795887
 21
-98.0
 31
0.0
  0
SOLID
  5
5E
330
5A
100
AcDbEntity
  8
0
  6
ByBlock
 62
     0
100
AcDbTrace
 10
332.8485354625537
 20
98.0
 30
0.0
 11
333.5152021292203
 21
98.0
 31
0.0
 12
333.181868795887
 22
100.0
 32
0.0
 13
333.181868795887
 23
100.0
 33
0.0
  0
SOLID
  5
5F
330
5A
100
AcDbEntity
  8
0
  6
ByBlock
 62
     0
100
AcDbTrace
 10
332.8485354625537
 20
-98.0
 30
0.0
 11
333.5152021292203
 21
-98.0
 31
0.0
 12
333.181868795887
 22
-100.0
 32
0.0
 13
333.181868795887
 23
-100.0
 33
0.0
  0
TEXT
  5
60
330
5A
100
AcDbEntity
  8
0
  6
ByBlock
 62
     0
100
AcDbText
 10
331.6818687958869
 20
-4.285714285714285
 30
0.0
 40
3.0
  1
200
 50
90.0
  7
ROMANS
 72
     1
 11
330.181868795887
 21
0.0
 31
0.0
100
AcDbText
 73
     2
  0
POINT
  5
61
330
5A
100
AcDbEntity
  8
DEFPOINTS
  6
ByBlock
 62
     0
100
AcDbPoint
 10
4.0
 20
100.0
 30
0.0
  0
POINT
  5
62
330
5A
100
AcDbEntity
  8
DEFPOINTS
  6
ByBlock
 62
     0
100
AcDbPoint
 10
4.0
 20
-100.0
 30
0.0
  0
POINT
  5
63
330
5A
100
AcDbEntity
  8
DEFPOINTS
  6
ByBlock
 62
     0
100
AcDbPoint
 10
333.181868795887
 20
-100.0
 30
0.0
  0
ENDBLK
  5
65
330
5A
100
AcDbEntity
  8
0
100
AcDbBlockEnd
  0
BLOCK
  5
9A
330
90
100
AcDbEntity
  8
0
100
AcDbBlockBegin
  2
*D3
 70
     1
 10
0.0
 20
0.0
 30
0.0
  3
*D3
  1

  0
LINE
  5
91
330
90
100
AcDbEntity
  8
0
  6
ByBlock
 62
     0
100
AcDbLine
 10
-108.9999999999999
 20
-15.49999999999982
 30
0.0
 11
-108.9999999999999
 21
-130.0584405018526
 31
0.0
  0
LINE
  5
92
330
90
100
AcDbEntity
  8
0
  6
ByBlock
 62
     0
100
AcDbLine
 10
-53.99999999999997
 20
-15.49999999999982
 30
0.0
 11
-53.99999999999997
 21
-130.0584405018526
 31
0.0
  0
LINE
  5
93
330
90
100
AcDbEntity
  8
0
  6
ByBlock
 62
     0
100
AcDbLine
 10
-106.9999999999999
 20
-128.5584405018526
 30
0.0
 11
-55.99999999999997
 21
-128.5584405018526
 31
0.0
  0
SOLID
  5
94
330
90
100
AcDbEntity
  8
0
  6
ByBlock
 62
     0
100
AcDbTrace
 10
-106.9999999999999
 20
-128.2251071685193
 30
0.0
 11
-106.9999999999999
 21
-128.8917738351859
 31
0.0
 12
-108.9999999999999
 22
-128.5584405018526
 32
0.0
 13
-108.9999999999999
 23
-128.5584405018526
 33
0.0
  0
SOLID
  5
95
330
90
100
AcDbEntity
  8
0
  6
ByBlock
 62
     0
100
AcDbTrace
 10
-55.99999999999997
 20
-128.2251071685193
 30
0.0
 11
-55.99999999999997
 21
-128.8917738351859
 31
0.0
 12
-53.99999999999997
 22
-128.5584405018526
 32
0.0
 13
-53.99999999999997
 23
-128.5584405018526
 33
0.0
  0
TEXT
  5
96
330
90
100
AcDbEntity
  8
0
  6
ByBlock
 62
     0
100
AcDbText
 10
-84.35714285714283
 20
-127.0584405018526
 30
0.0
 40
3.0
  1
55
  7
ROMANS
 72
     1
 11
-81.49999999999996
 21
-125.5584405018526
 31
0.0
100
AcDbText
 73
     2
  0
POINT
  5
97
330
90
100
AcDbEntity
  8
DEFPOINTS
  6
ByBlock
 62
     0
100
AcDbPoint
 10
-108.9999999999999
 20
-10.99999999999982
 30
0.0
  0
POINT
  5
98
330
90
100
AcDbEntity
  8
DEFPOINTS
  6
ByBlock
 62
     0
100
AcDbPoint
 10
-53.99999999999997
 20
-10.99999999999982
 30
0.0
  0
POINT
  5
99
330
90
100
AcDbEntity
  8
DEFPOINTS
  6
ByBlock
 62
     0
100
AcDbPoint
 10
-53.99999999999997
 20
-128.5584405018526
 30
0.0
  0
ENDBLK
  5
9B
330
90
100
AcDbEntity
  8
0
100
AcDbBlockEnd
  0
BLOCK
  5
D0
330
C6
100
AcDbEntity
  8
0
100
AcDbBlockBegin
  2
*D4
 70
     1
 10
0.0
 20
0.0
 30
0.0
  3
*D4
  1

  0
LINE
  5
C7
330
C6
100
AcDbEntity
  8
0
  6
ByBlock
 62
     0
100
AcDbLine
 10
-53.99999999999997
 20
-15.49999999999982
 30
0.0
 11
-53.99999999999997
 21
-130.0584405018526
 31
0.0
  0
LINE
  5
C8
330
C6
100
AcDbEntity
  8
0
  6
ByBlock
 62
     0
100
AcDbLine
 10
-27.99999999999997
 20
-84.49999999999983
 30
0.0
 11
-27.99999999999997
 21
-130.0584405018526
 31
0.0
  0
LINE
  5
C9
330
C6
100
AcDbEntity
  8
0
  6
ByBlock
 62
     0
100
AcDbLine
 10
-51.99999999999997
 20
-128.5584405018526
 30
0.0
 11
-29.99999999999997
 21
-128.5584405018526
 31
0.0
  0
SOLID
  5
CA
330
C6
100
AcDbEntity
  8
0
  6
ByBlock
 62
     0
100
AcDbTrace
 10
-51.99999999999997
 20
-128.2251071685193
 30
0.0
 11
-51.99999999999997
 21
-128.8917738351859
 31
0.0
 12
-53.99999999999997
 22
-128.5584405018526
 32
0.0
 13
-53.99999999999997
 23
-128.5584405018526
 33
0.0
  0
SOLID
  5
CB
330
C6
100
AcDbEntity
  8
0
  6
ByBlock
 62
     0
100
AcDbTrace
 10
-29.99999999999997
 20
-128.2251071685193
 30
0.0
 11
-29.99999999999997
 21
-128.8917738351859
 31
0.0
 12
-27.99999999999997
 22
-128.5584405018526
 32
0.0
 13
-27.99999999999997
 23
-128.5584405018526
 33
0.0
  0
TEXT
  5
CC
330
C6
100
AcDbEntity
  8
0
  6
ByBlock
 62
     0
100
AcDbText
 10
-43.85714285714282
 20
-127.0584405018526
 30
0.0
 40
3.0
  1
26
  7
ROMANS
 72
     1
 11
-40.99999999999996
 21
-125.5584405018526
 31
0.0
100
AcDbText
 73
     2
  0
POINT
  5
CD
330
C6
100
AcDbEntity
  8
DEFPOINTS
  6
ByBlock
 62
     0
100
AcDbPoint
 10
-53.99999999999997
 20
-10.99999999999982
 30
0.0
  0
POINT
  5
CE
330
C6
100
AcDbEntity
  8
DEFPOINTS
  6
ByBlock
 62
     0
100
AcDbPoint
 10
-27.99999999999997
 20
-79.99999999999983
 30
0.0
  0
POINT
  5
CF
330
C6
100
AcDbEntity
  8
DEFPOINTS
  6
ByBlock
 62
     0
100
AcDbPoint
 10
-27.99999999999997
 20
-128.5584405018526
 30
0.0
  0
ENDBLK
  5
D1
330
C6
100
AcDbEntity
  8
0
100
AcDbBlockEnd
  0
BLOCK
  5
DF
330
D3
100
AcDbEntity
  8
0
100
AcDbBlockBegin
  2
*D5
 70
     1
 10
0.0
 20
0.0
 30
0.0
  3
*D5
  1

  0
LINE
  5
D4
330
D3
100
AcDbEntity
  8
0
  6
ByBlock
 62
     0
100
AcDbLine
 10
-27.99999999999997
 20
-84.49999999999983
 30
0.0
 11
-27.99999999999997
 21
-130.0584405018526
 31
0.0
  0
LINE
  5
D5
330
D3
100
AcDbEntity
  8
0
  6
ByBlock
 62
     0
100
AcDbLine
 10
-19.99999999999997
 20
-84.49999999999983
 30
0.0
 11
-19.99999999999997
 21
-130.0584405018526
 31
0.0
  0
LINE
  5
D6
330
D3
100
AcDbEntity
  8
0
  6
ByBlock
 62
     0
100
AcDbLine
 10
-29.99999999999997
 20
-128.5584405018526
 30
0.0
 11
-31.99999999999997
 21
-128.5584405018526
 31
0.0
  0
LINE
  5
D7
330
D3
100
AcDbEntity
  8
0
  6
ByBlock
 62
     0
100
AcDbLine
 10
-17.99999999999997
 20
-128.5584405018526
 30
0.0
 11
-15.99999999999997
 21
-128.5584405018526
 31
0.0
  0
LINE
  5
D8
330
D3
100
AcDbEntity
  8
0
  6
ByBlock
 62
     0
100
AcDbLine
 10
-15.99999999999997
 20
-128.5584405018526
 30
0.0
 11
-12.49999999999997
 21
-128.5584405018526
 31
0.0
  0
SOLID
  5
D9
330
D3
100
AcDbEntity
  8
0
  6
ByBlock
 62
     0
100
AcDbTrace
 10
-29.99999999999997
 20
-128.2251071685193
 30
0.0
 11
-29.99999999999997
 21
-128.8917738351859
 31
0.0
 12
-27.99999999999997
 22
-128.5584405018526
 32
0.0
 13
-27.99999999999997
 23
-128.5584405018526
 33
0.0
  0
SOLID
  5
DA
330
D3
100
AcDbEntity
  8
0
  6
ByBlock
 62
     0
100
AcDbTrace
 10
-17.99999999999997
 20
-128.2251071685193
 30
0.0
 11
-17.99999999999997
 21
-128.8917738351859
 31
0.0
 12
-19.99999999999997
 22
-128.5584405018526
 32
0.0
 13
-19.99999999999997
 23
-128.5584405018526
 33
0.0
  0
TEXT
  5
DB
330
D3
100
AcDbEntity
  8
0
  6
ByBlock
 62
     0
100
AcDbText
 10
-14.9285714285714
 20
-127.0584405018526
 30
0.0
 40
3.0
  1
8
  7
ROMANS
 72
     1
 11
-13.49999999999997
 21
-125.5584405018526
 31
0.0
100
AcDbText
 73
     2
  0
POINT
  5
DC
330
D3
100
AcDbEntity
  8
DEFPOINTS
  6
ByBlock
 62
     0
100
AcDbPoint
 10
-27.99999999999997
 20
-79.99999999999983
 30
0.0
  0
POINT
  5
DD
330
D3
100
AcDbEntity
  8
DEFPOINTS
  6
ByBlock
 62
     0
100
AcDbPoint
 10
-19.99999999999997
 20
-79.99999999999983
 30
0.0
  0
POINT
  5
DE
330
D3
100
AcDbEntity
  8
DEFPOINTS
  6
ByBlock
 62
     0
100
AcDbPoint
 10
-19.99999999999997
 20
-128.5584405018526
 30
0.0
  0
ENDBLK
  5
E0
330
D3
100
AcDbEntity
  8
0
100
AcDbBlockEnd
  0
BLOCK
  5
11D
330
113
100
AcDbEntity
  8
0
100
AcDbBlockBegin
  2
*D6
 70
     1
 10
0.0
 20
0.0
 30
0.0
  3
*D6
  1

  0
LINE
  5
114
330
113
100
AcDbEntity
  8
0
  6
ByBlock
 62
     0
100
AcDbLine
 10
249.5
 20
-30.0
 30
0.0
 11
285.7565209474036
 21
-30.0
 31
0.0
  0
LINE
  5
115
330
113
100
AcDbEntity
  8
0
  6
ByBlock
 62
     0
100
AcDbLine
 10
249.5
 20
30.0
 30
0.0
 11
285.7565209474036
 21
30.0
 31
0.0
  0
LINE
  5
116
330
113
100
AcDbEntity
  8
0
  6
ByBlock
 62
     0
100
AcDbLine
 10
284.2565209474036
 20
-27.99999999999999
 30
0.0
 11
284.2565209474036
 21
27.99999999999999
 31
0.0
  0
SOLID
  5
117
330
113
100
AcDbEntity
  8
0
  6
ByBlock
 62
     0
100
AcDbTrace
 10
283.9231876140703
 20
-27.99999999999999
 30
0.0
 11
284.5898542807369
 21
-27.99999999999999
 31
0.0
 12
284.2565209474036
 22
-30.0
 32
0.0
 13
284.2565209474036
 23
-30.0
 33
0.0
  0
SOLID
  5
118
330
113
100
AcDbEntity
  8
0
  6
ByBlock
 62
     0
100
AcDbTrace
 10
283.9231876140703
 20
27.99999999999999
 30
0.0
 11
284.5898542807369
 21
27.99999999999999
 31
0.0
 12
284.2565209474036
 22
30.0
 32
0.0
 13
284.2565209474036
 23
30.0
 33
0.0
  0
TEXT
  5
119
330
113
100
AcDbEntity
  8
0
  6
ByBlock
 62
     0
100
AcDbText
 10
282.7565209474036
 20
-2.928571428571428
 30
0.0
 40
3.0
  1
60
 50
90.0
  7
ROMANS
 72
     1
 11
281.2565209474036
 21
0.0
 31
0.0
100
AcDbText
 73
     2
  0
POINT
  5
11A
330
113
100
AcDbEntity
  8
DEFPOINTS
  6
ByBlock
 62
     0
100
AcDbPoint
 10
245.0
 20
-30.0
 30
0.0
  0
POINT
  5
11B
330
113
100
AcDbEntity
  8
DEFPOINTS
  6
ByBlock
 62
     0
100
AcDbPoint
 10
245.0
 20
30.0
 30
0.0
  0
POINT
  5
11C
330
113
100
AcDbEntity
  8
DEFPOINTS
  6
ByBlock
 62
     0
100
AcDbPoint
 10
284.2565209474036
 20
30.0
 30
0.0
  0
ENDBLK
  5
11E
330
113
100
AcDbEntity
  8
0
100
AcDbBlockEnd
  0
BLOCK
  5
15C
330
152
100
AcDbEntity
  8
0
100
AcDbBlockBegin
  2
*D7
 70
     1
 10
0.0
 20
0.0
 30
0.0
  3
*D7
  1

  0
LINE
  5
153
330
152
100
AcDbEntity
  8
0
  6
ByBlock
 62
     0
100
AcDbLine
 10
249.5
 20
30.0
 30
0.0
 11
285.7565209474036
 21
30.0
 31
0.0
  0
LINE
  5
154
330
152
100
AcDbEntity
  8
0
  6
ByBlock
 62
     0
100
AcDbLine
 10
249.5
 20
50.0
 30
0.0
 11
285.7565209474036
 21
50.0
 31
0.0
  0
LINE
  5
155
330
152
100
AcDbEntity
  8
0
  6
ByBlock
 62
     0
100
AcDbLine
 10
284.2565209474036
 20
31.99999999999999
 30
0.0
 11
284.2565209474036
 21
48.0
 31
0.0
  0
SOLID
  5
156
330
152
100
AcDbEntity
  8
0
  6
ByBlock
 62
     0
100
AcDbTrace
 10
283.9231876140703
 20
31.99999999999999
 30
0.0
 11
284.5898542807369
 21
31.99999999999999
 31
0.0
 12
284.2565209474036
 22
30.0
 32
0.0
 13
284.2565209474036
 23
30.0
 33
0.0
  0
SOLID
  5
157
330
152
100
AcDbEntity
  8
0
  6
ByBlock
 62
     0
100
AcDbTrace
 10
283.9231876140703
 20
48.0
 30
0.0
 11
284.5898542807369
 21
48.0
 31
0.0
 12
284.2565209474036
 22
50.0
 32
0.0
 13
284.2565209474036
 23
50.0
 33
0.0
  0
TEXT
  5
158
330
152
100
AcDbEntity
  8
0
  6
ByBlock
 62
     0
100
AcDbText
 10
282.7565209474036
 20
37.14285714285714
 30
0.0
 40
3.0
  1
20
 50
90.0
  7
ROMANS
 72
     1
 11
281.2565209474036
 21
40.0
 31
0.0
100
AcDbText
 73
     2
  0
POINT
  5
159
330
152
100
AcDbEntity
  8
DEFPOINTS
  6
ByBlock
 62
     0
100
AcDbPoint
 10
245.0
 20
30.0
 30
0.0
  0
POINT
  5
15A
330
152
100
AcDbEntity
  8
DEFPOINTS
  6
ByBlock
 62
     0
100
AcDbPoint
 10
245.0
 20
50.0
 30
0.0
  0
POINT
  5
15B
330
152
100
AcDbEntity
  8
DEFPOINTS
  6
ByBlock
 62
     0
100
AcDbPoint
 10
284.2565209474036
 20
50.0
 30
0.0
  0
ENDBLK
  5
15D
330
152
100
AcDbEntity
  8
0
100
AcDbBlockEnd
  0
BLOCK
  5
13F
330
135
100
AcDbEntity
  8
0
100
AcDbBlockBegin
  2
*D8
 70
     1
 10
0.0
 20
0.0
 30
0.0
  3
*D8
  1

  0
LINE
  5
136
330
135
100
AcDbEntity
  8
0
  6
ByBlock
 62
     0
100
AcDbLine
 10
249.5
 20
-50.0
 30
0.0
 11
285.7565209474036
 21
-50.0
 31
0.0
  0
LINE
  5
137
330
135
100
AcDbEntity
  8
0
  6
ByBlock
 62
     0
100
AcDbLine
 10
249.5
 20
-30.0
 30
0.0
 11
285.7565209474036
 21
-30.0
 31
0.0
  0
LINE
  5
138
330
135
100
AcDbEntity
  8
0
  6
ByBlock
 62
     0
100
AcDbLine
 10
284.2565209474036
 20
-48.0
 30
0.0
 11
284.2565209474036
 21
-31.99999999999999
 31
0.0
  0
SOLID
  5
139
330
135
100
AcDbEntity
  8
0
  6
ByBlock
 62
     0
100
AcDbTrace
 10
283.9231876140703
 20
-48.0
 30
0.0
 11
284.5898542807369
 21
-48.0
 31
0.0
 12
284.2565209474036
 22
-50.0
 32
0.0
 13
284.2565209474036
 23
-50.0
 33
0.0
  0
SOLID
  5
13A
330
135
100
AcDbEntity
  8
0
  6
ByBlock
 62
     0
100
AcDbTrace
 10
283.9231876140703
 20
-31.99999999999999
 30
0.0
 11
284.5898542807369
 21
-31.99999999999999
 31
0.0
 12
284.2565209474036
 22
-30.0
 32
0.0
 13
284.2565209474036
 23
-30.0
 33
0.0
  0
TEXT
  5
13B
330
135
100
AcDbEntity
  8
0
  6
ByBlock
 62
     0
100
AcDbText
 10
282.7565209474036
 20
-42.85714285714285
 30
0.0
 40
3.0
  1
20
 50
90.0
  7
ROMANS
 72
     1
 11
281.2565209474036
 21
-40.0
 31
0.0
100
AcDbText
 73
     2
  0
POINT
  5
13C
330
135
100
AcDbEntity
  8
DEFPOINTS
  6
ByBlock
 62
     0
100
AcDbPoint
 10
245.0
 20
-50.0
 30
0.0
  0
POINT
  5
13D
330
135
100
AcDbEntity
  8
DEFPOINTS
  6
ByBlock
 62
     0
100
AcDbPoint
 10
245.0
 20
-30.0
 30
0.0
  0
POINT
  5
13E
330
135
100
AcDbEntity
  8
DEFPOINTS
  6
ByBlock
 62
     0
100
AcDbPoint
 10
284.2565209474036
 20
-30.0
 30
0.0
  0
ENDBLK
  5
140
330
135
100
AcDbEntity
  8
0
100
AcDbBlockEnd
  0
BLOCK
  5
F0
330
E6
100
AcDbEntity
  8
0
100
AcDbBlockBegin
  2
*D9
 70
     1
 10
0.0
 20
0.0
 30
0.0
  3
*D9
  1

  0
LINE
  5
E7
330
E6
100
AcDbEntity
  8
0
  6
ByBlock
 62
     0
100
AcDbLine
 10
4.0
 20
-104.4999999999999
 30
0.0
 11
4.0
 21
-130.1028171771099
 31
0.0
  0
LINE
  5
E8
330
E6
100
AcDbEntity
  8
0
  6
ByBlock
 62
     0
100
AcDbLine
 10
54.0
 20
-15.5
 30
0.0
 11
54.0
 21
-130.1028171771099
 31
0.0
  0
LINE
  5
E9
330
E6
100
AcDbEntity
  8
0
  6
ByBlock
 62
     0
100
AcDbLine
 10
6.0
 20
-128.6028171771099
 30
0.0
 11
52.0
 21
-128.6028171771099
 31
0.0
  0
SOLID
  5
EA
330
E6
100
AcDbEntity
  8
0
  6
ByBlock
 62
     0
100
AcDbTrace
 10
6.0
 20
-128.2694838437766
 30
0.0
 11
6.0
 21
-128.9361505104432
 31
0.0
 12
4.0
 22
-128.6028171771099
 32
0.0
 13
4.0
 23
-128.6028171771099
 33
0.0
  0
SOLID
  5
EB
330
E6
100
AcDbEntity
  8
0
  6
ByBlock
 62
     0
100
AcDbTrace
 10
52.0
 20
-128.2694838437766
 30
0.0
 11
52.0
 21
-128.9361505104432
 31
0.0
 12
54.0
 22
-128.6028171771099
 32
0.0
 13
54.0
 23
-128.6028171771099
 33
0.0
  0
TEXT
  5
EC
330
E6
100
AcDbEntity
  8
0
  6
ByBlock
 62
     0
100
AcDbText
 10
26.14285714285714
 20
-127.1028171771099
 30
0.0
 40
3.0
  1
50
  7
ROMANS
 72
     1
 11
29.0
 21
-125.6028171771099
 31
0.0
100
AcDbText
 73
     2
  0
POINT
  5
ED
330
E6
100
AcDbEntity
  8
DEFPOINTS
  6
ByBlock
 62
     0
100
AcDbPoint
 10
4.0
 20
-100.0
 30
0.0
  0
POINT
  5
EE
330
E6
100
AcDbEntity
  8
DEFPOINTS
  6
ByBlock
 62
     0
100
AcDbPoint
 10
54.0
 20
-11.0
 30
0.0
  0
POINT
  5
EF
330
E6
100
AcDbEntity
  8
DEFPOINTS
  6
ByBlock
 62
     0
100
AcDbPoint
 10
54.0
 20
-128.6028171771099
 30
0.0
  0
ENDBLK
  5
F1
330
E6
100
AcDbEntity
  8
0
100
AcDbBlockEnd
  0
BLOCK
  5
48
330
3E
100
AcDbEntity
  8
0
100
AcDbBlockBegin
  2
*D10
 70
     1
 10
0.0
 20
0.0
 30
0.0
  3
*D10
  1

  0
LINE
  5
3F
330
3E
100
AcDbEntity
  8
0
  6
ByBlock
 62
     0
100
AcDbLine
 10
0.0
 20
-104.4999999999999
 30
0.0
 11
0.0
 21
-142.1028171771099
 31
0.0
  0
LINE
  5
40
330
3E
100
AcDbEntity
  8
0
  6
ByBlock
 62
     0
100
AcDbLine
 10
210.0
 20
-72.0
 30
0.0
 11
210.0
 21
-142.1028171771099
 31
0.0
  0
LINE
  5
41
330
3E
100
AcDbEntity
  8
0
  6
ByBlock
 62
     0
100
AcDbLine
 10
2.0
 20
-140.6028171771099
 30
0.0
 11
208.0
 21
-140.6028171771099
 31
0.0
  0
SOLID
  5
42
330
3E
100
AcDbEntity
  8
0
  6
ByBlock
 62
     0
100
AcDbTrace
 10
2.0
 20
-140.2694838437766
 30
0.0
 11
2.0
 21
-140.9361505104433
 31
0.0
 12
0.0
 22
-140.6028171771099
 32
0.0
 13
0.0
 23
-140.6028171771099
 33
0.0
  0
SOLID
  5
43
330
3E
100
AcDbEntity
  8
0
  6
ByBlock
 62
     0
100
AcDbTrace
 10
208.0
 20
-140.2694838437766
 30
0.0
 11
208.0
 21
-140.9361505104433
 31
0.0
 12
210.0
 22
-140.6028171771099
 32
0.0
 13
210.0
 23
-140.6028171771099
 33
0.0
  0
TEXT
  5
44
330
3E
100
AcDbEntity
  8
0
  6
ByBlock
 62
     0
100
AcDbText
 10
100.7142857142857
 20
-139.1028171771099
 30
0.0
 40
3.0
  1
210
  7
ROMANS
 72
     1
 11
105.0
 21
-137.6028171771099
 31
0.0
100
AcDbText
 73
     2
  0
POINT
  5
45
330
3E
100
AcDbEntity
  8
DEFPOINTS
  6
ByBlock
 62
     0
100
AcDbPoint
 10
0.0
 20
-100.0
 30
0.0
  0
POINT
  5
46
330
3E
100
AcDbEntity
  8
DEFPOINTS
  6
ByBlock
 62
     0
100
AcDbPoint
 10
210.0
 20
-67.5
 30
0.0
  0
POINT
  5
47
330
3E
100
AcDbEntity
  8
DEFPOINTS
  6
ByBlock
 62
     0
100
AcDbPoint
 10
210.0
 20
-140.6028171771099
 30
0.0
  0
ENDBLK
  5
49
330
3E
100
AcDbEntity
  8
0
100
AcDbBlockEnd
  0
BLOCK
  5
3B
330
2E
100
AcDbEntity
  8
0
100
AcDbBlockBegin
  2
*D11
 70
     1
 10
0.0
 20
0.0
 30
0.0
  3
*D11
  1

  0
LINE
  5
2F
330
2E
100
AcDbEntity
  8
0
  6
ByBlock
 62
     0
100
AcDbLine
 10
0.0
 20
-104.4999999999999
 30
0.0
 11
0.0
 21
-154.1028171771099
 31
0.0
  0
LINE
  5
30
330
2E
100
AcDbEntity
  8
0
  6
ByBlock
 62
     0
100
AcDbLine
 10
240.0
 20
-74.50000000000001
 30
0.0
 11
240.0
 21
-154.1028171771099
 31
0.0
  0
LINE
  5
31
330
2E
100
AcDbEntity
  8
0
  6
ByBlock
 62
     0
100
AcDbLine
 10
2.0
 20
-152.6028171771099
 30
0.0
 11
238.0
 21
-152.6028171771099
 31
0.0
  0
SOLID
  5
32
330
2E
100
AcDbEntity
  8
0
  6
ByBlock
 62
     0
100
AcDbTrace
 10
2.0
 20
-152.2694838437766
 30
0.0
 11
2.0
 21
-152.9361505104432
 31
0.0
 12
0.0
 22
-152.6028171771099
 32
0.0
 13
0.0
 23
-152.6028171771099
 33
0.0
  0
SOLID
  5
33
330
2E
100
AcDbEntity
  8
0
  6
ByBlock
 62
     0
100
AcDbTrace
 10
238.0
 20
-152.2694838437766
 30
0.0
 11
238.0
 21
-152.9361505104432
 31
0.0
 12
240.0
 22
-152.6028171771099
 32
0.0
 13
240.0
 23
-152.6028171771099
 33
0.0
  0
TEXT
  5
34
330
2E
100
AcDbEntity
  8
0
  6
ByBlock
 62
     0
100
AcDbText
 10
115.7142857142857
 20
-151.1028171771099
 30
0.0
 40
3.0
  1
240
  7
ROMANS
 72
     1
 11
120.0
 21
-149.6028171771099
 31
0.0
100
AcDbText
 73
     2
  0
POINT
  5
35
330
2E
100
AcDbEntity
  8
DEFPOINTS
  6
ByBlock
 62
     0
100
AcDbPoint
 10
0.0
 20
-100.0
 30
0.0
  0
POINT
  5
39
330
2E
100
AcDbEntity
  8
DEFPOINTS
  6
ByBlock
 62
     0
100
AcDbPoint
 10
240.0
 20
-70.00000000000001
 30
0.0
  0
POINT
  5
3A
330
2E
100
AcDbEntity
  8
DEFPOINTS
  6
ByBlock
 62
     0
100
AcDbPoint
 10
240.0
 20
-152.6028171771099
 30
0.0
  0
ENDBLK
  5
3C
330
2E
100
AcDbEntity
  8
0
100
AcDbBlockEnd
  0
BLOCK
  5
8D
330
83
100
AcDbEntity
  8
0
100
AcDbBlockBegin
  2
*D12
 70
     1
 10
0.0
 20
0.0
 30
0.0
  3
*D12
  1

  0
LINE
  5
84
330
83
100
AcDbEntity
  8
0
  6
ByBlock
 62
     0
100
AcDbLine
 10
-210.0
 20
-67.49999999999983
 30
0.0
 11
-210.0
 21
-154.1028171771099
 31
0.0
  0
LINE
  5
85
330
83
100
AcDbEntity
  8
0
  6
ByBlock
 62
     0
100
AcDbLine
 10
-19.99999999999996
 20
-84.49999999999981
 30
0.0
 11
-19.99999999999996
 21
-154.1028171771099
 31
0.0
  0
LINE
  5
86
330
83
100
AcDbEntity
  8
0
  6
ByBlock
 62
     0
100
AcDbLine
 10
-208.0
 20
-152.6028171771099
 30
0.0
 11
-21.99999999999996
 21
-152.6028171771099
 31
0.0
  0
SOLID
  5
87
330
83
100
AcDbEntity
  8
0
  6
ByBlock
 62
     0
100
AcDbTrace
 10
-208.0
 20
-152.2694838437766
 30
0.0
 11
-208.0
 21
-152.9361505104432
 31
0.0
 12
-210.0
 22
-152.6028171771099
 32
0.0
 13
-210.0
 23
-152.6028171771099
 33
0.0
  0
SOLID
  5
88
330
83
100
AcDbEntity
  8
0
  6
ByBlock
 62
     0
100
AcDbTrace
 10
-21.99999999999996
 20
-152.2694838437766
 30
0.0
 11
-21.99999999999996
 21
-152.9361505104432
 31
0.0
 12
-19.99999999999996
 22
-152.6028171771099
 32
0.0
 13
-19.99999999999996
 23
-152.6028171771099
 33
0.0
  0
TEXT
  5
89
330
83
100
AcDbEntity
  8
0
  6
ByBlock
 62
     0
100
AcDbText
 10
-119.4999999999999
 20
-151.1028171771099
 30
0.0
 40
3.0
  1
190
  7
ROMANS
 72
     1
 11
-114.9999999999999
 21
-149.6028171771099
 31
0.0
100
AcDbText
 73
     2
  0
POINT
  5
8A
330
83
100
AcDbEntity
  8
DEFPOINTS
  6
ByBlock
 62
     0
100
AcDbPoint
 10
-210.0
 20
-62.99999999999982
 30
0.0
  0
POINT
  5
8B
330
83
100
AcDbEntity
  8
DEFPOINTS
  6
ByBlock
 62
     0
100
AcDbPoint
 10
-19.99999999999996
 20
-79.99999999999982
 30
0.0
  0
POINT
  5
8C
330
83
100
AcDbEntity
  8
DEFPOINTS
  6
ByBlock
 62
     0
100
AcDbPoint
 10
-19.99999999999996
 20
-152.6028171771099
 30
0.0
  0
ENDBLK
  5
8E
330
83
100
AcDbEntity
  8
0
100
AcDbBlockEnd
  0
BLOCK
  5
B2
330
A8
100
AcDbEntity
  8
0
100
AcDbBlockBegin
  2
*D13
 70
     1
 10
0.0
 20
0.0
 30
0.0
  3
*D13
  1

  0
LINE
  5
A9
330
A8
100
AcDbEntity
  8
0
  6
ByBlock
 62
     0
100
AcDbLine
 10
-19.99999999999996
 20
-84.49999999999981
 30
0.0
 11
-19.99999999999996
 21
-154.1028171771099
 31
0.0
  0
LINE
  5
AA
330
A8
100
AcDbEntity
  8
0
  6
ByBlock
 62
     0
100
AcDbLine
 10
0.0
 20
-104.4999999999999
 30
0.0
 11
0.0
 21
-154.1028171771099
 31
0.0
  0
LINE
  5
AB
330
A8
100
AcDbEntity
  8
0
  6
ByBlock
 62
     0
100
AcDbLine
 10
-17.99999999999996
 20
-152.6028171771099
 30
0.0
 11
-2.0
 21
-152.6028171771099
 31
0.0
  0
SOLID
  5
AC
330
A8
100
AcDbEntity
  8
0
  6
ByBlock
 62
     0
100
AcDbTrace
 10
-17.99999999999996
 20
-152.2694838437766
 30
0.0
 11
-17.99999999999996
 21
-152.9361505104432
 31
0.0
 12
-19.99999999999996
 22
-152.6028171771099
 32
0.0
 13
-19.99999999999996
 23
-152.6028171771099
 33
0.0
  0
SOLID
  5
AD
330
A8
100
AcDbEntity
  8
0
  6
ByBlock
 62
     0
100
AcDbTrace
 10
-2.0
 20
-152.2694838437766
 30
0.0
 11
-2.0
 21
-152.9361505104432
 31
0.0
 12
0.0
 22
-152.6028171771099
 32
0.0
 13
0.0
 23
-152.6028171771099
 33
0.0
  0
TEXT
  5
AE
330
A8
100
AcDbEntity
  8
0
  6
ByBlock
 62
     0
100
AcDbText
 10
-12.85714285714283
 20
-151.1028171771099
 30
0.0
 40
3.0
  1
20
  7
ROMANS
 72
     1
 11
-9.99999999999998
 21
-149.6028171771099
 31
0.0
100
AcDbText
 73
     2
  0
POINT
  5
AF
330
A8
100
AcDbEntity
  8
DEFPOINTS
  6
ByBlock
 62
     0
100
AcDbPoint
 10
-19.99999999999996
 20
-79.99999999999982
 30
0.0
  0
POINT
  5
B0
330
A8
100
AcDbEntity
  8
DEFPOINTS
  6
ByBlock
 62
     0
100
AcDbPoint
 10
0.0
 20
-100.0
 30
0.0
  0
POINT
  5
B1
330
A8
100
AcDbEntity
  8
DEFPOINTS
  6
ByBlock
 62
     0
100
AcDbPoint
 10
0.0
 20
-152.6028171771099
 30
0.0
  0
ENDBLK
  5
B3
330
A8
100
AcDbEntity
  8
0
100
AcDbBlockEnd
  0
BLOCK
  5
7F
330
76
100
AcDbEntity
  8
0
 62
     1
100
AcDbBlockBegin
  2
A$C6BE937E7
 70
     0
 10
0.0
 20
0.0
 30
0.0
  3
A$C6BE937E7
  1

  0
TEXT
  5
77
330
76
100
AcDbEntity
  8
SPECD
 62
     6
100
AcDbText
 10
4.668392196768905
 20
18.71588358345923
 30
0.0
 40
5.0
  1
AND 20mm-JOINT. AND UNFREEZE DESIRED NEW 
  7
ROMANS
 72
     4
 11
102.5255350539117
 21
21.21588358345923
 31
0.0
100
AcDbText
  0
LINE
  5
78
330
76
100
AcDbEntity
  8
SPECD
 62
     6
100
AcDbLine
 10
0.0000004097963711
 20
53.03369301694681
 30
0.0
 11
202.4869505164367
 21
53.03369301694681
 31
0.0
  0
LINE
  5
79
330
76
100
AcDbEntity
  8
SPECD
 62
     6
100
AcDbLine
 10
0.0000004097963711
 20
0.0000004313964723
 30
0.0
 11
202.4869505164367
 21
0.0000004313964723
 31
0.0
  0
TEXT
  5
7A
330
76
100
AcDbEntity
  8
SPECD
 62
     6
100
AcDbText
 10
4.207581425801549
 20
28.3361790613278
 30
0.0
 40
5.0
  1
FOR OTHER WIDTHS, FREEZE LAYERS 20mm-DIMS
  7
ROMANS
 72
     4
 11
101.3504385686587
 21
30.35998858513733
 31
0.0
100
AcDbText
  0
TEXT
  5
7B
330
76
100
AcDbEntity
  8
SPECD
 62
     6
100
AcDbText
 10
4.215424032625506
 20
43.79289347717675
 30
0.0
 40
5.0
  1
DRAWING SHOWS 20mm JOINT.
  7
ROMANS
 72
     4
 11
63.73923355643501
 21
46.29289347717675
 31
0.0
100
AcDbText
  0
TEXT
  5
7C
330
76
100
AcDbEntity
  8
SPECD
 62
     6
100
AcDbText
 10
4.481432930145061
 20
8.212600757984517
 30
0.0
 40
5.0
  1
JOINT AND DIMS LAYERS.
  7
ROMANS
 72
     4
 11
52.33857578728794
 21
10.71260075798451
 31
0.0
100
AcDbText
  0
LINE
  5
7D
330
76
100
AcDbEntity
  8
SPECD
 62
     6
100
AcDbLine
 10
0.0000004097963711
 20
53.03369301694681
 30
0.0
 11
0.0000004097963711
 21
0.0000004313964723
 31
0.0
  0
LINE
  5
7E
330
76
100
AcDbEntity
  8
SPECD
 62
     6
100
AcDbLine
 10
202.4869505164367
 20
53.03369301694681
 30
0.0
 11
202.4869505164367
 21
0.0000004313964723
 31
0.0
  0
ENDBLK
  5
80
330
76
100
AcDbEntity
  8
0
 62
     1
100
AcDbBlockEnd
  0
ENDSEC
  0
SECTION
  2
ENTITIES
  0
DIMENSION
  5
2D
330
2
100
AcDbEntity
  8
DIMS
100
AcDbDimension
  2
*D11
 10
240.0
 20
-152.6028171771099
 30
0.0
 11
120.0
 21
-149.6028171771099
 31
0.0
 71
     5
 42
-1.0
  3
1-1
100
AcDbAlignedDimension
 13
0.0
 23
-100.0
 33
0.0
 14
240.0
 24
-70.00000000000001
 34
0.0
100
AcDbRotatedDimension
  0
DIMENSION
  5
3D
330
2
100
AcDbEntity
  8
DIMS
100
AcDbDimension
  2
*D10
 10
210.0
 20
-140.6028171771099
 30
0.0
 11
105.0
 21
-137.6028171771099
 31
0.0
 71
     5
 42
-1.0
  3
1-1
100
AcDbAlignedDimension
 13
0.0
 23
-100.0
 33
0.0
 14
210.0
 24
-67.5
 34
0.0
100
AcDbRotatedDimension
  0
LINE
  5
4A
330
2
100
AcDbEntity
  8
ANCON-DSD
  6
Continuous
100
AcDbLine
 10
245.0
 20
30.0
 30
0.0
 11
3.999999999999999
 21
30.0
 31
0.0
  0
LINE
  5
4C
330
2
100
AcDbEntity
  8
ANCON-DSD
  6
Continuous
100
AcDbLine
 10
245.0
 20
70.0
 30
0.0
 11
3.999999999999999
 21
70.0
 31
0.0
  0
LINE
  5
4D
330
2
100
AcDbEntity
  8
ANCON-DSD
  6
Continuous
100
AcDbLine
 10
245.0000000000001
 20
-70.00000000000001
 30
0.0
 11
4.0
 21
-70.00000000000001
 31
0.0
  0
LINE
  5
4E
330
2
100
AcDbEntity
  8
ANCON-DSD
  6
Continuous
100
AcDbLine
 10
245.0
 20
-30.0
 30
0.0
 11
3.999999999999999
 21
-30.0
 31
0.0
  0
LINE
  5
4F
330
2
100
AcDbEntity
  8
20MM-JOINT
  6
HIDDEN
 62
     3
100
AcDbLine
 10
0.0000000000000324
 20
-34.99999999999983
 30
0.0
 11
188.0
 21
-34.99999999999983
 31
0.0
  0
LINE
  5
52
330
2
100
AcDbEntity
  8
20MM-JOINT
  6
HIDDEN
 62
     3
100
AcDbLine
 10
-0.0000000000000003
 20
-64.99999999999983
 30
0.0
 11
188.0
 21
-64.99999999999983
 31
0.0
  0
LINE
  5
53
330
2
100
AcDbEntity
  8
20MM-JOINT
  6
HIDDEN
 62
     3
100
AcDbLine
 10
0.0000000000000003
 20
65.00000000000006
 30
0.0
 11
187.9999999999999
 21
65.00000000000006
 31
0.0
  0
LINE
  5
54
330
2
100
AcDbEntity
  8
20MM-JOINT
  6
HIDDEN
 62
     3
100
AcDbLine
 10
0.0000000000000195
 20
35.00000000000005
 30
0.0
 11
187.9999999999999
 21
35.00000000000005
 31
0.0
  0
TEXT
  5
55
330
2
100
AcDbEntity
  8
SPECD
  6
Continuous
 62
     1
100
AcDbText
 10
4.926927814478219
 20
160.8385932182458
 30
0.0
 40
5.0
  1
SPECIFICATION BY DESCRIPTION
  7
ROMANS
 72
     4
 11
64.56978495733536
 21
163.3385932182458
 31
0.0
100
AcDbText
  0
TEXT
  5
57
330
2
100
AcDbEntity
  8
SPECP
  6
Continuous
 62
     1
100
AcDbText
 10
4.783291204851934
 20
190.7730476827419
 30
0.0
 40
5.0
  1
SPECIFICATION BY PRODUCT
  7
ROMANS
 72
     4
 11
58.23567215723286
 21
193.2730476827419
 31
0.0
100
AcDbText
  0
DIMENSION
  5
59
330
2
100
AcDbEntity
  8
DIMS
100
AcDbDimension
  2
*D2
 10
333.181868795887
 20
-100.0
 30
0.0
 11
330.181868795887
 21
0.0
 31
0.0
 71
     5
 42
-1.0
  3
1-1
100
AcDbAlignedDimension
 13
4.0
 23
100.0
 33
0.0
 14
4.0
 24
-100.0
 34
0.0
 50
90.0
100
AcDbRotatedDimension
  0
LINE
  5
66
330
2
100
AcDbEntity
  8
ANCON-DSD
  6
HIDDEN
100
AcDbLine
 10
210.0
 20
-67.5
 30
0.0
 11
4.0
 21
-67.5
 31
0.0
  0
LINE
  5
67
330
2
100
AcDbEntity
  8
DIMS
  6
CENTER2
100
AcDbLine
 10
254.2773979664514
 20
50.0
 30
0.0
 11
0.0
 21
50.0
 31
0.0
  0
LINE
  5
69
330
2
100
AcDbEntity
  8
ANCON-DSD
  6
HIDDEN
100
AcDbLine
 10
210.0
 20
-32.5
 30
0.0
 11
4.0
 21
-32.5
 31
0.0
  0
LINE
  5
6A
330
2
100
AcDbEntity
  8
DIMS
  6
CENTER2
100
AcDbLine
 10
254.2773979664514
 20
-50.0
 30
0.0
 11
0.0
 21
-50.0
 31
0.0
  0
LINE
  5
6B
330
2
100
AcDbEntity
  8
ANCON-DSD
  6
HIDDEN
100
AcDbLine
 10
210.0
 20
67.50000000000011
 30
0.0
 11
4.0
 21
67.50000000000011
 31
0.0
  0
LINE
  5
6C
330
2
100
AcDbEntity
  8
ANCON-DSD
  6
HIDDEN
100
AcDbLine
 10
210.0
 20
32.50000000000011
 30
0.0
 11
4.0
 21
32.50000000000011
 31
0.0
  0
LINE
  5
6D
330
2
100
AcDbEntity
  8
20MM-JOINT
 62
     3
100
AcDbLine
 10
-19.99999999999997
 20
80.00000000000005
 30
0.0
 11
-19.99999999999997
 21
-79.99999999999983
 31
0.0
  0
LINE
  5
6E
330
2
100
AcDbEntity
  8
20MM-JOINT
 62
     3
100
AcDbLine
 10
-27.99999999999997
 20
80.00000000000005
 30
0.0
 11
-27.99999999999997
 21
-79.99999999999983
 31
0.0
  0
LINE
  5
6F
330
2
100
AcDbEntity
  8
20MM-JOINT
 62
     3
100
AcDbLine
 10
-127.9999999999999
 20
35.00000000000005
 30
0.0
 11
-127.9999999999999
 21
-34.99999999999983
 31
0.0
  0
LINE
  5
70
330
2
100
AcDbEntity
  8
ANCON-DSD
100
AcDbLine
 10
4.0
 20
100.0
 30
0.0
 11
4.0
 21
-100.0
 31
0.0
  0
LINE
  5
71
330
2
100
AcDbEntity
  8
ANCON-DSD
100
AcDbLine
 10
0.0
 20
100.0
 30
0.0
 11
0.0
 21
-100.0
 31
0.0
  0
LINE
  5
72
330
2
100
AcDbEntity
  8
20MM-JOINT
 62
     2
100
AcDbLine
 10
-19.99999999999994
 20
-175.6031504942892
 30
0.0
 11
-20.0
 21
144.8689842418568
 31
0.0
  0
LINE
  5
73
330
2
100
AcDbEntity
  8
CONCRETE
100
AcDbLine
 10
0.0000000000000568
 20
-175.5940902136362
 30
0.0
 11
0.0
 21
144.8780445225097
 31
0.0
  0
DIMENSION
  5
81
330
2
100
AcDbEntity
  8
20MM-DIMS
100
AcDbDimension
  2
*D12
 10
-19.99999999999996
 20
-152.6028171771099
 30
0.0
 11
-114.9999999999999
 21
-149.6028171771099
 31
0.0
 71
     5
 42
-1.0
  3
1-1
100
AcDbAlignedDimension
 13
-210.0
 23
-62.99999999999982
 33
0.0
 14
-19.99999999999996
 24
-79.99999999999982
 34
0.0
100
AcDbRotatedDimension
  0
DIMENSION
  5
8F
330
2
100
AcDbEntity
  8
20MM-DIMS
100
AcDbDimension
  2
*D3
 10
-53.99999999999997
 20
-128.5584405018526
 30
0.0
 11
-81.49999999999996
 21
-125.5584405018526
 31
0.0
 71
     5
 42
-1.0
  3
1-1
100
AcDbAlignedDimension
 13
-108.9999999999999
 23
-10.99999999999982
 33
0.0
 14
-53.99999999999997
 24
-10.99999999999982
 34
0.0
100
AcDbRotatedDimension
  0
LINE
  5
9C
330
2
100
AcDbEntity
  8
20MM-JOINT
  6
Continuous
 62
     3
100
AcDbLine
 10
-208.0
 20
-34.99999999999983
 30
0.0
 11
-27.99999999999997
 21
-34.99999999999983
 31
0.0
  0
LINE
  5
9D
330
2
100
AcDbEntity
  8
20MM-JOINT
  6
Continuous
 62
     3
100
AcDbLine
 10
-208.0
 20
-64.99999999999983
 30
0.0
 11
-27.99999999999997
 21
-64.99999999999983
 31
0.0
  0
LINE
  5
9E
330
2
100
AcDbEntity
  8
20MM-JOINT
  6
CENTER2
 62
     1
100
AcDbLine
 10
0.0
 20
-49.99999999999966
 30
0.0
 11
-219.9999999999999
 21
-49.99999999999966
 31
0.0
  0
LINE
  5
9F
330
2
100
AcDbEntity
  8
20MM-JOINT
  6
CENTER
 62
     1
100
AcDbLine
 10
-119.9999999999999
 20
0.0000000000001705
 30
0.0
 11
-97.99999999999997
 21
0.0000000000001705
 31
0.0
  0
CIRCLE
  5
A1
330
2
100
AcDbEntity
  8
20MM-JOINT
 62
     3
100
AcDbCircle
 10
-108.9999999999999
 20
0.0000000000001705
 30
0.0
 40
8.0
  0
LINE
  5
A2
330
2
100
AcDbEntity
  8
20MM-JOINT
 62
     3
100
AcDbLine
 10
-208.0
 20
-34.99999999999983
 30
0.0
 11
-210.0
 21
-36.99999999999983
 31
0.0
  0
LINE
  5
A3
330
2
100
AcDbEntity
  8
20MM-JOINT
 62
     3
100
AcDbLine
 10
-208.0
 20
-64.99999999999983
 30
0.0
 11
-210.0
 21
-62.99999999999982
 31
0.0
  0
LINE
  5
A4
330
2
100
AcDbEntity
  8
20MM-JOINT
 62
     3
100
AcDbLine
 10
-210.0
 20
-36.99999999999983
 30
0.0
 11
-210.0
 21
-62.99999999999982
 31
0.0
  0
LINE
  5
A5
330
2
100
AcDbEntity
  8
20MM-JOINT
 62
     3
100
AcDbLine
 10
-208.0
 20
-34.99999999999983
 30
0.0
 11
-208.0
 21
-64.99999999999983
 31
0.0
  0
LINE
  5
A6
330
2
100
AcDbEntity
  8
20MM-JOINT
  6
CENTER
 62
     1
100
AcDbLine
 10
-108.9999999999999
 20
11.00000000000017
 30
0.0
 11
-108.9999999999999
 21
-10.99999999999982
 31
0.0
  0
DIMENSION
  5
A7
330
2
100
AcDbEntity
  8
20MM-DIMS
100
AcDbDimension
  2
*D13
 10
0.0
 20
-152.6028171771099
 30
0.0
 11
-9.99999999999998
 21
-149.6028171771099
 31
0.0
 71
     5
 42
-1.0
  3
1-1
100
AcDbAlignedDimension
 13
-19.99999999999996
 23
-79.99999999999982
 33
0.0
 14
0.0
 24
-100.0
 34
0.0
100
AcDbRotatedDimension
  0
LINE
  5
B4
330
2
100
AcDbEntity
  8
20MM-JOINT
  6
Continuous
 62
     3
100
AcDbLine
 10
-19.99999999999997
 20
-64.99999999999983
 30
0.0
 11
0.0
 21
-64.99999999999983
 31
0.0
  0
LINE
  5
B5
330
2
100
AcDbEntity
  8
20MM-JOINT
  6
Continuous
 62
     3
100
AcDbLine
 10
-19.99999999999997
 20
-34.99999999999983
 30
0.0
 11
0.0
 21
-34.99999999999983
 31
0.0
  0
DIMENSION
  5
B6
330
2
100
AcDbEntity
  8
DIMS
100
AcDbDimension
  2
*D0
 10
0.0
 20
-128.5584405018526
 30
0.0
 11
-6.571428571428571
 21
-125.5584405018526
 31
0.0
 71
     5
 42
-1.0
  3
1-1
100
AcDbAlignedDimension
 13
4.0
 23
-100.0
 33
0.0
 14
0.0
 24
-100.0
 34
0.0
100
AcDbRotatedDimension
  0
DIMENSION
  5
C5
330
2
100
AcDbEntity
  8
20MM-DIMS
100
AcDbDimension
  2
*D4
 10
-27.99999999999997
 20
-128.5584405018526
 30
0.0
 11
-40.99999999999996
 21
-125.5584405018526
 31
0.0
 71
     5
 42
-1.0
  3
1-1
100
AcDbAlignedDimension
 13
-53.99999999999997
 23
-10.99999999999982
 33
0.0
 14
-27.99999999999997
 24
-79.99999999999983
 34
0.0
100
AcDbRotatedDimension
  0
DIMENSION
  5
D2
330
2
100
AcDbEntity
  8
20MM-DIMS
100
AcDbDimension
  2
*D5
 10
-19.99999999999997
 20
-128.5584405018526
 30
0.0
 11
-13.49999999999997
 21
-125.5584405018526
 31
0.0
 71
     5
 42
-1.0
  3
1-1
100
AcDbAlignedDimension
 13
-27.99999999999997
 23
-79.99999999999983
 33
0.0
 14
-19.99999999999997
 24
-79.99999999999983
 34
0.0
100
AcDbRotatedDimension
  0
LINE
  5
E1
330
2
100
AcDbEntity
  8
20MM-JOINT
 62
     3
100
AcDbLine
 10
-27.99999999999997
 20
-79.99999999999983
 30
0.0
 11
-19.99999999999997
 21
-79.99999999999983
 31
0.0
  0
CIRCLE
  5
E2
330
2
100
AcDbEntity
  8
20MM-JOINT
 62
     3
100
AcDbCircle
 10
-53.99999999999997
 20
0.0000000000001705
 30
0.0
 40
8.0
  0
LINE
  5
E3
330
2
100
AcDbEntity
  8
20MM-JOINT
  6
CENTER
 62
     1
100
AcDbLine
 10
-64.99999999999997
 20
0.0000000000001705
 30
0.0
 11
-42.99999999999997
 21
0.0000000000001705
 31
0.0
  0
LINE
  5
E4
330
2
100
AcDbEntity
  8
20MM-JOINT
  6
CENTER
 62
     1
100
AcDbLine
 10
-53.99999999999997
 20
11.00000000000017
 30
0.0
 11
-53.99999999999997
 21
-10.99999999999982
 31
0.0
  0
DIMENSION
  5
E5
330
2
100
AcDbEntity
  8
DIMS
100
AcDbDimension
  2
*D9
 10
54.0
 20
-128.6028171771099
 30
0.0
 11
29.0
 21
-125.6028171771099
 31
0.0
 71
     5
 42
-1.0
  3
1-1
100
AcDbAlignedDimension
 13
4.0
 23
-100.0
 33
0.0
 14
54.0
 24
-11.0
 34
0.0
100
AcDbRotatedDimension
  0
LINE
  5
F2
330
2
100
AcDbEntity
  8
ANCON-DSD
100
AcDbLine
 10
4.0
 20
-100.0
 30
0.0
 11
0.0
 21
-100.0
 31
0.0
  0
LINE
  5
F3
330
2
100
AcDbEntity
  8
ANCON-DSD
  6
CENTER2
 62
     1
100
AcDbLine
 10
65.0
 20
0.0
 30
0.0
 11
43.0
 21
0.0
 31
0.0
  0
CIRCLE
  5
F6
330
2
100
AcDbEntity
  8
ANCON-DSD
100
AcDbCircle
 10
54.0
 20
0.0
 30
0.0
 40
8.0
  0
LINE
  5
F7
330
2
100
AcDbEntity
  8
ANCON-DSD
  6
CENTER2
 62
     1
100
AcDbLine
 10
54.0
 20
11.0
 30
0.0
 11
54.0
 21
-11.0
 31
0.0
  0
LINE
  5
F8
330
2
100
AcDbEntity
  8
20MM-JOINT
  6
Continuous
 62
     3
100
AcDbLine
 10
-208.0
 20
65.00000000000006
 30
0.0
 11
-27.99999999999997
 21
65.00000000000006
 31
0.0
  0
LINE
  5
F9
330
2
100
AcDbEntity
  8
20MM-JOINT
  6
Continuous
 62
     3
100
AcDbLine
 10
-208.0
 20
35.00000000000005
 30
0.0
 11
-27.99999999999997
 21
35.00000000000005
 31
0.0
  0
LINE
  5
FA
330
2
100
AcDbEntity
  8
20MM-JOINT
  6
CENTER2
 62
     1
100
AcDbLine
 10
0.0
 20
50.00000000000035
 30
0.0
 11
-219.9999999999999
 21
50.00000000000034
 31
0.0
  0
LINE
  5
FB
330
2
100
AcDbEntity
  8
20MM-JOINT
  6
Continuous
 62
     6
100
AcDbLine
 10
-229.3924702501002
 20
146.4335936512211
 30
0.0
 11
-54.01379255823778
 21
146.433593651221
 31
0.0
  0
LINE
  5
FC
330
2
100
AcDbEntity
  8
20MM-JOINT
  6
Continuous
 62
     6
100
AcDbLine
 10
-229.3924702501002
 20
173.4610787262681
 30
0.0
 11
-54.01379255823775
 21
173.4610787262681
 31
0.0
  0
LINE
  5
FD
330
2
100
AcDbEntity
  8
20MM-JOINT
  6
Continuous
 62
     6
100
AcDbLine
 10
-229.3924702501002
 20
199.5318397853139
 30
0.0
 11
-54.01379255823778
 21
199.5318397853139
 31
0.0
  0
TEXT
  5
FE
330
2
100
AcDbEntity
  8
20MM-JOINT
  6
Continuous
 62
     6
100
AcDbText
 10
-113.3641489952144
 20
189.2709541229038
 30
0.0
 40
5.0
  1
SERVICEABILITY
  7
ROMANS
 72
     4
 11
-85.50700613807157
 21
191.7709541229038
 31
0.0
100
AcDbText
  0
TEXT
  5
FF
330
2
100
AcDbEntity
  8
20MM-JOINT
  6
Continuous
 62
     6
100
AcDbText
 10
-110.2689108999763
 20
178.3276751843254
 30
0.0
 40
5.0
  1
LOAD ( kN )
  7
ROMANS
 72
     4
 11
-85.50700613807157
 21
180.4705323271826
 31
0.0
100
AcDbText
  0
LINE
  5
100
330
2
100
AcDbEntity
  8
20MM-JOINT
  6
Continuous
 62
     6
100
AcDbLine
 10
-118.8843766930374
 20
199.5318397853139
 30
0.0
 11
-118.8843766930374
 21
146.433593651221
 31
0.0
  0
LINE
  5
101
330
2
100
AcDbEntity
  8
20MM-JOINT
  6
Continuous
 62
     6
100
AcDbLine
 10
-179.3924702501002
 20
199.5318397853139
 30
0.0
 11
-179.3924702501002
 21
146.433593651221
 31
0.0
  0
LINE
  5
102
330
2
100
AcDbEntity
  8
20MM-JOINT
  6
Continuous
 62
     6
100
AcDbLine
 10
-229.3924702501002
 20
199.5318397853139
 30
0.0
 11
-229.3924702501002
 21
146.433593651221
 31
0.0
  0
LINE
  5
103
330
2
100
AcDbEntity
  8
20MM-JOINT
 62
     3
100
AcDbLine
 10
-210.0
 20
63.00000000000006
 30
0.0
 11
-208.0
 21
65.00000000000006
 31
0.0
  0
LINE
  5
104
330
2
100
AcDbEntity
  8
20MM-JOINT
 62
     3
100
AcDbLine
 10
-208.0
 20
35.00000000000005
 30
0.0
 11
-210.0
 21
37.00000000000005
 31
0.0
  0
TEXT
  5
105
330
2
100
AcDbEntity
  8
20MM-JOINT
  6
Continuous
 62
     6
100
AcDbText
 10
-222.7689108999763
 20
157.4872459824149
 30
0.0
 40
5.0
  1
DSDQ100
  7
ROMANS
 72
     4
 11
-205.5070061380715
 21
159.7491507443196
 31
0.0
100
AcDbText
  0
TEXT
  5
106
330
2
100
AcDbEntity
  8
20MM-JOINT
  6
Continuous
 62
     6
100
AcDbText
 10
-222.2000861010288
 20
189.2661236257722
 30
0.0
 40
5.0
  1
DSD REF:
  7
ROMANS
 72
     4
 11
-204.2238956248384
 21
191.7661236257722
 31
0.0
100
AcDbText
  0
LINE
  5
107
330
2
100
AcDbEntity
  8
20MM-JOINT
 62
     3
100
AcDbLine
 10
-210.0
 20
63.00000000000006
 30
0.0
 11
-210.0
 21
37.00000000000005
 31
0.0
  0
LINE
  5
108
330
2
100
AcDbEntity
  8
20MM-JOINT
 62
     3
100
AcDbLine
 10
-208.0
 20
65.00000000000006
 30
0.0
 11
-208.0
 21
35.00000000000005
 31
0.0
  0
TEXT
  5
109
330
2
100
AcDbEntity
  8
20MM-JOINT
  6
Continuous
 62
     6
100
AcDbText
 10
-174.2888018852113
 20
189.2661236257722
 30
0.0
 40
5.0
  1
DESIGN JOINT
  7
ROMANS
 72
     4
 11
-148.2173733137827
 21
191.7661236257722
 31
0.0
100
AcDbText
  0
TEXT
  5
10A
330
2
100
AcDbEntity
  8
20MM-JOINT
  6
Continuous
 62
     6
100
AcDbText
 10
-158.3641489952144
 20
157.2491507443196
 30
0.0
 40
5.0
  1
20 MM
  7
ROMANS
 72
     4
 11
-145.5070061380715
 21
159.7491507443196
 31
0.0
100
AcDbText
  0
TEXT
  5
10B
330
2
100
AcDbEntity
  8
20MM-JOINT
  6
Continuous
 62
     6
100
AcDbText
 10
-158.8126114090208
 20
178.3685002381533
 30
0.0
 40
5.0
  1
WIDTH
  7
ROMANS
 72
     4
 11
-148.2173733137827
 21
180.8685002381533
 31
0.0
100
AcDbText
  0
LINE
  5
10C
330
2
100
AcDbEntity
  8
20MM-JOINT
  6
Continuous
 62
     6
100
AcDbLine
 10
-54.01379255823778
 20
199.5318397853139
 30
0.0
 11
-54.01379255823778
 21
146.433593651221
 31
0.0
  0
LINE
  5
10D
330
2
100
AcDbEntity
  8
20MM-JOINT
  6
Continuous
 62
     3
100
AcDbLine
 10
-19.99999999999997
 20
35.00000000000005
 30
0.0
 11
0.0
 21
35.00000000000005
 31
0.0
  0
LINE
  5
10E
330
2
100
AcDbEntity
  8
20MM-JOINT
  6
Continuous
 62
     3
100
AcDbLine
 10
-19.99999999999997
 20
65.00000000000006
 30
0.0
 11
0.0
 21
65.00000000000006
 31
0.0
  0
LINE
  5
10F
330
2
100
AcDbEntity
  8
20MM-JOINT
 62
     3
100
AcDbLine
 10
-19.99999999999997
 20
80.00000000000005
 30
0.0
 11
-27.99999999999997
 21
80.00000000000005
 31
0.0
  0
TEXT
  5
110
330
2
100
AcDbEntity
  8
20MM-JOINT
  6
Continuous
 62
     6
100
AcDbText
 10
-96.57843470950014
 20
157.2491507443196
 30
0.0
 40
5.0
  1
115.5
  7
ROMANS
 72
     4
 11
-85.50700613807157
 21
159.7491507443196
 31
0.0
100
AcDbText
  0
LINE
  5
111
330
2
100
AcDbEntity
  8
ANCON-DSD
100
AcDbLine
 10
4.0
 20
100.0
 30
0.0
 11
0.0
 21
100.0
 31
0.0
  0
DIMENSION
  5
112
330
2
100
AcDbEntity
  8
DIMS
100
AcDbDimension
  2
*D6
 10
284.2565209474036
 20
30.0
 30
0.0
 11
281.2565209474036
 21
0.0
 31
0.0
 71
     5
 42
-1.0
  3
1-1
100
AcDbAlignedDimension
 13
245.0
 23
-30.0
 33
0.0
 14
245.0
 24
30.0
 34
0.0
 50
90.0
100
AcDbRotatedDimension
  0
LINE
  5
11F
330
2
100
AcDbEntity
  8
ANCON-DSD
100
AcDbLine
 10
104.0
 20
30.0
 30
0.0
 11
104.0
 21
-30.0
 31
0.0
  0
DIMENSION
  5
120
330
2
100
AcDbEntity
  8
DIMS
100
AcDbDimension
  2
*D1
 10
304.5207567129534
 20
-50.0
 30
0.0
 11
301.5207567129534
 21
0.0
 31
0.0
 71
     5
 42
-1.0
  3
1-1
100
AcDbAlignedDimension
 13
241.5
 23
50.0
 33
0.0
 14
241.4999999999998
 24
-50.0
 34
0.0
 50
90.0
100
AcDbRotatedDimension
  0
LINE
  5
12D
330
2
100
AcDbEntity
  8
20MM-JOINT
  6
HIDDEN
 62
     3
100
AcDbLine
 10
190.0
 20
-36.99999999999971
 30
0.0
 11
190.0
 21
-63.00000000000006
 31
0.0
  0
LINE
  5
12E
330
2
100
AcDbEntity
  8
20MM-JOINT
  6
HIDDEN
 62
     3
100
AcDbLine
 10
188.0
 20
-34.99999999999983
 30
0.0
 11
188.0
 21
-64.99999999999983
 31
0.0
  0
LINE
  5
12F
330
2
100
AcDbEntity
  8
20MM-JOINT
  6
HIDDEN
 62
     3
100
AcDbLine
 10
188.0
 20
-64.99999999999983
 30
0.0
 11
190.0
 21
-63.00000000000006
 31
0.0
  0
LINE
  5
130
330
2
100
AcDbEntity
  8
20MM-JOINT
  6
HIDDEN
 62
     3
100
AcDbLine
 10
188.0
 20
-34.99999999999983
 30
0.0
 11
190.0
 21
-36.99999999999983
 31
0.0
  0
LINE
  5
131
330
2
100
AcDbEntity
  8
ANCON-DSD
  6
Continuous
100
AcDbLine
 10
245.0
 20
-70.00000000000001
 30
0.0
 11
245.0
 21
-30.0
 31
0.0
  0
LINE
  5
132
330
2
100
AcDbEntity
  8
ANCON-DSD
  6
Continuous
100
AcDbLine
 10
240.0
 20
-70.00000000000001
 30
0.0
 11
240.0
 21
-30.0
 31
0.0
  0
LINE
  5
133
330
2
100
AcDbEntity
  8
ANCON-DSD
  6
HIDDEN
100
AcDbLine
 10
210.0
 20
-32.50000000000007
 30
0.0
 11
210.0
 21
-67.50000000000007
 31
0.0
  0
DIMENSION
  5
134
330
2
100
AcDbEntity
  8
DIMS
100
AcDbDimension
  2
*D8
 10
284.2565209474036
 20
-30.0
 30
0.0
 11
281.2565209474036
 21
-40.0
 31
0.0
 71
     5
 42
-1.0
  3
1-1
100
AcDbAlignedDimension
 13
245.0
 23
-50.0
 33
0.0
 14
245.0
 24
-30.0
 34
0.0
 50
90.0
100
AcDbRotatedDimension
  0
TEXT
  5
141
330
2
100
AcDbEntity
  8
SPECD
  6
Continuous
 62
     6
100
AcDbText
 10
136.6473967006043
 20
160.8028445917216
 30
0.0
 40
5.0
  1
TWO PART STAINLESS STEEL SHEAR CONNECTOR
  7
ROMANS
 72
     4
 11
229.2664443196521
 21
163.3028445917215
 31
0.0
100
AcDbText
  0
TEXT
  5
142
330
2
100
AcDbEntity
  8
SPECD
  6
Continuous
 62
     6
100
AcDbText
 10
135.9262122945485
 20
150.698132265931
 30
0.0
 40
5.0
  1
COMPRISING SLEEVE AND DOWEL COMPONENT
  7
ROMANS
 72
     4
 11
223.9024027707391
 21
153.198132265931
 31
0.0
100
AcDbText
  0
TEXT
  5
143
330
2
100
AcDbEntity
  8
SPECD
  6
Continuous
 62
     6
100
AcDbText
 10
136.4393442245563
 20
130.7479271423321
 30
0.0
 40
5.0
  1
AND CAPABLE OF TRANSFERRING A SERVICEABILITY
  7
ROMANS
 72
     4
 11
233.8202966055086
 21
133.2479271423321
 31
0.0
100
AcDbText
  0
LINE
  5
144
330
2
100
AcDbEntity
  8
SPECD
  6
Continuous
 62
     6
100
AcDbLine
 10
132.3556634957647
 20
117.0099515459412
 30
0.0
 11
334.8426136024051
 21
117.0099515459412
 31
0.0
  0
LINE
  5
145
330
2
100
AcDbEntity
  8
SPECD
  6
Continuous
 62
     6
100
AcDbLine
 10
132.3556634957647
 20
170.0436441314916
 30
0.0
 11
334.8426136024051
 21
170.0436441314916
 31
0.0
  0
TEXT
  5
146
330
2
100
AcDbEntity
  8
SPECD
  6
Continuous
 62
     6
100
AcDbText
 10
135.9849090546061
 20
140.7969845562612
 30
0.0
 40
5.0
  1
SUITABLE FOR A DESIGN JOINT WIDTH OF ?? MM
  7
ROMANS
 72
     4
 11
230.8658614355586
 21
143.2969845562612
 31
0.0
100
AcDbText
  0
LINE
  5
147
330
2
100
AcDbEntity
  8
SPECP
  6
Continuous
 62
     6
100
AcDbLine
 10
199.9455144185267
 20
199.4101577985854
 30
0.0
 11
199.9455144185267
 21
187.4921825065841
 31
0.0
  0
LINE
  5
148
330
2
100
AcDbEntity
  8
SPECP
  6
Continuous
 62
     6
100
AcDbLine
 10
132.3556634957647
 20
199.4101577985854
 30
0.0
 11
132.3556634957647
 21
187.4921825065841
 31
0.0
  0
TEXT
  5
149
330
2
100
AcDbEntity
  8
SPECD
  6
Continuous
 62
     6
100
AcDbText
 10
137.6251249808994
 20
120.7130019773698
 30
0.0
 40
5.0
  1
LOAD OF ??? kN
  7
ROMANS
 72
     4
 11
170.244172599947
 21
123.2130019773698
 31
0.0
100
AcDbText
  0
LINE
  5
14A
330
2
100
AcDbEntity
  8
SPECP
  6
Continuous
 62
     6
100
AcDbLine
 10
132.3556634957647
 20
187.4921825065841
 30
0.0
 11
199.9455144185267
 21
187.4921825065842
 31
0.0
  0
LINE
  5
14B
330
2
100
AcDbEntity
  8
20MM-JOINT
  6
HIDDEN
 62
     3
100
AcDbLine
 10
188.0
 20
64.99999999999994
 30
0.0
 11
188.0
 21
35.00000000000005
 31
0.0
  0
LINE
  5
14C
330
2
100
AcDbEntity
  8
20MM-JOINT
  6
HIDDEN
 62
     3
100
AcDbLine
 10
190.0
 20
63.00000000000006
 30
0.0
 11
190.0
 21
37.00000000000005
 31
0.0
  0
LINE
  5
14D
330
2
100
AcDbEntity
  8
20MM-JOINT
  6
HIDDEN
 62
     3
100
AcDbLine
 10
188.0
 20
35.00000000000005
 30
0.0
 11
190.0
 21
37.00000000000005
 31
0.0
  0
LINE
  5
14E
330
2
100
AcDbEntity
  8
20MM-JOINT
  6
HIDDEN
 62
     3
100
AcDbLine
 10
188.0
 20
65.00000000000006
 30
0.0
 11
190.0
 21
63.00000000000006
 31
0.0
  0
TEXT
  5
14F
330
2
100
AcDbEntity
  8
SPECP
  6
Continuous
 62
     6
100
AcDbText
 10
136.8497731691568
 20
190.7730476827419
 30
0.0
 40
5.0
  1
STAIFIX DSD ??
  7
ROMANS
 72
     4
 11
166.3735826929663
 21
193.2730476827419
 31
0.0
100
AcDbText
  0
LINE
  5
150
330
2
100
AcDbEntity
  8
SPECD
  6
Continuous
 62
     6
100
AcDbLine
 10
132.3556634957647
 20
170.0436441314916
 30
0.0
 11
132.3556634957647
 21
117.0099515459412
 31
0.0
  0
DIMENSION
  5
151
330
2
100
AcDbEntity
  8
DIMS
100
AcDbDimension
  2
*D7
 10
284.2565209474036
 20
50.0
 30
0.0
 11
281.2565209474036
 21
40.0
 31
0.0
 71
     5
 42
-1.0
  3
1-1
100
AcDbAlignedDimension
 13
245.0
 23
30.0
 33
0.0
 14
245.0
 24
50.0
 34
0.0
 50
90.0
100
AcDbRotatedDimension
  0
LINE
  5
15E
330
2
100
AcDbEntity
  8
ANCON-DSD
  6
HIDDEN
100
AcDbLine
 10
210.0
 20
32.50000000000011
 30
0.0
 11
210.0
 21
67.50000000000011
 31
0.0
  0
LINE
  5
15F
330
2
100
AcDbEntity
  8
ANCON-DSD
  6
Continuous
100
AcDbLine
 10
245.0
 20
30.0
 30
0.0
 11
245.0
 21
70.0
 31
0.0
  0
LINE
  5
160
330
2
100
AcDbEntity
  8
ANCON-DSD
  6
Continuous
100
AcDbLine
 10
240.0
 20
30.0
 30
0.0
 11
240.0
 21
70.0
 31
0.0
  0
LINE
  5
161
330
2
100
AcDbEntity
  8
SPECP
  6
Continuous
 62
     6
100
AcDbLine
 10
132.3556634957647
 20
199.4101577985854
 30
0.0
 11
199.9455144185267
 21
199.4101577985854
 31
0.0
  0
LINE
  5
162
330
2
100
AcDbEntity
  8
SPECD
  6
Continuous
 62
     6
100
AcDbLine
 10
334.8426136024051
 20
170.0436441314916
 30
0.0
 11
334.8426136024051
 21
117.0099515459412
 31
0.0
  0
ENDSEC
  0
SECTION
  2
OBJECTS
  0
DICTIONARY
  5
26
330
0
100
AcDbDictionary
281
     1
  3
ACAD_GROUP
350
22
  3
ACAD_LAYOUT
350
166
  3
ACAD_MLINESTYLE
350
23
  3
ACAD_PLOTSETTINGS
350
167
  3
ACAD_PLOTSTYLENAME
350
164
  0
DICTIONARY
  5
3
330
2
100
AcDbDictionary
280
     1
281
     1
  3
ACAD_LAYOUTSELFREF
360
197
  0
DICTIONARY
  5
B
330
A
100
AcDbDictionary
280
     1
281
     1
  3
ACAD_LAYOUTSELFREF
360
198
  0
DICTIONARY
  5
22
102
{ACAD_REACTORS
330
26
102
}
330
26
100
AcDbDictionary
281
     1
  0
DICTIONARY
  5
166
102
{ACAD_REACTORS
330
26
102
}
330
26
100
AcDbDictionary
281
     1
  3
Layout1
350
169
  3
Model
350
168
  0
DICTIONARY
  5
23
102
{ACAD_REACTORS
330
26
102
}
330
26
100
AcDbDictionary
281
     1
  3
Standard
350
29
  0
DICTIONARY
  5
167
102
{ACAD_REACTORS
330
26
102
}
330
26
100
AcDbDictionary
281
     1
  0
ACDBDICTIONARYWDFLT
  5
164
102
{ACAD_REACTORS
330
26
102
}
330
26
100
AcDbDictionary
281
     1
  3
Normal
350
165
100
AcDbDictionaryWithDefault
340
165
  0
XRECORD
  5
197
102
{ACAD_REACTORS
330
3
102
}
330
3
100
AcDbXrecord
280
     1
340
2
  0
XRECORD
  5
198
102
{ACAD_REACTORS
330
B
102
}
330
B
100
AcDbXrecord
280
     1
340
A
  0
LAYOUT
  5
169
102
{ACAD_REACTORS
330
166
102
}
330
166
100
AcDbPlotSettings
  1

  2
None
  4

  6

 40
0.0
 41
0.0
 42
0.0
 43
0.0
 44
0.0
 45
0.0
 46
0.0
 47
0.0
 48
0.0
 49
0.0
140
0.0
141
0.0
142
1.0
143
1.0
 70
   688
 72
     0
 73
     0
 74
     5
  7
Std pen settings.ctb
 75
    16
147
1.0
148
0.0
149
0.0
100
AcDbLayout
  1
Layout1
 70
     1
 71
     1
 10
-0.1979161059762549
 20
-0.1979166691697489
 11
16.34375024029589
 21
11.49541603298637
 12
0.0
 22
0.0
 32
0.0
 14
1.614583349603368
 24
1.129749872553066
 34
0.0
 15
14.5312501464303
 25
10.1677488529776
 35
0.0
146
0.0
 13
0.0
 23
0.0
 33
0.0
 16
1.0
 26
0.0
 36
0.0
 17
0.0
 27
1.0
 37
0.0
 76
     0
330
A
  0
LAYOUT
  5
168
102
{ACAD_REACTORS
330
166
102
}
330
166
100
AcDbPlotSettings
  1

  2
None
  4

  6

 40
0.0
 41
0.0
 42
0.0
 43
0.0
 44
0.0
 45
0.0
 46
0.0
 47
0.0
 48
0.0
 49
0.0
140
0.0
141
0.0
142
1.0
143
1.0
 70
  1712
 72
     0
 73
     0
 74
     0
  7
Std pen settings.ctb
 75
     0
147
1.0
148
0.0
149
0.0
100
AcDbLayout
  1
Model
 70
     1
 71
     0
 10
0.0
 20
0.0
 11
12.0
 21
9.0
 12
0.0
 22
0.0
 32
0.0
 14
0.0
 24
0.0
 34
0.0
 15
0.0
 25
0.0
 35
0.0
146
0.0
 13
0.0
 23
0.0
 33
0.0
 16
1.0
 26
0.0
 36
0.0
 17
0.0
 27
1.0
 37
0.0
 76
     0
330
2
  0
MLINESTYLE
  5
29
102
{ACAD_REACTORS
330
23
102
}
330
23
100
AcDbMlineStyle
  2
STANDARD
 70
     0
  3

 62
   256
 51
90.0
 52
90.0
 71
     2
 49
0.5
 62
   256
  6
BYLAYER
 49
-0.5
 62
   256
  6
BYLAYER
  0
ACDBPLACEHOLDER
  5
165
102
{ACAD_REACTORS
330
164
102
}
330
164
  0
ENDSEC
  0
EOF
