  0
SECTION
  2
HEADER
  9
$ACADVER
  1
AC1015
  9
$ACADMAINTVER
 70
    10
  9
$DWGCODEPAGE
  3
ANSI_1252
  9
$INSBASE
 10
-0.0000000000000009
 20
0.0000000000000009
 30
0.0
  9
$EXTMIN
 10
-310.044800185947
 20
-240.2798893323975
 30
-0.0000000349181948
  9
$EXTMAX
 10
424.0846561027812
 20
228.7219286160343
 30
0.0000000814935746
  9
$LIMMIN
 10
0.0
 20
0.0
  9
$LIMMAX
 10
420.0
 20
297.0
  9
$ORTHOMODE
 70
     1
  9
$REGENMODE
 70
     1
  9
$FILLMODE
 70
     1
  9
$QTEXTMODE
 70
     0
  9
$MIRRTEXT
 70
     1
  9
$LTSCALE
 40
0.25
  9
$ATTMODE
 70
     1
  9
$TEXTSIZE
 40
5.0
  9
$TRACEWID
 40
10.0
  9
$TEXTSTYLE
  7
ROMANS
  9
$CLAYER
  8
DIMS
  9
$CELTYPE
  6
ByLayer
  9
$CECOLOR
 62
   256
  9
$CELTSCALE
 40
1.0
  9
$DISPSILH
 70
     0
  9
$DIMSCALE
 40
2.0
  9
$DIMASZ
 40
2.0
  9
$DIMEXO
 40
4.5
  9
$DIMDLI
 40
0.0
  9
$DIMRND
 40
0.5
  9
$DIMDLE
 40
0.0
  9
$DIMEXE
 40
1.5
  9
$DIMTP
 40
0.0
  9
$DIMTM
 40
0.0
  9
$DIMTXT
 40
1.8
  9
$DIMCEN
 40
0.0
  9
$DIMTSZ
 40
0.0
  9
$DIMTOL
 70
     0
  9
$DIMLIM
 70
     0
  9
$DIMTIH
 70
     0
  9
$DIMTOH
 70
     0
  9
$DIMSE1
 70
     0
  9
$DIMSE2
 70
     0
  9
$DIMTAD
 70
     1
  9
$DIMZIN
 70
    12
  9
$DIMBLK
  1

  9
$DIMASO
 70
     1
  9
$DIMSHO
 70
     0
  9
$DIMPOST
  1

  9
$DIMAPOST
  1

  9
$DIMALT
 70
     0
  9
$DIMALTD
 70
     0
  9
$DIMALTF
 40
25.4
  9
$DIMLFAC
 40
1.0
  9
$DIMTOFL
 70
     0
  9
$DIMTVP
 40
0.0
  9
$DIMTIX
 70
     0
  9
$DIMSOXD
 70
     0
  9
$DIMSAH
 70
     0
  9
$DIMBLK1
  1

  9
$DIMBLK2
  1

  9
$DIMSTYLE
  2
1-2
  9
$DIMCLRD
 70
     0
  9
$DIMCLRE
 70
     0
  9
$DIMCLRT
 70
     0
  9
$DIMTFAC
 40
1.25
  9
$DIMGAP
 40
0.1
  9
$DIMJUST
 70
     0
  9
$DIMSD1
 70
     0
  9
$DIMSD2
 70
     0
  9
$DIMTOLJ
 70
     1
  9
$DIMTZIN
 70
    12
  9
$DIMALTZ
 70
    12
  9
$DIMALTTZ
 70
    12
  9
$DIMUPT
 70
     0
  9
$DIMDEC
 70
     2
  9
$DIMTDEC
 70
     2
  9
$DIMALTU
 70
     2
  9
$DIMALTTD
 70
     0
  9
$DIMTXSTY
  7
STANDARD
  9
$DIMAUNIT
 70
     0
  9
$DIMADEC
 70
     0
  9
$DIMALTRND
 40
0.0
  9
$DIMAZIN
 70
     0
  9
$DIMDSEP
 70
    46
  9
$DIMATFIT
 70
     3
  9
$DIMFRAC
 70
     0
  9
$DIMLDRBLK
  1

  9
$DIMLUNIT
 70
     2
  9
$DIMLWD
 70
    -2
  9
$DIMLWE
 70
    -2
  9
$DIMTMOVE
 70
     2
  9
$LUNITS
 70
     2
  9
$LUPREC
 70
     2
  9
$SKETCHINC
 40
1.0
  9
$FILLETRAD
 40
0.0
  9
$AUNITS
 70
     0
  9
$AUPREC
 70
     4
  9
$MENU
  1
acad
  9
$ELEVATION
 40
0.0
  9
$PELEVATION
 40
0.0
  9
$THICKNESS
 40
0.0
  9
$LIMCHECK
 70
     0
  9
$CHAMFERA
 40
0.0
  9
$CHAMFERB
 40
0.0
  9
$CHAMFERC
 40
0.0
  9
$CHAMFERD
 40
0.0
  9
$SKPOLY
 70
     0
  9
$TDCREATE
 40
2449527.571155092
  9
$TDUCREATE
 40
2449527.529488425
  9
$TDUPDATE
 40
2452498.550889930
  9
$TDUUPDATE
 40
2452498.509223263
  9
$TDINDWG
 40
0.3432329282
  9
$TDUSRTIMER
 40
0.3432329282
  9
$USRTIMER
 70
     1
  9
$ANGBASE
 50
0.0
  9
$ANGDIR
 70
     0
  9
$PDMODE
 70
     0
  9
$PDSIZE
 40
0.0
  9
$PLINEWID
 40
0.0
  9
$SPLFRAME
 70
     0
  9
$SPLINETYPE
 70
     6
  9
$SPLINESEGS
 70
     8
  9
$HANDSEED
  5
1AB
  9
$SURFTAB1
 70
    18
  9
$SURFTAB2
 70
    18
  9
$SURFTYPE
 70
     6
  9
$SURFU
 70
    18
  9
$SURFV
 70
    18
  9
$UCSBASE
  2

  9
$UCSNAME
  2

  9
$UCSORG
 10
0.0
 20
0.0
 30
0.0
  9
$UCSXDIR
 10
1.0
 20
0.0
 30
0.0
  9
$UCSYDIR
 10
0.0
 20
1.0
 30
0.0
  9
$UCSORTHOREF
  2

  9
$UCSORTHOVIEW
 70
     0
  9
$UCSORGTOP
 10
0.0
 20
0.0
 30
0.0
  9
$UCSORGBOTTOM
 10
0.0
 20
0.0
 30
0.0
  9
$UCSORGLEFT
 10
0.0
 20
0.0
 30
0.0
  9
$UCSORGRIGHT
 10
0.0
 20
0.0
 30
0.0
  9
$UCSORGFRONT
 10
0.0
 20
0.0
 30
0.0
  9
$UCSORGBACK
 10
0.0
 20
0.0
 30
0.0
  9
$PUCSBASE
  2

  9
$PUCSNAME
  2

  9
$PUCSORG
 10
0.0
 20
0.0
 30
0.0
  9
$PUCSXDIR
 10
1.0
 20
0.0
 30
0.0
  9
$PUCSYDIR
 10
0.0
 20
1.0
 30
0.0
  9
$PUCSORTHOREF
  2

  9
$PUCSORTHOVIEW
 70
     0
  9
$PUCSORGTOP
 10
0.0
 20
0.0
 30
0.0
  9
$PUCSORGBOTTOM
 10
0.0
 20
0.0
 30
0.0
  9
$PUCSORGLEFT
 10
0.0
 20
0.0
 30
0.0
  9
$PUCSORGRIGHT
 10
0.0
 20
0.0
 30
0.0
  9
$PUCSORGFRONT
 10
0.0
 20
0.0
 30
0.0
  9
$PUCSORGBACK
 10
0.0
 20
0.0
 30
0.0
  9
$USERI1
 70
     0
  9
$USERI2
 70
     0
  9
$USERI3
 70
     0
  9
$USERI4
 70
     0
  9
$USERI5
 70
     0
  9
$USERR1
 40
0.0
  9
$USERR2
 40
0.0
  9
$USERR3
 40
0.0
  9
$USERR4
 40
0.0
  9
$USERR5
 40
0.0
  9
$WORLDVIEW
 70
     1
  9
$SHADEDGE
 70
     3
  9
$SHADEDIF
 70
    70
  9
$TILEMODE
 70
     1
  9
$MAXACTVP
 70
    16
  9
$PINSBASE
 10
0.0
 20
0.0
 30
0.0
  9
$PLIMCHECK
 70
     0
  9
$PEXTMIN
 10
1.614583349603368
 20
1.129749872553066
 30
0.0
  9
$PEXTMAX
 10
14.5312501464303
 20
10.1677488529776
 30
0.0
  9
$PLIMMIN
 10
-0.1979161059762549
 20
-0.1979166691697489
  9
$PLIMMAX
 10
16.34375024029589
 20
11.49541603298637
  9
$UNITMODE
 70
     0
  9
$VISRETAIN
 70
     0
  9
$PLINEGEN
 70
     0
  9
$PSLTSCALE
 70
     1
  9
$TREEDEPTH
 70
  3020
  9
$CMLSTYLE
  2
Standard
  9
$CMLJUST
 70
     0
  9
$CMLSCALE
 40
1.0
  9
$PROXYGRAPHICS
 70
     1
  9
$MEASUREMENT
 70
     0
  9
$CELWEIGHT
370
    -1
  9
$ENDCAPS
280
     0
  9
$JOINSTYLE
280
     0
  9
$LWDISPLAY
290
     0
  9
$INSUNITS
 70
     0
  9
$HYPERLINKBASE
  1

  9
$STYLESHEET
  1

  9
$XEDIT
290
     1
  9
$CEPSNTYPE
380
     0
  9
$PSTYLEMODE
290
     1
  9
$FINGERPRINTGUID
  2
{92E80C43-1872-4D6C-BAA0-2993366F3785}
  9
$VERSIONGUID
  2
{627E28EA-AD1D-11D6-AAC6-0010A4A25215}
  9
$EXTNAMES
290
     1
  9
$PSVPSCALE
 40
0.0
  9
$OLESTARTUP
290
     0
  0
ENDSEC
  0
SECTION
  2
CLASSES
  0
CLASS
  1
ACDBDICTIONARYWDFLT
  2
AcDbDictionaryWithDefault
  3
AutoCAD 2000
 90
        0
280
     1
281
     0
  0
CLASS
  1
ACDBPLACEHOLDER
  2
AcDbPlaceHolder
  3
AutoCAD 2000
 90
        0
280
     1
281
     0
  0
CLASS
  1
LAYOUT
  2
AcDbLayout
  3
AutoCAD 2000
 90
        0
280
     1
281
     0
  0
CLASS
  1
LONG_TRANSACTION
  2
AcDbLongTransaction
  3
AutoCAD 2000
 90
    32768
280
     1
281
     0
  0
CLASS
  1
LWPOLYLINE
  2
AcDbPolyline
  3
AutoCAD 2000
 90
    32768
280
     0
281
     1
  0
CLASS
  1
HATCH
  2
AcDbHatch
  3
AutoCAD 2000
 90
    32768
280
     0
281
     1
  0
CLASS
  1
XRECORD
  2
AcDbXrecord
  3
AutoCAD 2000
 90
    32768
280
     0
281
     0
  0
CLASS
  1
LONG_TRANSACTION
  2
AcDbLongTransaction
  3
AutoCAD 2000
 90
    32768
280
     1
281
     0
  0
CLASS
  1
LWPOLYLINE
  2
AcDbPolyline
  3
AutoCAD 2000
 90
    32768
280
     0
281
     1
  0
CLASS
  1
HATCH
  2
AcDbHatch
  3
AutoCAD 2000
 90
    32768
280
     0
281
     1
  0
CLASS
  1
XRECORD
  2
AcDbXrecord
  3
AutoCAD 2000
 90
    32768
280
     0
281
     0
  0
CLASS
  1
LONG_TRANSACTION
  2
AcDbLongTransaction
  3
AutoCAD 2000
 90
    32768
280
     1
281
     0
  0
CLASS
  1
LWPOLYLINE
  2
AcDbPolyline
  3
AutoCAD 2000
 90
    32768
280
     0
281
     1
  0
CLASS
  1
HATCH
  2
AcDbHatch
  3
AutoCAD 2000
 90
    32768
280
     0
281
     1
  0
CLASS
  1
XRECORD
  2
AcDbXrecord
  3
AutoCAD 2000
 90
    32768
280
     0
281
     0
  0
CLASS
  1
LONG_TRANSACTION
  2
AcDbLongTransaction
  3
AutoCAD 2000
 90
    32768
280
     0
281
     0
  0
CLASS
  1
LWPOLYLINE
  2
AcDbPolyline
  3
AutoCAD 2000
 90
    32768
280
     0
281
     1
  0
CLASS
  1
HATCH
  2
AcDbHatch
  3
AutoCAD 2000
 90
    32768
280
     0
281
     1
  0
CLASS
  1
XRECORD
  2
AcDbXrecord
  3
AutoCAD 2000
 90
    32768
280
     0
281
     0
  0
ENDSEC
  0
SECTION
  2
TABLES
  0
TABLE
  2
VPORT
  5
1C
330
0
100
AcDbSymbolTable
 70
     3
  0
VPORT
  5
1AA
330
1C
100
AcDbSymbolTableRecord
100
AcDbViewportTableRecord
  2
*Active
 70
     0
 10
0.0
 20
0.0
 11
1.0
 21
1.0
 12
57.01992795841717
 22
-5.77898035818157
 13
0.0
 23
0.0
 14
5.0
 24
5.0
 15
10.0
 25
10.0
 16
0.0
 26
0.0
 36
1.0
 17
0.0
 27
0.0
 37
0.0
 40
474.1275208768299
 41
1.760948905109489
 42
50.0
 43
0.0
 44
0.0
 50
0.0
 51
0.0
 71
     0
 72
   100
 73
     1
 74
     1
 75
     0
 76
     0
 77
     0
 78
     0
281
     0
 65
     1
110
0.0
120
0.0
130
0.0
111
1.0
121
0.0
131
0.0
112
0.0
122
1.0
132
0.0
 79
     0
146
0.0
  0
ENDTAB
  0
TABLE
  2
LTYPE
  5
13
330
0
100
AcDbSymbolTable
 70
     4
  0
LTYPE
  5
14
330
13
100
AcDbSymbolTableRecord
100
AcDbLinetypeTableRecord
  2
ByBlock
 70
     0
  3

 72
    65
 73
     0
 40
0.0
  0
LTYPE
  5
17
330
13
100
AcDbSymbolTableRecord
100
AcDbLinetypeTableRecord
  2
ByLayer
 70
     0
  3

 72
    65
 73
     0
 40
0.0
  0
LTYPE
  5
8
330
13
100
AcDbSymbolTableRecord
100
AcDbLinetypeTableRecord
  2
CONTINUOUS
 70
     0
  3
Solid line
 72
    65
 73
     0
 40
0.0
  0
LTYPE
  5
67
330
13
100
AcDbSymbolTableRecord
100
AcDbLinetypeTableRecord
  2
CENTER2
 70
     0
  3
___ _ ___ _ ___ _ ___ _ ___ _ ___ _ ___ _ ___ _
 72
    65
 73
     4
 40
28.57499999999999
 49
19.05
 74
     0
 49
-3.174999999999999
 74
     0
 49
3.174999999999999
 74
     0
 49
-3.174999999999999
 74
     0
  0
LTYPE
  5
54
330
13
100
AcDbSymbolTableRecord
100
AcDbLinetypeTableRecord
  2
HIDDEN
 70
     0
  3
__ __ __ __ __ __ __ __ __ __ __ __ __ __ __ __
 72
    65
 73
     2
 40
9.524999999999998
 49
6.349999999999999
 74
     0
 49
-3.174999999999999
 74
     0
  0
LTYPE
  5
71
330
13
100
AcDbSymbolTableRecord
100
AcDbLinetypeTableRecord
  2
CENTER
 70
     0
  3
____ _ ____ _ ____ _ ____ _ ____ _ ____ _ ____ 
 72
    65
 73
     4
 40
50.8
 49
31.75
 74
     0
 49
-6.349999999999999
 74
     0
 49
6.349999999999999
 74
     0
 49
-6.349999999999999
 74
     0
  0
ENDTAB
  0
TABLE
  2
LAYER
  5
10
330
0
100
AcDbSymbolTable
 70
    10
  0
LAYER
  5
7
330
10
100
AcDbSymbolTableRecord
100
AcDbLayerTableRecord
  2
0
 70
     0
 62
     7
  6
CONTINUOUS
370
    -3
390
169
  0
LAYER
  5
27
330
10
100
AcDbSymbolTableRecord
100
AcDbLayerTableRecord
  2
DIMS
 70
     0
 62
     1
  6
CONTINUOUS
370
    -3
390
169
  0
LAYER
  5
4B
330
10
100
AcDbSymbolTableRecord
100
AcDbLayerTableRecord
  2
ANCON-DSD
 70
     0
 62
     3
  6
CONTINUOUS
370
    -3
390
169
  0
LAYER
  5
36
330
10
100
AcDbSymbolTableRecord
100
AcDbLayerTableRecord
  2
DEFPOINTS
 70
     0
 62
     7
  6
CONTINUOUS
290
     0
370
    -3
390
169
  0
LAYER
  5
7E
330
10
100
AcDbSymbolTableRecord
100
AcDbLayerTableRecord
  2
CONCRETE
 70
     0
 62
     2
  6
CONTINUOUS
370
    -3
390
169
  0
LAYER
  5
53
330
10
100
AcDbSymbolTableRecord
100
AcDbLayerTableRecord
  2
10MM-JOINT
 70
     0
 62
     7
  6
CONTINUOUS
370
    -3
390
169
  0
LAYER
  5
7B
330
10
100
AcDbSymbolTableRecord
100
AcDbLayerTableRecord
  2
ORIGIN
 70
     0
 62
     7
  6
CONTINUOUS
370
    -3
390
169
  0
LAYER
  5
152
330
10
100
AcDbSymbolTableRecord
100
AcDbLayerTableRecord
  2
SPECP
 70
     0
 62
     6
  6
CONTINUOUS
370
    -3
390
169
  0
LAYER
  5
50
330
10
100
AcDbSymbolTableRecord
100
AcDbLayerTableRecord
  2
SPECD
 70
     0
 62
     6
  6
CONTINUOUS
370
    -3
390
169
  0
LAYER
  5
8C
330
10
100
AcDbSymbolTableRecord
100
AcDbLayerTableRecord
  2
20MM-DIMS
 70
     0
 62
     1
  6
CONTINUOUS
370
    -3
390
169
  0
ENDTAB
  0
TABLE
  2
STYLE
  5
11
330
0
100
AcDbSymbolTable
 70
     2
  0
STYLE
  5
12
330
11
100
AcDbSymbolTableRecord
100
AcDbTextStyleTableRecord
  2
STANDARD
 70
     0
 40
0.0
 41
1.0
 50
0.0
 71
     0
 42
6.0
  3
txt.shx
  4

  0
STYLE
  5
28
330
11
100
AcDbSymbolTableRecord
100
AcDbTextStyleTableRecord
  2
ROMANS
 70
     0
 40
0.0
 41
1.0
 50
0.0
 71
     0
 42
5.0
  3
romans
  4

  0
ENDTAB
  0
TABLE
  2
VIEW
  5
1A
330
0
100
AcDbSymbolTable
 70
     0
  0
ENDTAB
  0
TABLE
  2
UCS
  5
1B
330
0
100
AcDbSymbolTable
 70
     0
  0
ENDTAB
  0
TABLE
  2
APPID
  5
1E
330
0
100
AcDbSymbolTable
 70
     1
  0
APPID
  5
1F
330
1E
100
AcDbSymbolTableRecord
100
AcDbRegAppTableRecord
  2
ACAD
 70
     0
  0
ENDTAB
  0
TABLE
  2
DIMSTYLE
  5
20
330
0
100
AcDbSymbolTable
 70
     1
100
AcDbDimStyleTable
 71
     0
  0
DIMSTYLE
105
2A
102
{ACAD_REACTORS
330
123
330
58
330
BA
330
AD
330
E4
330
8B
330
A0
330
115
330
158
330
135
330
D5
330
C7
330
3D
330
2D
102
}
330
20
100
AcDbSymbolTableRecord
100
AcDbDimStyleTableRecord
  2
1-2
 70
     0
 40
2.0
 41
2.0
 42
4.5
 43
0.0
 44
1.5
 45
0.5
 73
     0
 74
     0
 77
     1
 78
    12
140
1.8
141
0.0
146
1.25
147
0.1
171
     0
271
     2
272
     2
274
     0
279
     2
284
    12
285
    12
286
    12
340
12
  0
ENDTAB
  0
TABLE
  2
BLOCK_RECORD
  5
1
330
0
100
AcDbSymbolTable
 70
    15
  0
BLOCK_RECORD
  5
2
102
{ACAD_XDICTIONARY
360
3
102
}
330
1
100
AcDbSymbolTableRecord
100
AcDbBlockTableRecord
  2
*Model_Space
340
16C
  0
BLOCK_RECORD
  5
A
102
{ACAD_XDICTIONARY
360
B
102
}
330
1
100
AcDbSymbolTableRecord
100
AcDbBlockTableRecord
  2
*Paper_Space
340
16D
  0
BLOCK_RECORD
  5
124
330
1
100
AcDbSymbolTableRecord
100
AcDbBlockTableRecord
  2
*D0
340
0
  0
BLOCK_RECORD
  5
59
330
1
100
AcDbSymbolTableRecord
100
AcDbBlockTableRecord
  2
*D1
340
0
  0
BLOCK_RECORD
  5
BB
330
1
100
AcDbSymbolTableRecord
100
AcDbBlockTableRecord
  2
*D2
340
0
  0
BLOCK_RECORD
  5
AE
330
1
100
AcDbSymbolTableRecord
100
AcDbBlockTableRecord
  2
*D3
340
0
  0
BLOCK_RECORD
  5
116
330
1
100
AcDbSymbolTableRecord
100
AcDbBlockTableRecord
  2
*D4
340
0
  0
BLOCK_RECORD
  5
159
330
1
100
AcDbSymbolTableRecord
100
AcDbBlockTableRecord
  2
*D5
340
0
  0
BLOCK_RECORD
  5
136
330
1
100
AcDbSymbolTableRecord
100
AcDbBlockTableRecord
  2
*D6
340
0
  0
BLOCK_RECORD
  5
D6
330
1
100
AcDbSymbolTableRecord
100
AcDbBlockTableRecord
  2
*D7
340
0
  0
BLOCK_RECORD
  5
C8
330
1
100
AcDbSymbolTableRecord
100
AcDbBlockTableRecord
  2
*D8
340
0
  0
BLOCK_RECORD
  5
3E
330
1
100
AcDbSymbolTableRecord
100
AcDbBlockTableRecord
  2
*D9
340
0
  0
BLOCK_RECORD
  5
2E
330
1
100
AcDbSymbolTableRecord
100
AcDbBlockTableRecord
  2
*D10
340
0
  0
BLOCK_RECORD
  5
E5
330
1
100
AcDbSymbolTableRecord
100
AcDbBlockTableRecord
  2
*D11
340
0
  0
BLOCK_RECORD
  5
8D
330
1
100
AcDbSymbolTableRecord
100
AcDbBlockTableRecord
  2
*D12
340
0
  0
BLOCK_RECORD
  5
A1
330
1
100
AcDbSymbolTableRecord
100
AcDbBlockTableRecord
  2
*D13
340
0
  0
BLOCK_RECORD
  5
80
330
1
100
AcDbSymbolTableRecord
100
AcDbBlockTableRecord
  2
A$C6BE937E7
340
0
  0
ENDTAB
  0
ENDSEC
  0
SECTION
  2
BLOCKS
  0
BLOCK
  5
6
330
2
100
AcDbEntity
  8
0
100
AcDbBlockBegin
  2
*Model_Space
 70
     0
 10
0.0
 20
0.0
 30
0.0
  3
*Model_Space
  1

  0
ENDBLK
  5
9
330
2
100
AcDbEntity
  8
0
100
AcDbBlockEnd
  0
BLOCK
  5
E
330
A
100
AcDbEntity
 67
     1
  8
0
100
AcDbBlockBegin
  2
*Paper_Space
 70
     0
 10
0.0
 20
0.0
 30
0.0
  3
*Paper_Space
  1

  0
ENDBLK
  5
F
330
A
100
AcDbEntity
 67
     1
  8
0
100
AcDbBlockEnd
  0
BLOCK
  5
12E
330
124
100
AcDbEntity
  8
0
100
AcDbBlockBegin
  2
*D0
 70
     1
 10
0.0
 20
0.0
 30
0.0
  3
*D0
  1

  0
LINE
  5
125
330
124
100
AcDbEntity
  8
0
  6
ByBlock
 62
     0
100
AcDbLine
 10
314.0
 20
-59.99999999999992
 30
0.0
 11
389.4956103424335
 21
-59.99999999999992
 31
0.0
  0
LINE
  5
126
330
124
100
AcDbEntity
  8
0
  6
ByBlock
 62
     0
100
AcDbLine
 10
313.9999999999997
 20
59.99999999999996
 30
0.0
 11
389.4956103424335
 21
59.99999999999996
 31
0.0
  0
LINE
  5
127
330
124
100
AcDbEntity
  8
0
  6
ByBlock
 62
     0
100
AcDbLine
 10
386.4956103424335
 20
-55.99999999999993
 30
0.0
 11
386.4956103424335
 21
55.99999999999996
 31
0.0
  0
SOLID
  5
128
330
124
100
AcDbEntity
  8
0
  6
ByBlock
 62
     0
100
AcDbTrace
 10
385.8289436757668
 20
-55.99999999999993
 30
0.0
 11
387.1622770091002
 21
-55.99999999999993
 31
0.0
 12
386.4956103424335
 22
-59.99999999999992
 32
0.0
 13
386.4956103424335
 23
-59.99999999999992
 33
0.0
  0
SOLID
  5
129
330
124
100
AcDbEntity
  8
0
  6
ByBlock
 62
     0
100
AcDbTrace
 10
385.8289436757668
 20
55.99999999999996
 30
0.0
 11
387.1622770091002
 21
55.99999999999996
 31
0.0
 12
386.4956103424335
 22
59.99999999999996
 32
0.0
 13
386.4956103424335
 23
59.99999999999996
 33
0.0
  0
TEXT
  5
12A
330
124
100
AcDbEntity
  8
0
  6
ByBlock
 62
     0
100
AcDbText
 10
384.6956103424335
 20
-5.399999999999986
 30
0.0
 40
3.6
  1
120
 50
90.0
  7
ROMANS
 72
     1
 11
382.8956103424335
 21
0.0000000000000142
 31
0.0
100
AcDbText
 73
     2
  0
POINT
  5
12B
330
124
100
AcDbEntity
  8
DEFPOINTS
  6
ByBlock
 62
     0
100
AcDbPoint
 10
305.0
 20
-59.99999999999992
 30
0.0
  0
POINT
  5
12C
330
124
100
AcDbEntity
  8
DEFPOINTS
  6
ByBlock
 62
     0
100
AcDbPoint
 10
304.9999999999997
 20
59.99999999999996
 30
0.0
  0
POINT
  5
12D
330
124
100
AcDbEntity
  8
DEFPOINTS
  6
ByBlock
 62
     0
100
AcDbPoint
 10
386.4956103424335
 20
59.99999999999996
 30
0.0
  0
ENDBLK
  5
12F
330
124
100
AcDbEntity
  8
0
100
AcDbBlockEnd
  0
BLOCK
  5
63
330
59
100
AcDbEntity
  8
0
100
AcDbBlockBegin
  2
*D1
 70
     1
 10
0.0
 20
0.0
 30
0.0
  3
*D1
  1

  0
LINE
  5
5A
330
59
100
AcDbEntity
  8
0
  6
ByBlock
 62
     0
100
AcDbLine
 10
13.0
 20
-120.15
 30
0.0
 11
424.0398490803475
 21
-120.15
 31
0.0
  0
LINE
  5
5B
330
59
100
AcDbEntity
  8
0
  6
ByBlock
 62
     0
100
AcDbLine
 10
13.0
 20
120.15
 30
0.0
 11
424.0398490803475
 21
120.15
 31
0.0
  0
LINE
  5
5C
330
59
100
AcDbEntity
  8
0
  6
ByBlock
 62
     0
100
AcDbLine
 10
421.0398490803474
 20
-116.15
 30
0.0
 11
421.0398490803474
 21
116.15
 31
0.0
  0
SOLID
  5
5D
330
59
100
AcDbEntity
  8
0
  6
ByBlock
 62
     0
100
AcDbTrace
 10
420.3731824136808
 20
-116.15
 30
0.0
 11
421.7065157470141
 21
-116.15
 31
0.0
 12
421.0398490803474
 22
-120.15
 32
0.0
 13
421.0398490803474
 23
-120.15
 33
0.0
  0
SOLID
  5
5E
330
59
100
AcDbEntity
  8
0
  6
ByBlock
 62
     0
100
AcDbTrace
 10
420.3731824136808
 20
116.15
 30
0.0
 11
421.7065157470141
 21
116.15
 31
0.0
 12
421.0398490803474
 22
120.15
 32
0.0
 13
421.0398490803474
 23
120.15
 33
0.0
  0
TEXT
  5
5F
330
59
100
AcDbEntity
  8
0
  6
ByBlock
 62
     0
100
AcDbText
 10
419.2398490803475
 20
-5.142857142857142
 30
0.0
 40
3.6
  1
240
 50
90.0
  7
ROMANS
 72
     1
 11
417.4398490803474
 21
0.0
 31
0.0
100
AcDbText
 73
     2
  0
POINT
  5
60
330
59
100
AcDbEntity
  8
DEFPOINTS
  6
ByBlock
 62
     0
100
AcDbPoint
 10
4.0
 20
-120.15
 30
0.0
  0
POINT
  5
61
330
59
100
AcDbEntity
  8
DEFPOINTS
  6
ByBlock
 62
     0
100
AcDbPoint
 10
4.0
 20
120.15
 30
0.0
  0
POINT
  5
62
330
59
100
AcDbEntity
  8
DEFPOINTS
  6
ByBlock
 62
     0
100
AcDbPoint
 10
421.0398490803474
 20
120.15
 30
0.0
  0
ENDBLK
  5
64
330
59
100
AcDbEntity
  8
0
100
AcDbBlockEnd
  0
BLOCK
  5
C5
330
BB
100
AcDbEntity
  8
0
100
AcDbBlockBegin
  2
*D2
 70
     1
 10
0.0
 20
0.0
 30
0.0
  3
*D2
  1

  0
LINE
  5
BC
330
BB
100
AcDbEntity
  8
0
  6
ByBlock
 62
     0
100
AcDbLine
 10
-127.9999999999997
 20
-21.50000000000014
 30
0.0
 11
-127.9999999999997
 21
-182.0856329850624
 31
0.0
  0
LINE
  5
BD
330
BB
100
AcDbEntity
  8
0
  6
ByBlock
 62
     0
100
AcDbLine
 10
-62.99999999999982
 20
-21.50000000000014
 30
0.0
 11
-62.99999999999982
 21
-182.0856329850624
 31
0.0
  0
LINE
  5
BE
330
BB
100
AcDbEntity
  8
0
  6
ByBlock
 62
     0
100
AcDbLine
 10
-123.9999999999997
 20
-179.0856329850624
 30
0.0
 11
-66.99999999999983
 21
-179.0856329850624
 31
0.0
  0
SOLID
  5
BF
330
BB
100
AcDbEntity
  8
0
  6
ByBlock
 62
     0
100
AcDbTrace
 10
-123.9999999999997
 20
-178.4189663183957
 30
0.0
 11
-123.9999999999997
 21
-179.752299651729
 31
0.0
 12
-127.9999999999997
 22
-179.0856329850624
 32
0.0
 13
-127.9999999999997
 23
-179.0856329850624
 33
0.0
  0
SOLID
  5
C0
330
BB
100
AcDbEntity
  8
0
  6
ByBlock
 62
     0
100
AcDbTrace
 10
-66.99999999999983
 20
-178.4189663183957
 30
0.0
 11
-66.99999999999983
 21
-179.752299651729
 31
0.0
 12
-62.99999999999982
 22
-179.0856329850624
 32
0.0
 13
-62.99999999999982
 23
-179.0856329850624
 33
0.0
  0
TEXT
  5
C1
330
BB
100
AcDbEntity
  8
0
  6
ByBlock
 62
     0
100
AcDbText
 10
-99.01428571428553
 20
-177.2856329850624
 30
0.0
 40
3.6
  1
65
  7
ROMANS
 72
     1
 11
-95.49999999999981
 21
-175.4856329850624
 31
0.0
100
AcDbText
 73
     2
  0
POINT
  5
C2
330
BB
100
AcDbEntity
  8
DEFPOINTS
  6
ByBlock
 62
     0
100
AcDbPoint
 10
-127.9999999999997
 20
-12.50000000000014
 30
0.0
  0
POINT
  5
C3
330
BB
100
AcDbEntity
  8
DEFPOINTS
  6
ByBlock
 62
     0
100
AcDbPoint
 10
-62.99999999999982
 20
-12.50000000000014
 30
0.0
  0
POINT
  5
C4
330
BB
100
AcDbEntity
  8
DEFPOINTS
  6
ByBlock
 62
     0
100
AcDbPoint
 10
-62.99999999999982
 20
-179.0856329850624
 30
0.0
  0
ENDBLK
  5
C6
330
BB
100
AcDbEntity
  8
0
100
AcDbBlockEnd
  0
BLOCK
  5
B8
330
AE
100
AcDbEntity
  8
0
100
AcDbBlockBegin
  2
*D3
 70
     1
 10
0.0
 20
0.0
 30
0.0
  3
*D3
  1

  0
LINE
  5
AF
330
AE
100
AcDbEntity
  8
0
  6
ByBlock
 62
     0
100
AcDbLine
 10
-62.99999999999982
 20
-21.50000000000014
 30
0.0
 11
-62.99999999999982
 21
-182.0856329850624
 31
0.0
  0
LINE
  5
B0
330
AE
100
AcDbEntity
  8
0
  6
ByBlock
 62
     0
100
AcDbLine
 10
-27.99999999999988
 20
-109.1073340807422
 30
0.0
 11
-27.99999999999988
 21
-182.0856329850624
 31
0.0
  0
LINE
  5
B1
330
AE
100
AcDbEntity
  8
0
  6
ByBlock
 62
     0
100
AcDbLine
 10
-58.99999999999982
 20
-179.0856329850624
 30
0.0
 11
-31.99999999999988
 21
-179.0856329850624
 31
0.0
  0
SOLID
  5
B2
330
AE
100
AcDbEntity
  8
0
  6
ByBlock
 62
     0
100
AcDbTrace
 10
-58.99999999999982
 20
-178.4189663183957
 30
0.0
 11
-58.99999999999982
 21
-179.752299651729
 31
0.0
 12
-62.99999999999982
 22
-179.0856329850624
 32
0.0
 13
-62.99999999999982
 23
-179.0856329850624
 33
0.0
  0
SOLID
  5
B3
330
AE
100
AcDbEntity
  8
0
  6
ByBlock
 62
     0
100
AcDbTrace
 10
-31.99999999999988
 20
-178.4189663183957
 30
0.0
 11
-31.99999999999988
 21
-179.752299651729
 31
0.0
 12
-27.99999999999988
 22
-179.0856329850624
 32
0.0
 13
-27.99999999999988
 23
-179.0856329850624
 33
0.0
  0
TEXT
  5
B4
330
AE
100
AcDbEntity
  8
0
  6
ByBlock
 62
     0
100
AcDbText
 10
-48.92857142857129
 20
-177.2856329850624
 30
0.0
 40
3.6
  1
35
  7
ROMANS
 72
     1
 11
-45.49999999999985
 21
-175.4856329850624
 31
0.0
100
AcDbText
 73
     2
  0
POINT
  5
B5
330
AE
100
AcDbEntity
  8
DEFPOINTS
  6
ByBlock
 62
     0
100
AcDbPoint
 10
-62.99999999999982
 20
-12.50000000000014
 30
0.0
  0
POINT
  5
B6
330
AE
100
AcDbEntity
  8
DEFPOINTS
  6
ByBlock
 62
     0
100
AcDbPoint
 10
-27.99999999999988
 20
-100.1073340807422
 30
0.0
  0
POINT
  5
B7
330
AE
100
AcDbEntity
  8
DEFPOINTS
  6
ByBlock
 62
     0
100
AcDbPoint
 10
-27.99999999999988
 20
-179.0856329850624
 30
0.0
  0
ENDBLK
  5
B9
330
AE
100
AcDbEntity
  8
0
100
AcDbBlockEnd
  0
BLOCK
  5
120
330
116
100
AcDbEntity
  8
0
100
AcDbBlockBegin
  2
*D4
 70
     1
 10
0.0
 20
0.0
 30
0.0
  3
*D4
  1

  0
LINE
  5
117
330
116
100
AcDbEntity
  8
0
  6
ByBlock
 62
     0
100
AcDbLine
 10
314.0
 20
-32.74999999999993
 30
0.0
 11
345.2056885573766
 21
-32.74999999999993
 31
0.0
  0
LINE
  5
118
330
116
100
AcDbEntity
  8
0
  6
ByBlock
 62
     0
100
AcDbLine
 10
314.0
 20
32.74999999999995
 30
0.0
 11
345.2056885573766
 21
32.74999999999995
 31
0.0
  0
LINE
  5
119
330
116
100
AcDbEntity
  8
0
  6
ByBlock
 62
     0
100
AcDbLine
 10
342.2056885573766
 20
-28.74999999999992
 30
0.0
 11
342.2056885573766
 21
28.74999999999996
 31
0.0
  0
SOLID
  5
11A
330
116
100
AcDbEntity
  8
0
  6
ByBlock
 62
     0
100
AcDbTrace
 10
341.5390218907099
 20
-28.74999999999992
 30
0.0
 11
342.8723552240433
 21
-28.74999999999992
 31
0.0
 12
342.2056885573766
 22
-32.74999999999993
 32
0.0
 13
342.2056885573766
 23
-32.74999999999993
 33
0.0
  0
SOLID
  5
11B
330
116
100
AcDbEntity
  8
0
  6
ByBlock
 62
     0
100
AcDbTrace
 10
341.5390218907099
 20
28.74999999999996
 30
0.0
 11
342.8723552240433
 21
28.74999999999996
 31
0.0
 12
342.2056885573766
 22
32.74999999999995
 32
0.0
 13
342.2056885573766
 23
32.74999999999995
 33
0.0
  0
TEXT
  5
11C
330
116
100
AcDbEntity
  8
0
  6
ByBlock
 62
     0
100
AcDbText
 10
340.4056885573766
 20
-3.5142857142857
 30
0.0
 40
3.6
  1
65
 50
90.0
  7
ROMANS
 72
     1
 11
338.6056885573766
 21
0.0000000000000142
 31
0.0
100
AcDbText
 73
     2
  0
POINT
  5
11D
330
116
100
AcDbEntity
  8
DEFPOINTS
  6
ByBlock
 62
     0
100
AcDbPoint
 10
305.0
 20
-32.74999999999993
 30
0.0
  0
POINT
  5
11E
330
116
100
AcDbEntity
  8
DEFPOINTS
  6
ByBlock
 62
     0
100
AcDbPoint
 10
305.0
 20
32.74999999999995
 30
0.0
  0
POINT
  5
11F
330
116
100
AcDbEntity
  8
DEFPOINTS
  6
ByBlock
 62
     0
100
AcDbPoint
 10
342.2056885573766
 20
32.74999999999995
 30
0.0
  0
ENDBLK
  5
121
330
116
100
AcDbEntity
  8
0
100
AcDbBlockEnd
  0
BLOCK
  5
163
330
159
100
AcDbEntity
  8
0
100
AcDbBlockBegin
  2
*D5
 70
     1
 10
0.0
 20
0.0
 30
0.0
  3
*D5
  1

  0
LINE
  5
15A
330
159
100
AcDbEntity
  8
0
  6
ByBlock
 62
     0
100
AcDbLine
 10
314.0
 20
32.74999999999995
 30
0.0
 11
345.2056885573766
 21
32.74999999999995
 31
0.0
  0
LINE
  5
15B
330
159
100
AcDbEntity
  8
0
  6
ByBlock
 62
     0
100
AcDbLine
 10
314.0
 20
59.99999999999996
 30
0.0
 11
345.2056885573766
 21
59.99999999999996
 31
0.0
  0
LINE
  5
15C
330
159
100
AcDbEntity
  8
0
  6
ByBlock
 62
     0
100
AcDbLine
 10
342.2056885573766
 20
36.74999999999995
 30
0.0
 11
342.2056885573766
 21
55.99999999999996
 31
0.0
  0
SOLID
  5
15D
330
159
100
AcDbEntity
  8
0
  6
ByBlock
 62
     0
100
AcDbTrace
 10
341.5390218907099
 20
36.74999999999995
 30
0.0
 11
342.8723552240433
 21
36.74999999999995
 31
0.0
 12
342.2056885573766
 22
32.74999999999995
 32
0.0
 13
342.2056885573766
 23
32.74999999999995
 33
0.0
  0
SOLID
  5
15E
330
159
100
AcDbEntity
  8
0
  6
ByBlock
 62
     0
100
AcDbTrace
 10
341.5390218907099
 20
55.99999999999996
 30
0.0
 11
342.8723552240433
 21
55.99999999999996
 31
0.0
 12
342.2056885573766
 22
59.99999999999996
 32
0.0
 13
342.2056885573766
 23
59.99999999999996
 33
0.0
  0
TEXT
  5
15F
330
159
100
AcDbEntity
  8
0
  6
ByBlock
 62
     0
100
AcDbText
 10
340.4056885573766
 20
38.66071428571424
 30
0.0
 40
3.6
  1
27.25
 50
90.0
  7
ROMANS
 72
     1
 11
338.6056885573766
 21
46.37499999999995
 31
0.0
100
AcDbText
 73
     2
  0
POINT
  5
160
330
159
100
AcDbEntity
  8
DEFPOINTS
  6
ByBlock
 62
     0
100
AcDbPoint
 10
305.0
 20
32.74999999999995
 30
0.0
  0
POINT
  5
161
330
159
100
AcDbEntity
  8
DEFPOINTS
  6
ByBlock
 62
     0
100
AcDbPoint
 10
305.0
 20
59.99999999999996
 30
0.0
  0
POINT
  5
162
330
159
100
AcDbEntity
  8
DEFPOINTS
  6
ByBlock
 62
     0
100
AcDbPoint
 10
342.2056885573766
 20
59.99999999999996
 30
0.0
  0
ENDBLK
  5
164
330
159
100
AcDbEntity
  8
0
100
AcDbBlockEnd
  0
BLOCK
  5
140
330
136
100
AcDbEntity
  8
0
100
AcDbBlockBegin
  2
*D6
 70
     1
 10
0.0
 20
0.0
 30
0.0
  3
*D6
  1

  0
LINE
  5
137
330
136
100
AcDbEntity
  8
0
  6
ByBlock
 62
     0
100
AcDbLine
 10
314.0
 20
-87.24999999999992
 30
0.0
 11
345.2056885573766
 21
-87.24999999999992
 31
0.0
  0
LINE
  5
138
330
136
100
AcDbEntity
  8
0
  6
ByBlock
 62
     0
100
AcDbLine
 10
314.0
 20
-59.99999999999992
 30
0.0
 11
345.2056885573766
 21
-59.99999999999992
 31
0.0
  0
LINE
  5
139
330
136
100
AcDbEntity
  8
0
  6
ByBlock
 62
     0
100
AcDbLine
 10
342.2056885573766
 20
-83.24999999999993
 30
0.0
 11
342.2056885573766
 21
-63.99999999999993
 31
0.0
  0
SOLID
  5
13A
330
136
100
AcDbEntity
  8
0
  6
ByBlock
 62
     0
100
AcDbTrace
 10
341.5390218907099
 20
-83.24999999999993
 30
0.0
 11
342.8723552240433
 21
-83.24999999999993
 31
0.0
 12
342.2056885573766
 22
-87.24999999999992
 32
0.0
 13
342.2056885573766
 23
-87.24999999999992
 33
0.0
  0
SOLID
  5
13B
330
136
100
AcDbEntity
  8
0
  6
ByBlock
 62
     0
100
AcDbTrace
 10
341.5390218907099
 20
-63.99999999999993
 30
0.0
 11
342.8723552240433
 21
-63.99999999999993
 31
0.0
 12
342.2056885573766
 22
-59.99999999999992
 32
0.0
 13
342.2056885573766
 23
-59.99999999999992
 33
0.0
  0
TEXT
  5
13C
330
136
100
AcDbEntity
  8
0
  6
ByBlock
 62
     0
100
AcDbText
 10
340.4056885573766
 20
-81.33928571428564
 30
0.0
 40
3.6
  1
27.25
 50
90.0
  7
ROMANS
 72
     1
 11
338.6056885573766
 21
-73.62499999999993
 31
0.0
100
AcDbText
 73
     2
  0
POINT
  5
13D
330
136
100
AcDbEntity
  8
DEFPOINTS
  6
ByBlock
 62
     0
100
AcDbPoint
 10
305.0
 20
-87.24999999999992
 30
0.0
  0
POINT
  5
13E
330
136
100
AcDbEntity
  8
DEFPOINTS
  6
ByBlock
 62
     0
100
AcDbPoint
 10
305.0
 20
-59.99999999999992
 30
0.0
  0
POINT
  5
13F
330
136
100
AcDbEntity
  8
DEFPOINTS
  6
ByBlock
 62
     0
100
AcDbPoint
 10
342.2056885573766
 20
-59.99999999999992
 30
0.0
  0
ENDBLK
  5
141
330
136
100
AcDbEntity
  8
0
100
AcDbBlockEnd
  0
BLOCK
  5
E2
330
D6
100
AcDbEntity
  8
0
100
AcDbBlockBegin
  2
*D7
 70
     1
 10
0.0
 20
0.0
 30
0.0
  3
*D7
  1

  0
LINE
  5
D7
330
D6
100
AcDbEntity
  8
0
  6
ByBlock
 62
     0
100
AcDbLine
 10
0.0
 20
-129.15
 30
0.0
 11
0.0
 21
-182.0856329850624
 31
0.0
  0
LINE
  5
D8
330
D6
100
AcDbEntity
  8
0
  6
ByBlock
 62
     0
100
AcDbLine
 10
4.0
 20
-129.15
 30
0.0
 11
4.0
 21
-182.0856329850624
 31
0.0
  0
LINE
  5
D9
330
D6
100
AcDbEntity
  8
0
  6
ByBlock
 62
     0
100
AcDbLine
 10
-4.0
 20
-179.0856329850624
 30
0.0
 11
-8.0
 21
-179.0856329850624
 31
0.0
  0
LINE
  5
DA
330
D6
100
AcDbEntity
  8
0
  6
ByBlock
 62
     0
100
AcDbLine
 10
8.0
 20
-179.0856329850624
 30
0.0
 11
12.0
 21
-179.0856329850624
 31
0.0
  0
LINE
  5
DB
330
D6
100
AcDbEntity
  8
0
  6
ByBlock
 62
     0
100
AcDbLine
 10
12.0
 20
-179.0856329850624
 30
0.0
 11
14.77142857142857
 21
-179.0856329850624
 31
0.0
  0
SOLID
  5
DC
330
D6
100
AcDbEntity
  8
0
  6
ByBlock
 62
     0
100
AcDbTrace
 10
-4.0
 20
-178.4189663183957
 30
0.0
 11
-4.0
 21
-179.752299651729
 31
0.0
 12
0.0
 22
-179.0856329850624
 32
0.0
 13
0.0
 23
-179.0856329850624
 33
0.0
  0
SOLID
  5
DD
330
D6
100
AcDbEntity
  8
0
  6
ByBlock
 62
     0
100
AcDbTrace
 10
8.0
 20
-178.4189663183957
 30
0.0
 11
8.0
 21
-179.752299651729
 31
0.0
 12
4.0
 22
-179.0856329850624
 32
0.0
 13
4.0
 23
-179.0856329850624
 33
0.0
  0
TEXT
  5
DE
330
D6
100
AcDbEntity
  8
0
  6
ByBlock
 62
     0
100
AcDbText
 10
11.68571428571428
 20
-177.2856329850624
 30
0.0
 40
3.6
  1
4
  7
ROMANS
 72
     1
 11
13.48571428571428
 21
-175.4856329850624
 31
0.0
100
AcDbText
 73
     2
  0
POINT
  5
DF
330
D6
100
AcDbEntity
  8
DEFPOINTS
  6
ByBlock
 62
     0
100
AcDbPoint
 10
0.0
 20
-120.15
 30
0.0
  0
POINT
  5
E0
330
D6
100
AcDbEntity
  8
DEFPOINTS
  6
ByBlock
 62
     0
100
AcDbPoint
 10
4.0
 20
-120.15
 30
0.0
  0
POINT
  5
E1
330
D6
100
AcDbEntity
  8
DEFPOINTS
  6
ByBlock
 62
     0
100
AcDbPoint
 10
4.0
 20
-179.0856329850624
 30
0.0
  0
ENDBLK
  5
E3
330
D6
100
AcDbEntity
  8
0
100
AcDbBlockEnd
  0
BLOCK
  5
D2
330
C8
100
AcDbEntity
  8
0
100
AcDbBlockBegin
  2
*D8
 70
     1
 10
0.0
 20
0.0
 30
0.0
  3
*D8
  1

  0
LINE
  5
C9
330
C8
100
AcDbEntity
  8
0
  6
ByBlock
 62
     0
100
AcDbLine
 10
4.0
 20
-129.15
 30
0.0
 11
4.0
 21
-182.0856329850624
 31
0.0
  0
LINE
  5
CA
330
C8
100
AcDbEntity
  8
0
  6
ByBlock
 62
     0
100
AcDbLine
 10
53.99999999999998
 20
-21.00000000000001
 30
0.0
 11
53.99999999999998
 21
-182.0856329850623
 31
0.0
  0
LINE
  5
CB
330
C8
100
AcDbEntity
  8
0
  6
ByBlock
 62
     0
100
AcDbLine
 10
8.0
 20
-179.0856329850624
 30
0.0
 11
49.99999999999999
 21
-179.0856329850624
 31
0.0
  0
SOLID
  5
CC
330
C8
100
AcDbEntity
  8
0
  6
ByBlock
 62
     0
100
AcDbTrace
 10
8.0
 20
-178.4189663183957
 30
0.0
 11
8.0
 21
-179.752299651729
 31
0.0
 12
4.0
 22
-179.0856329850624
 32
0.0
 13
4.0
 23
-179.0856329850624
 33
0.0
  0
SOLID
  5
CD
330
C8
100
AcDbEntity
  8
0
  6
ByBlock
 62
     0
100
AcDbTrace
 10
49.99999999999999
 20
-178.4189663183957
 30
0.0
 11
49.99999999999999
 21
-179.752299651729
 31
0.0
 12
53.99999999999998
 22
-179.0856329850624
 32
0.0
 13
53.99999999999998
 23
-179.0856329850624
 33
0.0
  0
TEXT
  5
CE
330
C8
100
AcDbEntity
  8
0
  6
ByBlock
 62
     0
100
AcDbText
 10
25.57142857142856
 20
-177.2856329850624
 30
0.0
 40
3.6
  1
50
  7
ROMANS
 72
     1
 11
28.99999999999999
 21
-175.4856329850624
 31
0.0
100
AcDbText
 73
     2
  0
POINT
  5
CF
330
C8
100
AcDbEntity
  8
DEFPOINTS
  6
ByBlock
 62
     0
100
AcDbPoint
 10
4.0
 20
-120.15
 30
0.0
  0
POINT
  5
D0
330
C8
100
AcDbEntity
  8
DEFPOINTS
  6
ByBlock
 62
     0
100
AcDbPoint
 10
53.99999999999998
 20
-12.00000000000001
 30
0.0
  0
POINT
  5
D1
330
C8
100
AcDbEntity
  8
DEFPOINTS
  6
ByBlock
 62
     0
100
AcDbPoint
 10
53.99999999999998
 20
-179.0856329850624
 30
0.0
  0
ENDBLK
  5
D3
330
C8
100
AcDbEntity
  8
0
100
AcDbBlockEnd
  0
BLOCK
  5
48
330
3E
100
AcDbEntity
  8
0
100
AcDbBlockBegin
  2
*D9
 70
     1
 10
0.0
 20
0.0
 30
0.0
  3
*D9
  1

  0
LINE
  5
3F
330
3E
100
AcDbEntity
  8
0
  6
ByBlock
 62
     0
100
AcDbLine
 10
0.0
 20
-129.15
 30
0.0
 11
0.0
 21
-193.9984361653425
 31
0.0
  0
LINE
  5
40
330
3E
100
AcDbEntity
  8
0
  6
ByBlock
 62
     0
100
AcDbLine
 10
270.0
 20
-93.15000000000003
 30
0.0
 11
270.0
 21
-193.9984361653425
 31
0.0
  0
LINE
  5
41
330
3E
100
AcDbEntity
  8
0
  6
ByBlock
 62
     0
100
AcDbLine
 10
4.0
 20
-190.9984361653425
 30
0.0
 11
266.0
 21
-190.9984361653425
 31
0.0
  0
SOLID
  5
42
330
3E
100
AcDbEntity
  8
0
  6
ByBlock
 62
     0
100
AcDbTrace
 10
4.0
 20
-190.3317694986759
 30
0.0
 11
4.0
 21
-191.6651028320092
 31
0.0
 12
0.0
 22
-190.9984361653425
 32
0.0
 13
0.0
 23
-190.9984361653425
 33
0.0
  0
SOLID
  5
43
330
3E
100
AcDbEntity
  8
0
  6
ByBlock
 62
     0
100
AcDbTrace
 10
266.0
 20
-190.3317694986759
 30
0.0
 11
266.0
 21
-191.6651028320092
 31
0.0
 12
270.0
 22
-190.9984361653425
 32
0.0
 13
270.0
 23
-190.9984361653425
 33
0.0
  0
TEXT
  5
44
330
3E
100
AcDbEntity
  8
0
  6
ByBlock
 62
     0
100
AcDbText
 10
129.8571428571428
 20
-189.1984361653425
 30
0.0
 40
3.6
  1
270
  7
ROMANS
 72
     1
 11
135.0
 21
-187.3984361653425
 31
0.0
100
AcDbText
 73
     2
  0
POINT
  5
45
330
3E
100
AcDbEntity
  8
DEFPOINTS
  6
ByBlock
 62
     0
100
AcDbPoint
 10
0.0
 20
-120.15
 30
0.0
  0
POINT
  5
46
330
3E
100
AcDbEntity
  8
DEFPOINTS
  6
ByBlock
 62
     0
100
AcDbPoint
 10
270.0
 20
-84.15000000000002
 30
0.0
  0
POINT
  5
47
330
3E
100
AcDbEntity
  8
DEFPOINTS
  6
ByBlock
 62
     0
100
AcDbPoint
 10
270.0
 20
-190.9984361653425
 30
0.0
  0
ENDBLK
  5
49
330
3E
100
AcDbEntity
  8
0
100
AcDbBlockEnd
  0
BLOCK
  5
3B
330
2E
100
AcDbEntity
  8
0
100
AcDbBlockBegin
  2
*D10
 70
     1
 10
0.0
 20
0.0
 30
0.0
  3
*D10
  1

  0
LINE
  5
2F
330
2E
100
AcDbEntity
  8
0
  6
ByBlock
 62
     0
100
AcDbLine
 10
0.0
 20
-129.15
 30
0.0
 11
0.0
 21
-205.9984361653425
 31
0.0
  0
LINE
  5
30
330
2E
100
AcDbEntity
  8
0
  6
ByBlock
 62
     0
100
AcDbLine
 10
300.0
 20
-96.24999999999992
 30
0.0
 11
300.0
 21
-205.9984361653425
 31
0.0
  0
LINE
  5
31
330
2E
100
AcDbEntity
  8
0
  6
ByBlock
 62
     0
100
AcDbLine
 10
4.0
 20
-202.9984361653425
 30
0.0
 11
296.0
 21
-202.9984361653425
 31
0.0
  0
SOLID
  5
32
330
2E
100
AcDbEntity
  8
0
  6
ByBlock
 62
     0
100
AcDbTrace
 10
4.0
 20
-202.3317694986758
 30
0.0
 11
4.0
 21
-203.6651028320092
 31
0.0
 12
0.0
 22
-202.9984361653425
 32
0.0
 13
0.0
 23
-202.9984361653425
 33
0.0
  0
SOLID
  5
33
330
2E
100
AcDbEntity
  8
0
  6
ByBlock
 62
     0
100
AcDbTrace
 10
296.0
 20
-202.3317694986758
 30
0.0
 11
296.0
 21
-203.6651028320092
 31
0.0
 12
300.0
 22
-202.9984361653425
 32
0.0
 13
300.0
 23
-202.9984361653425
 33
0.0
  0
TEXT
  5
34
330
2E
100
AcDbEntity
  8
0
  6
ByBlock
 62
     0
100
AcDbText
 10
144.8571428571428
 20
-201.1984361653425
 30
0.0
 40
3.6
  1
300
  7
ROMANS
 72
     1
 11
150.0
 21
-199.3984361653425
 31
0.0
100
AcDbText
 73
     2
  0
POINT
  5
35
330
2E
100
AcDbEntity
  8
DEFPOINTS
  6
ByBlock
 62
     0
100
AcDbPoint
 10
0.0
 20
-120.15
 30
0.0
  0
POINT
  5
39
330
2E
100
AcDbEntity
  8
DEFPOINTS
  6
ByBlock
 62
     0
100
AcDbPoint
 10
300.0
 20
-87.24999999999992
 30
0.0
  0
POINT
  5
3A
330
2E
100
AcDbEntity
  8
DEFPOINTS
  6
ByBlock
 62
     0
100
AcDbPoint
 10
300.0
 20
-202.9984361653425
 30
0.0
  0
ENDBLK
  5
3C
330
2E
100
AcDbEntity
  8
0
100
AcDbBlockEnd
  0
BLOCK
  5
F0
330
E5
100
AcDbEntity
  8
0
100
AcDbBlockBegin
  2
*D11
 70
     1
 10
0.0
 20
0.0
 30
0.0
  3
*D11
  1

  0
LINE
  5
E6
330
E5
100
AcDbEntity
  8
0
  6
ByBlock
 62
     0
100
AcDbLine
 10
-27.99999999999988
 20
-109.1073340807422
 30
0.0
 11
-27.99999999999988
 21
-182.0856329850624
 31
0.0
  0
LINE
  5
E7
330
E5
100
AcDbEntity
  8
0
  6
ByBlock
 62
     0
100
AcDbLine
 10
-19.99999999999988
 20
-109.1073340807422
 30
0.0
 11
-19.99999999999988
 21
-182.0856329850624
 31
0.0
  0
LINE
  5
E8
330
E5
100
AcDbEntity
  8
0
  6
ByBlock
 62
     0
100
AcDbLine
 10
-31.99999999999988
 20
-179.0856329850624
 30
0.0
 11
-35.99999999999988
 21
-179.0856329850624
 31
0.0
  0
LINE
  5
E9
330
E5
100
AcDbEntity
  8
0
  6
ByBlock
 62
     0
100
AcDbLine
 10
-15.99999999999988
 20
-179.0856329850624
 30
0.0
 11
-11.99999999999988
 21
-179.0856329850624
 31
0.0
  0
SOLID
  5
EA
330
E5
100
AcDbEntity
  8
0
  6
ByBlock
 62
     0
100
AcDbTrace
 10
-31.99999999999988
 20
-178.4189663183957
 30
0.0
 11
-31.99999999999988
 21
-179.752299651729
 31
0.0
 12
-27.99999999999988
 22
-179.0856329850624
 32
0.0
 13
-27.99999999999988
 23
-179.0856329850624
 33
0.0
  0
SOLID
  5
EB
330
E5
100
AcDbEntity
  8
0
  6
ByBlock
 62
     0
100
AcDbTrace
 10
-15.99999999999988
 20
-178.4189663183957
 30
0.0
 11
-15.99999999999988
 21
-179.752299651729
 31
0.0
 12
-19.99999999999988
 22
-179.0856329850624
 32
0.0
 13
-19.99999999999988
 23
-179.0856329850624
 33
0.0
  0
TEXT
  5
EC
330
E5
100
AcDbEntity
  8
0
  6
ByBlock
 62
     0
100
AcDbText
 10
-15.98829397958391
 20
-177.2856329850624
 30
0.0
 40
3.6
  1
8
  7
ROMANS
 72
     1
 11
-14.27400826529819
 21
-175.4856329850624
 31
0.0
100
AcDbText
 73
     2
  0
POINT
  5
ED
330
E5
100
AcDbEntity
  8
DEFPOINTS
  6
ByBlock
 62
     0
100
AcDbPoint
 10
-27.99999999999988
 20
-100.1073340807422
 30
0.0
  0
POINT
  5
EE
330
E5
100
AcDbEntity
  8
DEFPOINTS
  6
ByBlock
 62
     0
100
AcDbPoint
 10
-19.99999999999988
 20
-100.1073340807422
 30
0.0
  0
POINT
  5
EF
330
E5
100
AcDbEntity
  8
DEFPOINTS
  6
ByBlock
 62
     0
100
AcDbPoint
 10
-19.99999999999988
 20
-179.0856329850624
 30
0.0
  0
ENDBLK
  5
F1
330
E5
100
AcDbEntity
  8
0
100
AcDbBlockEnd
  0
BLOCK
  5
97
330
8D
100
AcDbEntity
  8
0
100
AcDbBlockBegin
  2
*D12
 70
     1
 10
0.0
 20
0.0
 30
0.0
  3
*D12
  1

  0
LINE
  5
8E
330
8D
100
AcDbEntity
  8
0
  6
ByBlock
 62
     0
100
AcDbLine
 10
-309.9999999999998
 20
-88.1073340807424
 30
0.0
 11
-309.9999999999998
 21
-205.9984361653425
 31
0.0
  0
LINE
  5
8F
330
8D
100
AcDbEntity
  8
0
  6
ByBlock
 62
     0
100
AcDbLine
 10
-19.99999999999988
 20
-109.1073340807422
 30
0.0
 11
-19.99999999999988
 21
-205.9984361653425
 31
0.0
  0
LINE
  5
90
330
8D
100
AcDbEntity
  8
0
  6
ByBlock
 62
     0
100
AcDbLine
 10
-305.9999999999998
 20
-202.9984361653425
 30
0.0
 11
-23.99999999999988
 21
-202.9984361653425
 31
0.0
  0
SOLID
  5
91
330
8D
100
AcDbEntity
  8
0
  6
ByBlock
 62
     0
100
AcDbTrace
 10
-305.9999999999998
 20
-202.3317694986758
 30
0.0
 11
-305.9999999999998
 21
-203.6651028320092
 31
0.0
 12
-309.9999999999998
 22
-202.9984361653425
 32
0.0
 13
-309.9999999999998
 23
-202.9984361653425
 33
0.0
  0
SOLID
  5
92
330
8D
100
AcDbEntity
  8
0
  6
ByBlock
 62
     0
100
AcDbTrace
 10
-23.99999999999988
 20
-202.3317694986758
 30
0.0
 11
-23.99999999999988
 21
-203.6651028320092
 31
0.0
 12
-19.99999999999988
 22
-202.9984361653425
 32
0.0
 13
-19.99999999999988
 23
-202.9984361653425
 33
0.0
  0
TEXT
  5
93
330
8D
100
AcDbEntity
  8
0
  6
ByBlock
 62
     0
100
AcDbText
 10
-170.142857142857
 20
-201.1984361653425
 30
0.0
 40
3.6
  1
290
  7
ROMANS
 72
     1
 11
-164.9999999999998
 21
-199.3984361653425
 31
0.0
100
AcDbText
 73
     2
  0
POINT
  5
94
330
8D
100
AcDbEntity
  8
DEFPOINTS
  6
ByBlock
 62
     0
100
AcDbPoint
 10
-309.9999999999998
 20
-79.10733408074239
 30
0.0
  0
POINT
  5
95
330
8D
100
AcDbEntity
  8
DEFPOINTS
  6
ByBlock
 62
     0
100
AcDbPoint
 10
-19.99999999999988
 20
-100.1073340807422
 30
0.0
  0
POINT
  5
96
330
8D
100
AcDbEntity
  8
DEFPOINTS
  6
ByBlock
 62
     0
100
AcDbPoint
 10
-19.99999999999988
 20
-202.9984361653425
 30
0.0
  0
ENDBLK
  5
98
330
8D
100
AcDbEntity
  8
0
100
AcDbBlockEnd
  0
BLOCK
  5
AB
330
A1
100
AcDbEntity
  8
0
100
AcDbBlockBegin
  2
*D13
 70
     1
 10
0.0
 20
0.0
 30
0.0
  3
*D13
  1

  0
LINE
  5
A2
330
A1
100
AcDbEntity
  8
0
  6
ByBlock
 62
     0
100
AcDbLine
 10
-19.99999999999988
 20
-109.1073340807422
 30
0.0
 11
-19.99999999999988
 21
-205.9984361653425
 31
0.0
  0
LINE
  5
A3
330
A1
100
AcDbEntity
  8
0
  6
ByBlock
 62
     0
100
AcDbLine
 10
0.0
 20
-129.15
 30
0.0
 11
0.0
 21
-205.9984361653425
 31
0.0
  0
LINE
  5
A4
330
A1
100
AcDbEntity
  8
0
  6
ByBlock
 62
     0
100
AcDbLine
 10
-15.99999999999988
 20
-202.9984361653425
 30
0.0
 11
-4.0
 21
-202.9984361653425
 31
0.0
  0
SOLID
  5
A5
330
A1
100
AcDbEntity
  8
0
  6
ByBlock
 62
     0
100
AcDbTrace
 10
-15.99999999999988
 20
-202.3317694986758
 30
0.0
 11
-15.99999999999988
 21
-203.6651028320092
 31
0.0
 12
-19.99999999999988
 22
-202.9984361653425
 32
0.0
 13
-19.99999999999988
 23
-202.9984361653425
 33
0.0
  0
SOLID
  5
A6
330
A1
100
AcDbEntity
  8
0
  6
ByBlock
 62
     0
100
AcDbTrace
 10
-4.0
 20
-202.3317694986758
 30
0.0
 11
-4.0
 21
-203.6651028320092
 31
0.0
 12
0.0
 22
-202.9984361653425
 32
0.0
 13
0.0
 23
-202.9984361653425
 33
0.0
  0
TEXT
  5
A7
330
A1
100
AcDbEntity
  8
0
  6
ByBlock
 62
     0
100
AcDbText
 10
-13.42857142857137
 20
-201.1984361653425
 30
0.0
 40
3.6
  1
20
  7
ROMANS
 72
     1
 11
-9.999999999999943
 21
-199.3984361653425
 31
0.0
100
AcDbText
 73
     2
  0
POINT
  5
A8
330
A1
100
AcDbEntity
  8
DEFPOINTS
  6
ByBlock
 62
     0
100
AcDbPoint
 10
-19.99999999999988
 20
-100.1073340807422
 30
0.0
  0
POINT
  5
A9
330
A1
100
AcDbEntity
  8
DEFPOINTS
  6
ByBlock
 62
     0
100
AcDbPoint
 10
0.0
 20
-120.15
 30
0.0
  0
POINT
  5
AA
330
A1
100
AcDbEntity
  8
DEFPOINTS
  6
ByBlock
 62
     0
100
AcDbPoint
 10
0.0
 20
-202.9984361653425
 30
0.0
  0
ENDBLK
  5
AC
330
A1
100
AcDbEntity
  8
0
100
AcDbBlockEnd
  0
BLOCK
  5
89
330
80
100
AcDbEntity
  8
0
 62
     1
100
AcDbBlockBegin
  2
A$C6BE937E7
 70
     0
 10
0.0
 20
0.0
 30
0.0
  3
A$C6BE937E7
  1

  0
TEXT
  5
81
330
80
100
AcDbEntity
  8
SPECD
 62
     6
100
AcDbText
 10
4.668392196768905
 20
18.71588358345923
 30
0.0
 40
5.0
  1
AND 20mm-JOINT. AND UNFREEZE DESIRED NEW 
  7
ROMANS
 72
     4
 11
102.5255350539117
 21
21.21588358345923
 31
0.0
100
AcDbText
  0
LINE
  5
82
330
80
100
AcDbEntity
  8
SPECD
 62
     6
100
AcDbLine
 10
0.0000004097963711
 20
53.03369301694681
 30
0.0
 11
202.4869505164367
 21
53.03369301694681
 31
0.0
  0
LINE
  5
83
330
80
100
AcDbEntity
  8
SPECD
 62
     6
100
AcDbLine
 10
0.0000004097963711
 20
0.0000004313964723
 30
0.0
 11
202.4869505164367
 21
0.0000004313964723
 31
0.0
  0
TEXT
  5
84
330
80
100
AcDbEntity
  8
SPECD
 62
     6
100
AcDbText
 10
4.207581425801549
 20
28.3361790613278
 30
0.0
 40
5.0
  1
FOR OTHER WIDTHS, FREEZE LAYERS 20mm-DIMS
  7
ROMANS
 72
     4
 11
101.3504385686587
 21
30.35998858513733
 31
0.0
100
AcDbText
  0
TEXT
  5
85
330
80
100
AcDbEntity
  8
SPECD
 62
     6
100
AcDbText
 10
4.215424032625506
 20
43.79289347717675
 30
0.0
 40
5.0
  1
DRAWING SHOWS 20mm JOINT.
  7
ROMANS
 72
     4
 11
63.73923355643501
 21
46.29289347717675
 31
0.0
100
AcDbText
  0
TEXT
  5
86
330
80
100
AcDbEntity
  8
SPECD
 62
     6
100
AcDbText
 10
4.481432930145061
 20
8.212600757984517
 30
0.0
 40
5.0
  1
JOINT AND DIMS LAYERS.
  7
ROMANS
 72
     4
 11
52.33857578728794
 21
10.71260075798451
 31
0.0
100
AcDbText
  0
LINE
  5
87
330
80
100
AcDbEntity
  8
SPECD
 62
     6
100
AcDbLine
 10
0.0000004097963711
 20
53.03369301694681
 30
0.0
 11
0.0000004097963711
 21
0.0000004313964723
 31
0.0
  0
LINE
  5
88
330
80
100
AcDbEntity
  8
SPECD
 62
     6
100
AcDbLine
 10
202.4869505164367
 20
53.03369301694681
 30
0.0
 11
202.4869505164367
 21
0.0000004313964723
 31
0.0
  0
ENDBLK
  5
8A
330
80
100
AcDbEntity
  8
0
 62
     1
100
AcDbBlockEnd
  0
ENDSEC
  0
SECTION
  2
ENTITIES
  0
DIMENSION
  5
2D
330
2
100
AcDbEntity
  8
DIMS
100
AcDbDimension
  2
*D10
 10
300.0
 20
-202.9984361653425
 30
0.0
 11
150.0
 21
-199.3984361653425
 31
0.0
 71
     5
 42
-1.0
  3
1-2
100
AcDbAlignedDimension
 13
0.0
 23
-120.15
 33
0.0
 14
300.0
 24
-87.24999999999992
 34
0.0
100
AcDbRotatedDimension
  0
DIMENSION
  5
3D
330
2
100
AcDbEntity
  8
DIMS
100
AcDbDimension
  2
*D9
 10
270.0
 20
-190.9984361653425
 30
0.0
 11
135.0
 21
-187.3984361653425
 31
0.0
 71
     5
 42
-1.0
  3
1-2
100
AcDbAlignedDimension
 13
0.0
 23
-120.15
 33
0.0
 14
270.0
 24
-84.15000000000002
 34
0.0
100
AcDbRotatedDimension
  0
LINE
  5
4A
330
2
100
AcDbEntity
  8
ANCON-DSD
  6
Continuous
100
AcDbLine
 10
305.0
 20
-87.24999999999992
 30
0.0
 11
4.0
 21
-87.24999999999992
 31
0.0
  0
LINE
  5
4C
330
2
100
AcDbEntity
  8
ANCON-DSD
  6
Continuous
100
AcDbLine
 10
305.0
 20
-32.74999999999993
 30
0.0
 11
4.0
 21
-32.74999999999991
 31
0.0
  0
LINE
  5
4D
330
2
100
AcDbEntity
  8
ANCON-DSD
  6
Continuous
100
AcDbLine
 10
305.0
 20
32.74999999999995
 30
0.0
 11
4.0
 21
32.74999999999993
 31
0.0
  0
LINE
  5
4E
330
2
100
AcDbEntity
  8
ANCON-DSD
  6
Continuous
100
AcDbLine
 10
305.0
 20
87.24999999999996
 30
0.0
 11
4.0
 21
87.24999999999992
 31
0.0
  0
TEXT
  5
4F
330
2
100
AcDbEntity
  8
SPECD
 62
     1
100
AcDbText
 10
37.42695121125618
 20
190.1220280807073
 30
0.0
 40
5.0
  1
SPECIFICATION BY DESCRIPTION
  7
ROMANS
 72
     4
 11
97.06980835411332
 21
192.6220280807074
 31
0.0
100
AcDbText
  0
TEXT
  5
51
330
2
100
AcDbEntity
  8
SPECD
 62
     1
100
AcDbText
 10
37.28331460162988
 20
220.0564825452035
 30
0.0
 40
5.0
  1
SPECIFICATION BY PRODUCT
  7
ROMANS
 72
     4
 11
90.73569555401082
 21
222.5564825452035
 31
0.0
100
AcDbText
  0
LINE
  5
52
330
2
100
AcDbEntity
  8
10MM-JOINT
  6
HIDDEN
 62
     3
100
AcDbLine
 10
0.000000000000035
 20
-81.10733408074233
 30
0.0
 11
257.9999999999997
 21
-81.10733408074372
 31
0.0
  0
LINE
  5
55
330
2
100
AcDbEntity
  8
10MM-JOINT
  6
HIDDEN
 62
     3
100
AcDbLine
 10
0.0000000000000292
 20
-39.10733408074245
 30
0.0
 11
258.0
 21
-39.10733408074385
 31
0.0
  0
LINE
  5
56
330
2
100
AcDbEntity
  8
10MM-JOINT
  6
HIDDEN
 62
     3
100
AcDbLine
 10
0.0000000000000185
 20
38.89266591925754
 30
0.0
 11
257.9999999999997
 21
38.89266591925754
 31
0.0
  0
LINE
  5
57
330
2
100
AcDbEntity
  8
10MM-JOINT
  6
HIDDEN
 62
     3
100
AcDbLine
 10
0.0000000000000127
 20
80.89266591925754
 30
0.0
 11
257.9999999999997
 21
80.89266591925754
 31
0.0
  0
DIMENSION
  5
58
330
2
100
AcDbEntity
  8
DIMS
100
AcDbDimension
  2
*D1
 10
421.0398490803474
 20
120.15
 30
0.0
 11
417.4398490803474
 21
0.0
 31
0.0
  1
240
 71
     5
 42
-1.0
  3
1-2
100
AcDbAlignedDimension
 13
4.0
 23
-120.15
 33
0.0
 14
4.0
 24
120.15
 34
0.0
 50
90.0
100
AcDbRotatedDimension
  0
CIRCLE
  5
65
330
2
100
AcDbEntity
  8
ANCON-DSD
100
AcDbCircle
 10
53.99999999999987
 20
-0.0000000000000142
 30
0.0
 40
7.0
  0
LINE
  5
66
330
2
100
AcDbEntity
  8
ANCON-DSD
  6
CENTER2
 62
     1
100
AcDbLine
 10
65.99999999999987
 20
-0.0000000000000142
 30
0.0
 11
41.99999999999987
 21
-0.0000000000000142
 31
0.0
  0
LINE
  5
68
330
2
100
AcDbEntity
  8
ANCON-DSD
  6
HIDDEN
100
AcDbLine
 10
269.9999999999999
 20
-35.85
 30
0.0
 11
4.0
 21
-35.85
 31
0.0
  0
LINE
  5
69
330
2
100
AcDbEntity
  8
ANCON-DSD
  6
HIDDEN
100
AcDbLine
 10
269.9999999999999
 20
-84.15000000000002
 30
0.0
 11
4.0
 21
-84.15000000000004
 31
0.0
  0
LINE
  5
6A
330
2
100
AcDbEntity
  8
ANCON-DSD
  6
CENTER2
 62
     1
100
AcDbLine
 10
305.0
 20
-59.99999999999992
 30
0.0
 11
-0.0000000000000047
 21
-59.99999999999992
 31
0.0
  0
LINE
  5
6B
330
2
100
AcDbEntity
  8
ANCON-DSD
  6
HIDDEN
100
AcDbLine
 10
269.9999999999999
 20
84.15
 30
0.0
 11
4.0
 21
84.15000000000002
 31
0.0
  0
LINE
  5
6C
330
2
100
AcDbEntity
  8
ANCON-DSD
  6
HIDDEN
100
AcDbLine
 10
269.9999999999999
 20
35.85
 30
0.0
 11
4.0
 21
35.85
 31
0.0
  0
LINE
  5
6D
330
2
100
AcDbEntity
  8
ANCON-DSD
  6
CENTER2
 62
     1
100
AcDbLine
 10
304.9999999999997
 20
59.99999999999996
 30
0.0
 11
0.0000000000000046
 21
59.99999999999992
 31
0.0
  0
CIRCLE
  5
6E
330
2
100
AcDbEntity
  8
10MM-JOINT
 62
     3
100
AcDbCircle
 10
-53.0
 20
-0.000000000000199
 30
0.0
 40
7.5
  0
CIRCLE
  5
6F
330
2
100
AcDbEntity
  8
10MM-JOINT
 62
     3
100
AcDbCircle
 10
-118.0
 20
-0.000000000000199
 30
0.0
 40
7.5
  0
LINE
  5
70
330
2
100
AcDbEntity
  8
10MM-JOINT
  6
CENTER
 62
     1
100
AcDbLine
 10
-118.0
 20
12.4999999999998
 30
0.0
 11
-118.0
 21
-12.50000000000019
 31
0.0
  0
LINE
  5
72
330
2
100
AcDbEntity
  8
10MM-JOINT
  6
CENTER
 62
     1
100
AcDbLine
 10
-53.0
 20
12.4999999999998
 30
0.0
 11
-53.0
 21
-12.50000000000019
 31
0.0
  0
LINE
  5
73
330
2
100
AcDbEntity
  8
10MM-JOINT
 62
     3
100
AcDbLine
 10
-138.0
 20
38.89266591925755
 30
0.0
 11
-138.0
 21
-39.10733408074233
 31
0.0
  0
LINE
  5
74
330
2
100
AcDbEntity
  8
10MM-JOINT
 62
     3
100
AcDbLine
 10
-10.0
 20
99.89266591925755
 30
0.0
 11
-10.0
 21
-100.1073340807423
 31
0.0
  0
LINE
  5
75
330
2
100
AcDbEntity
  8
10MM-JOINT
 62
     3
100
AcDbLine
 10
-18.0
 20
99.89266591925755
 30
0.0
 11
-18.0
 21
-100.1073340807423
 31
0.0
  0
LINE
  5
76
330
2
100
AcDbEntity
  8
ANCON-DSD
  6
CENTER2
 62
     1
100
AcDbLine
 10
53.99999999999998
 20
11.99999999999998
 30
0.0
 11
53.99999999999998
 21
-12.00000000000001
 31
0.0
  0
LINE
  5
77
330
2
100
AcDbEntity
  8
ANCON-DSD
100
AcDbLine
 10
0.0
 20
120.15
 30
0.0
 11
0.0
 21
-120.15
 31
0.0
  0
LINE
  5
78
330
2
100
AcDbEntity
  8
ANCON-DSD
100
AcDbLine
 10
4.0
 20
120.15
 30
0.0
 11
4.0
 21
-120.15
 31
0.0
  0
LINE
  5
79
330
2
100
AcDbEntity
  8
ANCON-DSD
100
AcDbLine
 10
4.0
 20
38.35
 30
0.0
 11
4.0
 21
-38.35
 31
0.0
  0
LINE
  5
7C
330
2
100
AcDbEntity
  8
10MM-JOINT
 62
     2
100
AcDbLine
 10
-9.999999999999943
 20
-240.2728586436023
 30
0.0
 11
-10.0
 21
173.297501804489
 31
0.0
  0
LINE
  5
7D
330
2
100
AcDbEntity
  8
CONCRETE
100
AcDbLine
 10
0.0000000000000568
 20
-240.2728586436023
 30
0.0
 11
0.0
 21
173.297501804489
 31
0.0
  0
DIMENSION
  5
8B
330
2
100
AcDbEntity
  8
20MM-DIMS
100
AcDbDimension
  2
*D12
 10
-19.99999999999988
 20
-202.9984361653425
 30
0.0
 11
-164.9999999999998
 21
-199.3984361653425
 31
0.0
 71
     5
 42
-1.0
  3
1-2
100
AcDbAlignedDimension
 13
-309.9999999999998
 23
-79.10733408074239
 33
0.0
 14
-19.99999999999988
 24
-100.1073340807422
 34
0.0
100
AcDbRotatedDimension
  0
LINE
  5
99
330
2
100
AcDbEntity
  8
10MM-JOINT
  6
CENTER2
 62
     1
100
AcDbLine
 10
0.0
 20
-59.99999999999992
 30
0.0
 11
-310.0000000000001
 21
-59.99999999999991
 31
0.0
  0
LINE
  5
9A
330
2
100
AcDbEntity
  8
10MM-JOINT
  6
Continuous
 62
     3
100
AcDbLine
 10
-298.0000000000001
 20
-81.10733408074244
 30
0.0
 11
-18.0
 21
-81.10733408074233
 31
0.0
  0
LINE
  5
9B
330
2
100
AcDbEntity
  8
10MM-JOINT
  6
Continuous
 62
     3
100
AcDbLine
 10
-298.0000000000001
 20
-39.10733408074245
 30
0.0
 11
-18.0
 21
-39.10733408074233
 31
0.0
  0
LINE
  5
9C
330
2
100
AcDbEntity
  8
10MM-JOINT
 62
     3
100
AcDbLine
 10
-298.0000000000001
 20
-39.10733408074245
 30
0.0
 11
-298.0000000000001
 21
-81.10733408074244
 31
0.0
  0
LINE
  5
9D
330
2
100
AcDbEntity
  8
10MM-JOINT
 62
     3
100
AcDbLine
 10
-300.0000000000001
 20
-41.10733408074233
 30
0.0
 11
-300.0000000000001
 21
-79.10733408074245
 31
0.0
  0
LINE
  5
9E
330
2
100
AcDbEntity
  8
10MM-JOINT
 62
     3
100
AcDbLine
 10
-300.0000000000001
 20
-79.10733408074245
 30
0.0
 11
-298.0000000000001
 21
-81.10733408074244
 31
0.0
  0
LINE
  5
9F
330
2
100
AcDbEntity
  8
10MM-JOINT
 62
     3
100
AcDbLine
 10
-298.0000000000001
 20
-39.10733408074245
 30
0.0
 11
-300.0000000000001
 21
-41.10733408074245
 31
0.0
  0
DIMENSION
  5
A0
330
2
100
AcDbEntity
  8
20MM-DIMS
100
AcDbDimension
  2
*D13
 10
0.0
 20
-202.9984361653425
 30
0.0
 11
-9.999999999999943
 21
-199.3984361653425
 31
0.0
 71
     5
 42
-1.0
  3
1-2
100
AcDbAlignedDimension
 13
-19.99999999999988
 23
-100.1073340807422
 33
0.0
 14
0.0
 24
-120.15
 34
0.0
100
AcDbRotatedDimension
  0
DIMENSION
  5
AD
330
2
100
AcDbEntity
  8
20MM-DIMS
100
AcDbDimension
  2
*D3
 10
-27.99999999999988
 20
-179.0856329850624
 30
0.0
 11
-45.49999999999985
 21
-175.4856329850624
 31
0.0
 71
     5
 42
-1.0
  3
1-2
100
AcDbAlignedDimension
 13
-62.99999999999982
 23
-12.50000000000014
 33
0.0
 14
-27.99999999999988
 24
-100.1073340807422
 34
0.0
100
AcDbRotatedDimension
  0
DIMENSION
  5
BA
330
2
100
AcDbEntity
  8
20MM-DIMS
100
AcDbDimension
  2
*D2
 10
-62.99999999999982
 20
-179.0856329850624
 30
0.0
 11
-95.49999999999981
 21
-175.4856329850624
 31
0.0
 71
     5
 42
-1.0
  3
1-2
100
AcDbAlignedDimension
 13
-127.9999999999997
 23
-12.50000000000014
 33
0.0
 14
-62.99999999999982
 24
-12.50000000000014
 34
0.0
100
AcDbRotatedDimension
  0
DIMENSION
  5
C7
330
2
100
AcDbEntity
  8
DIMS
100
AcDbDimension
  2
*D8
 10
53.99999999999998
 20
-179.0856329850624
 30
0.0
 11
28.99999999999999
 21
-175.4856329850624
 31
0.0
 71
     5
 42
-1.0
  3
1-2
100
AcDbAlignedDimension
 13
4.0
 23
-120.15
 33
0.0
 14
53.99999999999998
 24
-12.00000000000001
 34
0.0
100
AcDbRotatedDimension
  0
LINE
  5
D4
330
2
100
AcDbEntity
  8
ANCON-DSD
100
AcDbLine
 10
4.0
 20
-81.65000000000004
 30
0.0
 11
4.0
 21
-120.15
 31
0.0
  0
DIMENSION
  5
D5
330
2
100
AcDbEntity
  8
DIMS
100
AcDbDimension
  2
*D7
 10
4.0
 20
-179.0856329850624
 30
0.0
 11
13.48571428571428
 21
-175.4856329850624
 31
0.0
 71
     5
 42
-1.0
  3
1-2
100
AcDbAlignedDimension
 13
0.0
 23
-120.15
 33
0.0
 14
4.0
 24
-120.15
 34
0.0
100
AcDbRotatedDimension
  0
DIMENSION
  5
E4
330
2
100
AcDbEntity
  8
20MM-DIMS
100
AcDbDimension
  2
*D11
 10
-19.99999999999988
 20
-179.0856329850624
 30
0.0
 11
-14.27400826529819
 21
-175.4856329850624
 31
0.0
 70
   128
 71
     5
 42
-1.0
  3
1-2
100
AcDbAlignedDimension
 13
-27.99999999999988
 23
-100.1073340807422
 33
0.0
 14
-19.99999999999988
 24
-100.1073340807422
 34
0.0
100
AcDbRotatedDimension
  0
LINE
  5
F2
330
2
100
AcDbEntity
  8
10MM-JOINT
 62
     3
100
AcDbLine
 10
-18.0
 20
-100.1073340807423
 30
0.0
 11
-10.0
 21
-100.1073340807423
 31
0.0
  0
LINE
  5
F3
330
2
100
AcDbEntity
  8
ANCON-DSD
100
AcDbLine
 10
4.0
 20
-120.15
 30
0.0
 11
0.0
 21
-120.15
 31
0.0
  0
LINE
  5
F4
330
2
100
AcDbEntity
  8
ANCON-DSD
100
AcDbLine
 10
4.0
 20
-120.15
 30
0.0
 11
0.0
 21
-120.15
 31
0.0
  0
LINE
  5
F5
330
2
100
AcDbEntity
  8
10MM-JOINT
  6
Continuous
 62
     3
100
AcDbLine
 10
-10.0
 20
-39.10733408074245
 30
0.0
 11
0.0000000000000292
 21
-39.10733408074245
 31
0.0
  0
LINE
  5
F6
330
2
100
AcDbEntity
  8
10MM-JOINT
  6
Continuous
 62
     3
100
AcDbLine
 10
-10.0
 20
-81.10733408074233
 30
0.0
 11
0.000000000000035
 21
-81.10733408074233
 31
0.0
  0
TEXT
  5
F7
330
2
100
AcDbEntity
  8
10MM-JOINT
 62
     6
100
AcDbText
 10
-173.3312292162061
 20
218.3128039030437
 30
0.0
 40
5.0
  1
DESIGN JOINT
  7
ROMANS
 72
     4
 11
-147.2598006447775
 21
220.8128039030437
 31
0.0
100
AcDbText
  0
LINE
  5
F8
330
2
100
AcDbEntity
  8
10MM-JOINT
 62
     6
100
AcDbLine
 10
-228.434897581095
 20
175.4802739284925
 30
0.0
 11
-53.05621988923258
 21
175.4802739284925
 31
0.0
  0
LINE
  5
F9
330
2
100
AcDbEntity
  8
10MM-JOINT
 62
     6
100
AcDbLine
 10
-228.434897581095
 20
202.5077590035396
 30
0.0
 11
-53.05621988923255
 21
202.5077590035396
 31
0.0
  0
LINE
  5
FA
330
2
100
AcDbEntity
  8
10MM-JOINT
 62
     6
100
AcDbLine
 10
-228.434897581095
 20
228.5785200625853
 30
0.0
 11
-53.05621988923258
 21
228.5785200625853
 31
0.0
  0
LINE
  5
FB
330
2
100
AcDbEntity
  8
10MM-JOINT
  6
CENTER2
 62
     1
100
AcDbLine
 10
0.0
 20
59.99999999999992
 30
0.0
 11
-310.0000000000001
 21
59.99999999999989
 31
0.0
  0
LINE
  5
FC
330
2
100
AcDbEntity
  8
10MM-JOINT
  6
Continuous
 62
     3
100
AcDbLine
 10
-298.0000000000001
 20
80.89266591925754
 30
0.0
 11
-18.0
 21
80.89266591925754
 31
0.0
  0
LINE
  5
FD
330
2
100
AcDbEntity
  8
10MM-JOINT
  6
Continuous
 62
     3
100
AcDbLine
 10
-298.0000000000001
 20
38.89266591925755
 30
0.0
 11
-18.0
 21
38.89266591925755
 31
0.0
  0
LINE
  5
FE
330
2
100
AcDbEntity
  8
10MM-JOINT
 62
     6
100
AcDbLine
 10
-178.434897581095
 20
228.5785200625853
 30
0.0
 11
-178.434897581095
 21
175.4802739284925
 31
0.0
  0
LINE
  5
FF
330
2
100
AcDbEntity
  8
10MM-JOINT
 62
     6
100
AcDbLine
 10
-228.434897581095
 20
228.5785200625853
 30
0.0
 11
-228.434897581095
 21
175.4802739284925
 31
0.0
  0
LINE
  5
100
330
2
100
AcDbEntity
  8
10MM-JOINT
 62
     3
100
AcDbLine
 10
-298.0000000000001
 20
80.89266591925754
 30
0.0
 11
-298.0000000000001
 21
38.89266591925755
 31
0.0
  0
LINE
  5
101
330
2
100
AcDbEntity
  8
10MM-JOINT
 62
     3
100
AcDbLine
 10
-300.0000000000001
 20
78.89266591925755
 30
0.0
 11
-300.0000000000001
 21
40.89266591925755
 31
0.0
  0
LINE
  5
102
330
2
100
AcDbEntity
  8
10MM-JOINT
 62
     3
100
AcDbLine
 10
-298.0000000000001
 20
38.89266591925755
 30
0.0
 11
-300.0000000000001
 21
40.89266591925755
 31
0.0
  0
LINE
  5
103
330
2
100
AcDbEntity
  8
10MM-JOINT
 62
     3
100
AcDbLine
 10
-300.0000000000001
 20
78.89266591925755
 30
0.0
 11
-298.0000000000001
 21
80.89266591925754
 31
0.0
  0
TEXT
  5
104
330
2
100
AcDbEntity
  8
10MM-JOINT
 62
     6
100
AcDbText
 10
-221.2425134320236
 20
218.3128039030437
 30
0.0
 40
5.0
  1
DSD REF:
  7
ROMANS
 72
     4
 11
-203.2663229558332
 21
220.8128039030437
 31
0.0
100
AcDbText
  0
TEXT
  5
105
330
2
100
AcDbEntity
  8
10MM-JOINT
 62
     6
100
AcDbText
 10
-221.8113382309711
 20
186.5339262596863
 30
0.0
 40
5.0
  1
DSDQ150
  7
ROMANS
 72
     4
 11
-204.5494334690663
 21
188.7958310215911
 31
0.0
100
AcDbText
  0
LINE
  5
106
330
2
100
AcDbEntity
  8
10MM-JOINT
 62
     6
100
AcDbLine
 10
-53.05621988923258
 20
228.5785200625853
 30
0.0
 11
-53.05621988923258
 21
175.4802739284925
 31
0.0
  0
LINE
  5
107
330
2
100
AcDbEntity
  8
10MM-JOINT
 62
     6
100
AcDbLine
 10
-117.9268040240322
 20
228.5785200625853
 30
0.0
 11
-117.9268040240322
 21
175.4802739284925
 31
0.0
  0
LINE
  5
108
330
2
100
AcDbEntity
  8
10MM-JOINT
  6
CENTER
 62
     1
100
AcDbLine
 10
-65.5
 20
-0.000000000000199
 30
0.0
 11
-40.49999999999999
 21
-0.000000000000199
 31
0.0
  0
LINE
  5
109
330
2
100
AcDbEntity
  8
10MM-JOINT
  6
CENTER
 62
     1
100
AcDbLine
 10
-130.4999999999999
 20
-0.000000000000199
 30
0.0
 11
-105.4999999999999
 21
-0.000000000000199
 31
0.0
  0
LINE
  5
10A
330
2
100
AcDbEntity
  8
ANCON-DSD
100
AcDbLine
 10
4.0
 20
120.15
 30
0.0
 11
4.0
 21
81.65000000000002
 31
0.0
  0
LINE
  5
10B
330
2
100
AcDbEntity
  8
10MM-JOINT
  6
Continuous
 62
     3
100
AcDbLine
 10
-10.0
 20
80.89266591925754
 30
0.0
 11
0.0000000000000127
 21
80.89266591925754
 31
0.0
  0
LINE
  5
10C
330
2
100
AcDbEntity
  8
10MM-JOINT
  6
Continuous
 62
     3
100
AcDbLine
 10
-10.0
 20
38.89266591925755
 30
0.0
 11
0.0000000000000185
 21
38.89266591925754
 31
0.0
  0
LINE
  5
10D
330
2
100
AcDbEntity
  8
10MM-JOINT
 62
     3
100
AcDbLine
 10
-10.0
 20
99.89266591925755
 30
0.0
 11
-18.0
 21
99.89266591925755
 31
0.0
  0
LINE
  5
10E
330
2
100
AcDbEntity
  8
ANCON-DSD
100
AcDbLine
 10
4.0
 20
120.15
 30
0.0
 11
0.0
 21
120.15
 31
0.0
  0
LINE
  5
10F
330
2
100
AcDbEntity
  8
ANCON-DSD
100
AcDbLine
 10
0.0
 20
120.15
 30
0.0
 11
4.0
 21
120.15
 31
0.0
  0
TEXT
  5
110
330
2
100
AcDbEntity
  8
10MM-JOINT
 62
     6
100
AcDbText
 10
-112.4065763262092
 20
218.3176344001753
 30
0.0
 40
5.0
  1
SERVICEABILITY
  7
ROMANS
 72
     4
 11
-84.54943346906636
 21
220.8176344001753
 31
0.0
100
AcDbText
  0
TEXT
  5
111
330
2
100
AcDbEntity
  8
10MM-JOINT
 62
     6
100
AcDbText
 10
-157.8550387400156
 20
207.4151805154247
 30
0.0
 40
5.0
  1
WIDTH
  7
ROMANS
 72
     4
 11
-147.2598006447775
 21
209.9151805154247
 31
0.0
100
AcDbText
  0
TEXT
  5
112
330
2
100
AcDbEntity
  8
10MM-JOINT
 62
     6
100
AcDbText
 10
-157.763719183352
 20
186.295831021591
 30
0.0
 40
5.0
  1
10 MM
  7
ROMANS
 72
     4
 11
-144.5494334690663
 21
188.7958310215911
 31
0.0
100
AcDbText
  0
TEXT
  5
113
330
2
100
AcDbEntity
  8
10MM-JOINT
 62
     6
100
AcDbText
 10
-109.3113382309711
 20
207.3743554615969
 30
0.0
 40
5.0
  1
LOAD ( kN )
  7
ROMANS
 72
     4
 11
-84.54943346906636
 21
209.517212604454
 31
0.0
100
AcDbText
  0
TEXT
  5
114
330
2
100
AcDbEntity
  8
10MM-JOINT
 62
     6
100
AcDbText
 10
-95.62086204049494
 20
186.295831021591
 30
0.0
 40
5.0
  1
151.8
  7
ROMANS
 72
     4
 11
-84.54943346906636
 21
188.7958310215911
 31
0.0
100
AcDbText
  0
DIMENSION
  5
115
330
2
100
AcDbEntity
  8
DIMS
100
AcDbDimension
  2
*D4
 10
342.2056885573766
 20
32.74999999999995
 30
0.0
 11
338.6056885573766
 21
0.0000000000000142
 31
0.0
  1
65
 71
     5
 42
-1.0
  3
1-2
100
AcDbAlignedDimension
 13
305.0
 23
-32.74999999999993
 33
0.0
 14
305.0
 24
32.74999999999995
 34
0.0
 50
90.0
100
AcDbRotatedDimension
  0
LINE
  5
122
330
2
100
AcDbEntity
  8
ANCON-DSD
100
AcDbLine
 10
104.0
 20
32.74999999999993
 30
0.0
 11
104.0
 21
-32.74999999999992
 31
0.0
  0
DIMENSION
  5
123
330
2
100
AcDbEntity
  8
DIMS
100
AcDbDimension
  2
*D0
 10
386.4956103424335
 20
59.99999999999996
 30
0.0
 11
382.8956103424335
 21
0.0000000000000142
 31
0.0
 71
     5
 42
-1.0
  3
1-2
100
AcDbAlignedDimension
 13
305.0
 23
-59.99999999999992
 33
0.0
 14
304.9999999999997
 24
59.99999999999996
 34
0.0
 50
90.0
100
AcDbRotatedDimension
  0
LINE
  5
130
330
2
100
AcDbEntity
  8
ANCON-DSD
  6
HIDDEN
100
AcDbLine
 10
270.0
 20
-35.85
 30
0.0
 11
270.0
 21
-84.15000000000002
 31
0.0
  0
LINE
  5
131
330
2
100
AcDbEntity
  8
10MM-JOINT
  6
HIDDEN
 62
     3
100
AcDbLine
 10
258.0
 20
-39.10733408074245
 30
0.0
 11
257.9999999999997
 21
-81.10733408074233
 31
0.0
  0
LINE
  5
132
330
2
100
AcDbEntity
  8
10MM-JOINT
  6
HIDDEN
 62
     3
100
AcDbLine
 10
260.0
 20
-41.10733408074233
 30
0.0
 11
259.9999999999997
 21
-79.10733408074221
 31
0.0
  0
LINE
  5
133
330
2
100
AcDbEntity
  8
10MM-JOINT
  6
HIDDEN
 62
     3
100
AcDbLine
 10
257.9999999999997
 20
-81.10733408074244
 30
0.0
 11
259.9999999999997
 21
-79.10733408074245
 31
0.0
  0
LINE
  5
134
330
2
100
AcDbEntity
  8
10MM-JOINT
  6
HIDDEN
 62
     3
100
AcDbLine
 10
258.0
 20
-39.10733408074245
 30
0.0
 11
260.0
 21
-41.10733408074245
 31
0.0
  0
DIMENSION
  5
135
330
2
100
AcDbEntity
  8
DIMS
100
AcDbDimension
  2
*D6
 10
342.2056885573766
 20
-59.99999999999992
 30
0.0
 11
338.6056885573766
 21
-73.62499999999993
 31
0.0
  1
27.25
 71
     5
 42
-1.0
  3
1-2
100
AcDbAlignedDimension
 13
305.0
 23
-87.24999999999992
 33
0.0
 14
305.0
 24
-59.99999999999992
 34
0.0
 50
90.0
100
AcDbRotatedDimension
  0
LINE
  5
142
330
2
100
AcDbEntity
  8
ANCON-DSD
  6
Continuous
100
AcDbLine
 10
305.0
 20
-32.74999999999993
 30
0.0
 11
305.0
 21
-87.24999999999992
 31
0.0
  0
LINE
  5
143
330
2
100
AcDbEntity
  8
ANCON-DSD
  6
Continuous
100
AcDbLine
 10
300.0
 20
-32.74999999999993
 30
0.0
 11
300.0
 21
-87.24999999999992
 31
0.0
  0
TEXT
  5
144
330
2
100
AcDbEntity
  8
SPECD
 62
     6
100
AcDbText
 10
169.1474200973823
 20
190.0862794541831
 30
0.0
 40
5.0
  1
TWO PART STAINLESS STEEL SHEAR CONNECTOR
  7
ROMANS
 72
     4
 11
261.7664677164301
 21
192.5862794541831
 31
0.0
100
AcDbText
  0
TEXT
  5
145
330
2
100
AcDbEntity
  8
SPECD
 62
     6
100
AcDbText
 10
168.4262356913265
 20
179.9815671283925
 30
0.0
 40
5.0
  1
COMPRISING SLEEVE AND DOWEL COMPONENT
  7
ROMANS
 72
     4
 11
256.4024261675171
 21
182.4815671283925
 31
0.0
100
AcDbText
  0
TEXT
  5
146
330
2
100
AcDbEntity
  8
SPECD
 62
     6
100
AcDbText
 10
168.9393676213342
 20
160.0313620047937
 30
0.0
 40
5.0
  1
AND CAPABLE OF TRANSFERRING A SERVICEABILITY
  7
ROMANS
 72
     4
 11
266.3203200022866
 21
162.5313620047937
 31
0.0
100
AcDbText
  0
LINE
  5
147
330
2
100
AcDbEntity
  8
SPECD
 62
     6
100
AcDbLine
 10
164.8556868925427
 20
146.2933864084028
 30
0.0
 11
367.3426369991831
 21
146.2933864084028
 31
0.0
  0
LINE
  5
148
330
2
100
AcDbEntity
  8
SPECD
 62
     6
100
AcDbLine
 10
164.8556868925427
 20
199.3270789939532
 30
0.0
 11
367.3426369991831
 21
199.3270789939532
 31
0.0
  0
TEXT
  5
149
330
2
100
AcDbEntity
  8
SPECD
 62
     6
100
AcDbText
 10
168.4849324513841
 20
170.0804194187227
 30
0.0
 40
5.0
  1
SUITABLE FOR A DESIGN JOINT WIDTH OF ?? MM
  7
ROMANS
 72
     4
 11
263.3658848323365
 21
172.5804194187228
 31
0.0
100
AcDbText
  0
LINE
  5
14A
330
2
100
AcDbEntity
  8
SPECD
 62
     6
100
AcDbLine
 10
164.8556868925427
 20
199.3270789939532
 30
0.0
 11
164.8556868925427
 21
146.2933864084028
 31
0.0
  0
TEXT
  5
14B
330
2
100
AcDbEntity
  8
SPECD
 62
     6
100
AcDbText
 10
170.1251483776773
 20
149.9964368398314
 30
0.0
 40
5.0
  1
LOAD OF ??? kN
  7
ROMANS
 72
     4
 11
202.7441959967249
 21
152.4964368398314
 31
0.0
100
AcDbText
  0
LINE
  5
14C
330
2
100
AcDbEntity
  8
ANCON-DSD
  6
HIDDEN
100
AcDbLine
 10
270.0
 20
84.15
 30
0.0
 11
270.0
 21
35.85
 31
0.0
  0
LINE
  5
14D
330
2
100
AcDbEntity
  8
10MM-JOINT
  6
HIDDEN
 62
     3
100
AcDbLine
 10
257.9999999999997
 20
80.89266591925754
 30
0.0
 11
257.9999999999997
 21
38.89266591925755
 31
0.0
  0
LINE
  5
14E
330
2
100
AcDbEntity
  8
10MM-JOINT
  6
HIDDEN
 62
     3
100
AcDbLine
 10
259.9999999999997
 20
78.89266591925755
 30
0.0
 11
259.9999999999997
 21
40.89266591925755
 31
0.0
  0
LINE
  5
14F
330
2
100
AcDbEntity
  8
10MM-JOINT
  6
HIDDEN
 62
     3
100
AcDbLine
 10
257.9999999999997
 20
38.89266591925755
 30
0.0
 11
259.9999999999997
 21
40.89266591925755
 31
0.0
  0
LINE
  5
150
330
2
100
AcDbEntity
  8
10MM-JOINT
  6
HIDDEN
 62
     3
100
AcDbLine
 10
257.9999999999997
 20
80.89266591925754
 30
0.0
 11
259.9999999999997
 21
78.89266591925755
 31
0.0
  0
LINE
  5
151
330
2
100
AcDbEntity
  8
SPECP
 62
     6
100
AcDbLine
 10
164.8556868925427
 20
228.693592661047
 30
0.0
 11
232.4455378153046
 21
228.693592661047
 31
0.0
  0
LINE
  5
153
330
2
100
AcDbEntity
  8
SPECP
 62
     6
100
AcDbLine
 10
164.8556868925427
 20
216.7756173690457
 30
0.0
 11
232.4455378153046
 21
216.7756173690457
 31
0.0
  0
TEXT
  5
154
330
2
100
AcDbEntity
  8
SPECP
 62
     6
100
AcDbText
 10
169.3497965659347
 20
220.0564825452035
 30
0.0
 40
5.0
  1
STAIFIX DSD ??
  7
ROMANS
 72
     4
 11
198.8736060897443
 21
222.5564825452035
 31
0.0
100
AcDbText
  0
LINE
  5
155
330
2
100
AcDbEntity
  8
SPECP
 62
     6
100
AcDbLine
 10
164.8556868925427
 20
228.693592661047
 30
0.0
 11
164.8556868925427
 21
216.7756173690457
 31
0.0
  0
LINE
  5
156
330
2
100
AcDbEntity
  8
SPECP
 62
     6
100
AcDbLine
 10
232.4455378153046
 20
228.693592661047
 30
0.0
 11
232.4455378153046
 21
216.7756173690457
 31
0.0
  0
LINE
  5
157
330
2
100
AcDbEntity
  8
SPECD
 62
     6
100
AcDbLine
 10
367.3426369991831
 20
199.3270789939532
 30
0.0
 11
367.3426369991831
 21
146.2933864084028
 31
0.0
  0
DIMENSION
  5
158
330
2
100
AcDbEntity
  8
DIMS
100
AcDbDimension
  2
*D5
 10
342.2056885573766
 20
59.99999999999996
 30
0.0
 11
338.6056885573766
 21
46.37499999999995
 31
0.0
  1
27.25
 71
     5
 42
-1.0
  3
1-2
100
AcDbAlignedDimension
 13
305.0
 23
32.74999999999995
 33
0.0
 14
305.0
 24
59.99999999999996
 34
0.0
 50
90.0
100
AcDbRotatedDimension
  0
LINE
  5
165
330
2
100
AcDbEntity
  8
ANCON-DSD
  6
Continuous
100
AcDbLine
 10
305.0
 20
87.24999999999996
 30
0.0
 11
305.0
 21
32.74999999999995
 31
0.0
  0
LINE
  5
166
330
2
100
AcDbEntity
  8
ANCON-DSD
  6
Continuous
100
AcDbLine
 10
300.0
 20
87.24999999999996
 30
0.0
 11
300.0
 21
32.74999999999995
 31
0.0
  0
ENDSEC
  0
SECTION
  2
OBJECTS
  0
DICTIONARY
  5
26
330
0
100
AcDbDictionary
281
     1
  3
ACAD_GROUP
350
22
  3
ACAD_LAYOUT
350
16A
  3
ACAD_MLINESTYLE
350
23
  3
ACAD_PLOTSETTINGS
350
16B
  3
ACAD_PLOTSTYLENAME
350
168
  0
DICTIONARY
  5
3
330
2
100
AcDbDictionary
280
     1
281
     1
  3
ACAD_LAYOUTSELFREF
360
19B
  0
DICTIONARY
  5
B
330
A
100
AcDbDictionary
280
     1
281
     1
  3
ACAD_LAYOUTSELFREF
360
19C
  0
DICTIONARY
  5
22
102
{ACAD_REACTORS
330
26
102
}
330
26
100
AcDbDictionary
281
     1
  0
DICTIONARY
  5
16A
102
{ACAD_REACTORS
330
26
102
}
330
26
100
AcDbDictionary
281
     1
  3
Layout1
350
16D
  3
Model
350
16C
  0
DICTIONARY
  5
23
102
{ACAD_REACTORS
330
26
102
}
330
26
100
AcDbDictionary
281
     1
  3
Standard
350
29
  0
DICTIONARY
  5
16B
102
{ACAD_REACTORS
330
26
102
}
330
26
100
AcDbDictionary
281
     1
  0
ACDBDICTIONARYWDFLT
  5
168
102
{ACAD_REACTORS
330
26
102
}
330
26
100
AcDbDictionary
281
     1
  3
Normal
350
169
100
AcDbDictionaryWithDefault
340
169
  0
XRECORD
  5
19B
102
{ACAD_REACTORS
330
3
102
}
330
3
100
AcDbXrecord
280
     1
340
2
  0
XRECORD
  5
19C
102
{ACAD_REACTORS
330
B
102
}
330
B
100
AcDbXrecord
280
     1
340
A
  0
LAYOUT
  5
16D
102
{ACAD_REACTORS
330
16A
102
}
330
16A
100
AcDbPlotSettings
  1

  2
None
  4

  6

 40
0.0
 41
0.0
 42
0.0
 43
0.0
 44
0.0
 45
0.0
 46
0.0
 47
0.0
 48
0.0
 49
0.0
140
0.0
141
0.0
142
1.0
143
1.0
 70
   688
 72
     0
 73
     0
 74
     5
  7
Std pen settings.ctb
 75
    16
147
1.0
148
0.0
149
0.0
100
AcDbLayout
  1
Layout1
 70
     1
 71
     1
 10
-0.1979161059762549
 20
-0.1979166691697489
 11
16.34375024029589
 21
11.49541603298637
 12
0.0
 22
0.0
 32
0.0
 14
1.614583349603368
 24
1.129749872553066
 34
0.0
 15
14.5312501464303
 25
10.1677488529776
 35
0.0
146
0.0
 13
0.0
 23
0.0
 33
0.0
 16
1.0
 26
0.0
 36
0.0
 17
0.0
 27
1.0
 37
0.0
 76
     0
330
A
  0
LAYOUT
  5
16C
102
{ACAD_REACTORS
330
16A
102
}
330
16A
100
AcDbPlotSettings
  1

  2
None
  4

  6

 40
0.0
 41
0.0
 42
0.0
 43
0.0
 44
0.0
 45
0.0
 46
0.0
 47
0.0
 48
0.0
 49
0.0
140
0.0
141
0.0
142
1.0
143
1.0
 70
  1712
 72
     0
 73
     0
 74
     0
  7
Std pen settings.ctb
 75
     0
147
1.0
148
0.0
149
0.0
100
AcDbLayout
  1
Model
 70
     1
 71
     0
 10
0.0
 20
0.0
 11
12.0
 21
9.0
 12
0.0
 22
0.0
 32
0.0
 14
0.0
 24
0.0
 34
0.0
 15
0.0
 25
0.0
 35
0.0
146
0.0
 13
0.0
 23
0.0
 33
0.0
 16
1.0
 26
0.0
 36
0.0
 17
0.0
 27
1.0
 37
0.0
 76
     0
330
2
  0
MLINESTYLE
  5
29
102
{ACAD_REACTORS
330
23
102
}
330
23
100
AcDbMlineStyle
  2
STANDARD
 70
     0
  3

 62
   256
 51
90.0
 52
90.0
 71
     2
 49
0.5
 62
   256
  6
BYLAYER
 49
-0.5
 62
   256
  6
BYLAYER
  0
ACDBPLACEHOLDER
  5
169
102
{ACAD_REACTORS
330
168
102
}
330
168
  0
ENDSEC
  0
EOF
