  0
SECTION
  2
HEADER
  9
$ACADVER
  1
AC1015
  9
$ACADMAINTVER
 70
    10
  9
$DWGCODEPAGE
  3
ANSI_1252
  9
$INSBASE
 10
-0.0116654555965887
 20
-0.01139699955867
 30
0.0
  9
$EXTMIN
 10
-182.4239559927059
 20
-228.2334678576694
 30
0.0
  9
$EXTMAX
 10
561.1075076284947
 20
165.0000000661275
 30
0.0
  9
$LIMMIN
 10
0.0
 20
0.0
  9
$LIMMAX
 10
420.0
 20
297.0
  9
$ORTHOMODE
 70
     0
  9
$REGENMODE
 70
     1
  9
$FILLMODE
 70
     1
  9
$QTEXTMODE
 70
     0
  9
$MIRRTEXT
 70
     1
  9
$LTSCALE
 40
0.25
  9
$ATTMODE
 70
     1
  9
$TEXTSIZE
 40
5.0
  9
$TRACEWID
 40
10.0
  9
$TEXTSTYLE
  7
ROMANS
  9
$CLAYER
  8
DIMS
  9
$CELTYPE
  6
BYLAYER
  9
$CECOLOR
 62
   256
  9
$CELTSCALE
 40
1.0
  9
$DISPSILH
 70
     0
  9
$DIMSCALE
 40
0.0
  9
$DIMASZ
 40
4.0
  9
$DIMEXO
 40
3.0
  9
$DIMDLI
 40
10.0
  9
$DIMRND
 40
0.0
  9
$DIMDLE
 40
1.25
  9
$DIMEXE
 40
3.0
  9
$DIMTP
 40
0.0
  9
$DIMTM
 40
0.0
  9
$DIMTXT
 40
3.0
  9
$DIMCEN
 40
-3.0
  9
$DIMTSZ
 40
0.0
  9
$DIMTOL
 70
     0
  9
$DIMLIM
 70
     0
  9
$DIMTIH
 70
     0
  9
$DIMTOH
 70
     0
  9
$DIMSE1
 70
     0
  9
$DIMSE2
 70
     0
  9
$DIMTAD
 70
     1
  9
$DIMZIN
 70
    12
  9
$DIMBLK
  1

  9
$DIMASO
 70
     1
  9
$DIMSHO
 70
     0
  9
$DIMPOST
  1

  9
$DIMAPOST
  1

  9
$DIMALT
 70
     0
  9
$DIMALTD
 70
     2
  9
$DIMALTF
 40
0.039
  9
$DIMLFAC
 40
1.0
  9
$DIMTOFL
 70
     0
  9
$DIMTVP
 40
1.5
  9
$DIMTIX
 70
     0
  9
$DIMSOXD
 70
     0
  9
$DIMSAH
 70
     0
  9
$DIMBLK1
  1

  9
$DIMBLK2
  1

  9
$DIMSTYLE
  2
1-5
  9
$DIMCLRD
 70
     0
  9
$DIMCLRE
 70
     0
  9
$DIMCLRT
 70
     0
  9
$DIMTFAC
 40
0.75
  9
$DIMGAP
 40
1.5
  9
$DIMJUST
 70
     0
  9
$DIMSD1
 70
     0
  9
$DIMSD2
 70
     0
  9
$DIMTOLJ
 70
     1
  9
$DIMTZIN
 70
    12
  9
$DIMALTZ
 70
    12
  9
$DIMALTTZ
 70
    12
  9
$DIMUPT
 70
     0
  9
$DIMDEC
 70
     2
  9
$DIMTDEC
 70
     2
  9
$DIMALTU
 70
     2
  9
$DIMALTTD
 70
     2
  9
$DIMTXSTY
  7
ROMANS
  9
$DIMAUNIT
 70
     0
  9
$DIMADEC
 70
     0
  9
$DIMALTRND
 40
0.0
  9
$DIMAZIN
 70
     0
  9
$DIMDSEP
 70
    46
  9
$DIMATFIT
 70
     3
  9
$DIMFRAC
 70
     0
  9
$DIMLDRBLK
  1

  9
$DIMLUNIT
 70
     2
  9
$DIMLWD
 70
    -2
  9
$DIMLWE
 70
    -2
  9
$DIMTMOVE
 70
     2
  9
$LUNITS
 70
     2
  9
$LUPREC
 70
     2
  9
$SKETCHINC
 40
1.0
  9
$FILLETRAD
 40
0.0
  9
$AUNITS
 70
     0
  9
$AUPREC
 70
     4
  9
$MENU
  1
acad
  9
$ELEVATION
 40
0.0
  9
$PELEVATION
 40
0.0
  9
$THICKNESS
 40
0.0
  9
$LIMCHECK
 70
     0
  9
$CHAMFERA
 40
0.0
  9
$CHAMFERB
 40
0.0
  9
$CHAMFERC
 40
0.0
  9
$CHAMFERD
 40
0.0
  9
$SKPOLY
 70
     0
  9
$TDCREATE
 40
2449527.571155092
  9
$TDUCREATE
 40
2449527.529488425
  9
$TDUPDATE
 40
2452498.555508333
  9
$TDUUPDATE
 40
2452498.513841666
  9
$TDINDWG
 40
0.2411998843
  9
$TDUSRTIMER
 40
0.2411998843
  9
$USRTIMER
 70
     1
  9
$ANGBASE
 50
0.0
  9
$ANGDIR
 70
     0
  9
$PDMODE
 70
     0
  9
$PDSIZE
 40
0.0
  9
$PLINEWID
 40
0.0
  9
$SPLFRAME
 70
     0
  9
$SPLINETYPE
 70
     6
  9
$SPLINESEGS
 70
     8
  9
$HANDSEED
  5
9A
  9
$SURFTAB1
 70
    18
  9
$SURFTAB2
 70
    18
  9
$SURFTYPE
 70
     6
  9
$SURFU
 70
    18
  9
$SURFV
 70
    18
  9
$UCSBASE
  2

  9
$UCSNAME
  2

  9
$UCSORG
 10
0.0
 20
0.0
 30
0.0
  9
$UCSXDIR
 10
1.0
 20
0.0
 30
0.0
  9
$UCSYDIR
 10
0.0
 20
1.0
 30
0.0
  9
$UCSORTHOREF
  2

  9
$UCSORTHOVIEW
 70
     0
  9
$UCSORGTOP
 10
0.0
 20
0.0
 30
0.0
  9
$UCSORGBOTTOM
 10
0.0
 20
0.0
 30
0.0
  9
$UCSORGLEFT
 10
0.0
 20
0.0
 30
0.0
  9
$UCSORGRIGHT
 10
0.0
 20
0.0
 30
0.0
  9
$UCSORGFRONT
 10
0.0
 20
0.0
 30
0.0
  9
$UCSORGBACK
 10
0.0
 20
0.0
 30
0.0
  9
$PUCSBASE
  2

  9
$PUCSNAME
  2

  9
$PUCSORG
 10
0.0
 20
0.0
 30
0.0
  9
$PUCSXDIR
 10
1.0
 20
0.0
 30
0.0
  9
$PUCSYDIR
 10
0.0
 20
1.0
 30
0.0
  9
$PUCSORTHOREF
  2

  9
$PUCSORTHOVIEW
 70
     0
  9
$PUCSORGTOP
 10
0.0
 20
0.0
 30
0.0
  9
$PUCSORGBOTTOM
 10
0.0
 20
0.0
 30
0.0
  9
$PUCSORGLEFT
 10
0.0
 20
0.0
 30
0.0
  9
$PUCSORGRIGHT
 10
0.0
 20
0.0
 30
0.0
  9
$PUCSORGFRONT
 10
0.0
 20
0.0
 30
0.0
  9
$PUCSORGBACK
 10
0.0
 20
0.0
 30
0.0
  9
$USERI1
 70
     0
  9
$USERI2
 70
     0
  9
$USERI3
 70
     0
  9
$USERI4
 70
     0
  9
$USERI5
 70
     0
  9
$USERR1
 40
0.0
  9
$USERR2
 40
0.0
  9
$USERR3
 40
0.0
  9
$USERR4
 40
0.0
  9
$USERR5
 40
0.0
  9
$WORLDVIEW
 70
     1
  9
$SHADEDGE
 70
     3
  9
$SHADEDIF
 70
    70
  9
$TILEMODE
 70
     1
  9
$MAXACTVP
 70
    16
  9
$PINSBASE
 10
0.0
 20
0.0
 30
0.0
  9
$PLIMCHECK
 70
     0
  9
$PEXTMIN
 10
1.000000000000000E+20
 20
1.000000000000000E+20
 30
1.000000000000000E+20
  9
$PEXTMAX
 10
-1.000000000000000E+20
 20
-1.000000000000000E+20
 30
-1.000000000000000E+20
  9
$PLIMMIN
 10
0.0
 20
0.0
  9
$PLIMMAX
 10
420.0
 20
297.0
  9
$UNITMODE
 70
     0
  9
$VISRETAIN
 70
     0
  9
$PLINEGEN
 70
     0
  9
$PSLTSCALE
 70
     1
  9
$TREEDEPTH
 70
  3020
  9
$CMLSTYLE
  2
STANDARD
  9
$CMLJUST
 70
     0
  9
$CMLSCALE
 40
1.0
  9
$PROXYGRAPHICS
 70
     1
  9
$MEASUREMENT
 70
     0
  9
$CELWEIGHT
370
    -1
  9
$ENDCAPS
280
     0
  9
$JOINSTYLE
280
     0
  9
$LWDISPLAY
290
     0
  9
$INSUNITS
 70
     0
  9
$HYPERLINKBASE
  1

  9
$STYLESHEET
  1

  9
$XEDIT
290
     1
  9
$CEPSNTYPE
380
     0
  9
$PSTYLEMODE
290
     1
  9
$FINGERPRINTGUID
  2
{627E2929-AD1D-11D6-AAC6-0010A4A25215}
  9
$VERSIONGUID
  2
{627E2930-AD1D-11D6-AAC6-0010A4A25215}
  9
$EXTNAMES
290
     1
  9
$PSVPSCALE
 40
0.0
  9
$OLESTARTUP
290
     0
  0
ENDSEC
  0
SECTION
  2
CLASSES
  0
CLASS
  1
DICTIONARYVAR
  2
AcDbDictionaryVar
  3
AutoCAD 2000
 90
    32768
280
     0
281
     0
  0
CLASS
  1
LWPOLYLINE
  2
AcDbPolyline
  3
AutoCAD 2000
 90
    32768
280
     0
281
     1
  0
CLASS
  1
ACDBDICTIONARYWDFLT
  2
AcDbDictionaryWithDefault
  3
AutoCAD 2000
 90
        0
280
     0
281
     0
  0
CLASS
  1
ACDBPLACEHOLDER
  2
AcDbPlaceHolder
  3
AutoCAD 2000
 90
        0
280
     0
281
     0
  0
CLASS
  1
LAYOUT
  2
AcDbLayout
  3
AutoCAD 2000
 90
        0
280
     0
281
     0
  0
ENDSEC
  0
SECTION
  2
TABLES
  0
TABLE
  2
VPORT
  5
12
330
0
100
AcDbSymbolTable
 70
     3
  0
VPORT
  5
99
330
12
100
AcDbSymbolTableRecord
100
AcDbViewportTableRecord
  2
*Active
 70
     0
 10
0.0
 20
0.0
 11
1.0
 21
1.0
 12
305.4290355636134
 22
-23.56895177658492
 13
0.0
 23
0.0
 14
5.0
 24
5.0
 15
10.0
 25
10.0
 16
0.0
 26
0.0
 36
1.0
 17
0.0
 27
0.0
 37
0.0
 40
710.2437998132257
 41
1.760948905109489
 42
50.0
 43
0.0
 44
0.0
 50
0.0
 51
0.0
 71
     0
 72
   100
 73
     1
 74
     1
 75
     0
 76
     0
 77
     0
 78
     0
281
     0
 65
     1
110
0.0
120
0.0
130
0.0
111
1.0
121
0.0
131
0.0
112
0.0
122
1.0
132
0.0
 79
     0
146
0.0
  0
ENDTAB
  0
TABLE
  2
LTYPE
  5
D
330
0
100
AcDbSymbolTable
 70
     2
  0
LTYPE
  5
E
330
D
100
AcDbSymbolTableRecord
100
AcDbLinetypeTableRecord
  2
BYBLOCK
 70
     0
  3

 72
    65
 73
     0
 40
0.0
  0
LTYPE
  5
F
330
D
100
AcDbSymbolTableRecord
100
AcDbLinetypeTableRecord
  2
BYLAYER
 70
     0
  3

 72
    65
 73
     0
 40
0.0
  0
LTYPE
  5
5
330
D
100
AcDbSymbolTableRecord
100
AcDbLinetypeTableRecord
  2
CONTINUOUS
 70
     0
  3
Solid line
 72
    65
 73
     0
 40
0.0
  0
LTYPE
  5
2A
330
D
100
AcDbSymbolTableRecord
100
AcDbLinetypeTableRecord
  2
CENTER2
 70
     0
  3
___ _ ___ _ ___ _ ___ _ ___ _ ___ _ ___ _ ___ _
 72
    65
 73
     4
 40
28.57499999999999
 49
19.05
 74
     0
 49
-3.174999999999999
 74
     0
 49
3.174999999999999
 74
     0
 49
-3.174999999999999
 74
     0
  0
ENDTAB
  0
TABLE
  2
LAYER
  5
A
330
0
100
AcDbSymbolTable
 70
     8
  0
LAYER
  5
4
330
A
100
AcDbSymbolTableRecord
100
AcDbLayerTableRecord
  2
0
 70
     0
 62
     7
  6
CONTINUOUS
370
    -3
390
90
  0
LAYER
  5
1B
330
A
100
AcDbSymbolTableRecord
100
AcDbLayerTableRecord
  2
DIMS
 70
     0
 62
     1
  6
CONTINUOUS
370
    -3
390
90
  0
LAYER
  5
27
330
A
100
AcDbSymbolTableRecord
100
AcDbLayerTableRecord
  2
ANCON-DSD
 70
     0
 62
     3
  6
CONTINUOUS
370
    -3
390
90
  0
LAYER
  5
39
330
A
100
AcDbSymbolTableRecord
100
AcDbLayerTableRecord
  2
DEFPOINTS
 70
     0
 62
     7
  6
CONTINUOUS
290
     0
370
    -3
390
90
  0
LAYER
  5
5D
330
A
100
AcDbSymbolTableRecord
100
AcDbLayerTableRecord
  2
ORIGIN
 70
     0
 62
     7
  6
CONTINUOUS
370
    -3
390
90
  0
LAYER
  5
20
330
A
100
AcDbSymbolTableRecord
100
AcDbLayerTableRecord
  2
ANCON-TEXT
 70
     0
 62
     6
  6
CONTINUOUS
370
    -3
390
90
  0
LAYER
  5
78
330
A
100
AcDbSymbolTableRecord
100
AcDbLayerTableRecord
  2
SPECP
 70
     0
 62
     6
  6
CONTINUOUS
370
    -3
390
90
  0
LAYER
  5
7B
330
A
100
AcDbSymbolTableRecord
100
AcDbLayerTableRecord
  2
SPECD
 70
     0
 62
     6
  6
CONTINUOUS
370
    -3
390
90
  0
ENDTAB
  0
TABLE
  2
STYLE
  5
B
330
0
100
AcDbSymbolTable
 70
     2
  0
STYLE
  5
C
330
B
100
AcDbSymbolTableRecord
100
AcDbTextStyleTableRecord
  2
STANDARD
 70
     0
 40
0.0
 41
1.0
 50
0.0
 71
     0
 42
6.0
  3
txt.shx
  4

  0
STYLE
  5
1C
330
B
100
AcDbSymbolTableRecord
100
AcDbTextStyleTableRecord
  2
ROMANS
 70
     0
 40
0.0
 41
1.0
 50
0.0
 71
     0
 42
5.0
  3
romans
  4

  0
ENDTAB
  0
TABLE
  2
VIEW
  5
10
330
0
100
AcDbSymbolTable
 70
     0
  0
ENDTAB
  0
TABLE
  2
UCS
  5
11
330
0
100
AcDbSymbolTable
 70
     0
  0
ENDTAB
  0
TABLE
  2
APPID
  5
14
330
0
100
AcDbSymbolTable
 70
     1
  0
APPID
  5
15
330
14
100
AcDbSymbolTableRecord
100
AcDbRegAppTableRecord
  2
ACAD
 70
     0
  0
ENDTAB
  0
TABLE
  2
DIMSTYLE
  5
16
330
0
100
AcDbSymbolTable
 70
     1
100
AcDbDimStyleTable
 71
     0
  0
DIMSTYLE
105
1E
330
16
100
AcDbSymbolTableRecord
100
AcDbDimStyleTableRecord
  2
1-5
 70
     0
 40
0.0
 41
7.5
 42
22.0
 43
0.0
 44
7.5
 45
0.5
 73
     0
 74
     0
 77
     1
 78
    12
140
7.5
146
0.024
147
0.5
171
     0
271
     2
272
     2
279
     2
284
    12
285
    12
286
    12
340
1C
  0
ENDTAB
  0
TABLE
  2
BLOCK_RECORD
  5
1
330
0
100
AcDbSymbolTable
 70
     2
  0
BLOCK_RECORD
  5
2
330
1
100
AcDbSymbolTableRecord
100
AcDbBlockTableRecord
  2
*MODEL_SPACE
340
93
  0
BLOCK_RECORD
  5
7
330
1
100
AcDbSymbolTableRecord
100
AcDbBlockTableRecord
  2
*PAPER_SPACE
340
94
  0
BLOCK_RECORD
  5
3F
330
1
100
AcDbSymbolTableRecord
100
AcDbBlockTableRecord
  2
*D0
340
0
  0
BLOCK_RECORD
  5
31
330
1
100
AcDbSymbolTableRecord
100
AcDbBlockTableRecord
  2
*D1
340
0
  0
ENDTAB
  0
ENDSEC
  0
SECTION
  2
BLOCKS
  0
BLOCK
  5
3
330
2
100
AcDbEntity
  8
0
100
AcDbBlockBegin
  2
*MODEL_SPACE
 70
     0
 10
0.0
 20
0.0
 30
0.0
  3
*MODEL_SPACE
  1

  0
ENDBLK
  5
6
330
2
100
AcDbEntity
  8
0
100
AcDbBlockEnd
  0
BLOCK
  5
8
330
7
100
AcDbEntity
 67
     1
  8
0
100
AcDbBlockBegin
  2
*PAPER_SPACE
 70
     0
 10
0.0
 20
0.0
 30
0.0
  3
*PAPER_SPACE
  1

  0
ENDBLK
  5
9
330
7
100
AcDbEntity
 67
     1
  8
0
100
AcDbBlockEnd
  0
BLOCK
  5
49
330
3F
100
AcDbEntity
  8
0
100
AcDbBlockBegin
  2
*D0
 70
     1
 10
0.0
 20
0.0
 30
0.0
  3
*D0
  1

  0
LINE
  5
40
330
3F
100
AcDbEntity
  8
0
  6
ByBlock
 62
     0
100
AcDbLine
 10
-177.4239559927059
 20
-13.01251055423093
 30
0.0
 11
-177.4239559927059
 21
-228.2334678576694
 31
0.0
  0
LINE
  5
41
330
3F
100
AcDbEntity
  8
0
  6
ByBlock
 62
     0
100
AcDbLine
 10
172.576044007294
 20
-13.01139699955867
 30
0.0
 11
172.576044007294
 21
-228.2334678576694
 31
0.0
  0
LINE
  5
42
330
3F
100
AcDbEntity
  8
0
  6
ByBlock
 62
     0
100
AcDbLine
 10
-173.4239559927059
 20
-225.2334678576694
 30
0.0
 11
168.576044007294
 21
-225.2334678576694
 31
0.0
  0
SOLID
  5
43
330
3F
100
AcDbEntity
  8
0
  6
ByBlock
 62
     0
100
AcDbTrace
 10
-173.4239559927059
 20
-224.5668011910027
 30
0.0
 11
-173.4239559927059
 21
-225.9001345243361
 31
0.0
 12
-177.4239559927059
 22
-225.2334678576694
 32
0.0
 13
-177.4239559927059
 23
-225.2334678576694
 33
0.0
  0
SOLID
  5
44
330
3F
100
AcDbEntity
  8
0
  6
ByBlock
 62
     0
100
AcDbTrace
 10
168.576044007294
 20
-224.5668011910027
 30
0.0
 11
168.576044007294
 21
-225.9001345243361
 31
0.0
 12
172.576044007294
 22
-225.2334678576694
 32
0.0
 13
172.576044007294
 23
-225.2334678576694
 33
0.0
  0
TEXT
  5
45
330
3F
100
AcDbEntity
  8
0
  6
ByBlock
 62
     0
100
AcDbText
 10
-6.709670278420228
 20
-223.7334678576694
 30
0.0
 40
3.0
  1
350
  7
ROMANS
 72
     1
 11
-2.423955992705941
 21
-222.2334678576694
 31
0.0
100
AcDbText
 73
     2
  0
POINT
  5
46
330
3F
100
AcDbEntity
  8
DEFPOINTS
  6
ByBlock
 62
     0
100
AcDbPoint
 10
-177.4239559927059
 20
-10.01251055423093
 30
0.0
  0
POINT
  5
47
330
3F
100
AcDbEntity
  8
DEFPOINTS
  6
ByBlock
 62
     0
100
AcDbPoint
 10
172.576044007294
 20
-10.01139699955867
 30
0.0
  0
POINT
  5
48
330
3F
100
AcDbEntity
  8
DEFPOINTS
  6
ByBlock
 62
     0
100
AcDbPoint
 10
172.576044007294
 20
-225.2334678576694
 30
0.0
  0
ENDBLK
  5
4A
330
3F
100
AcDbEntity
  8
0
100
AcDbBlockEnd
  0
BLOCK
  5
3C
330
31
100
AcDbEntity
  8
0
100
AcDbBlockBegin
  2
*D1
 70
     1
 10
0.0
 20
0.0
 30
0.0
  3
*D1
  1

  0
LINE
  5
32
330
31
100
AcDbEntity
  8
0
  6
ByBlock
 62
     0
100
AcDbLine
 10
-80.0
 20
-162.9869889920639
 30
0.0
 11
-80.0
 21
-189.9079741297824
 31
0.0
  0
LINE
  5
33
330
31
100
AcDbEntity
  8
0
  6
ByBlock
 62
     0
100
AcDbLine
 10
80.0
 20
-163.0130110079358
 30
0.0
 11
80.0
 21
-189.9079741297824
 31
0.0
  0
LINE
  5
34
330
31
100
AcDbEntity
  8
0
  6
ByBlock
 62
     0
100
AcDbLine
 10
-76.0
 20
-186.9079741297824
 30
0.0
 11
76.0
 21
-186.9079741297824
 31
0.0
  0
SOLID
  5
35
330
31
100
AcDbEntity
  8
0
  6
ByBlock
 62
     0
100
AcDbTrace
 10
-76.0
 20
-186.2413074631157
 30
0.0
 11
-76.0
 21
-187.574640796449
 31
0.0
 12
-80.0
 22
-186.9079741297824
 32
0.0
 13
-80.0
 23
-186.9079741297824
 33
0.0
  0
SOLID
  5
36
330
31
100
AcDbEntity
  8
0
  6
ByBlock
 62
     0
100
AcDbTrace
 10
76.0
 20
-186.2413074631157
 30
0.0
 11
76.0
 21
-187.574640796449
 31
0.0
 12
80.0
 22
-186.9079741297824
 32
0.0
 13
80.0
 23
-186.9079741297824
 33
0.0
  0
TEXT
  5
37
330
31
100
AcDbEntity
  8
0
  6
ByBlock
 62
     0
100
AcDbText
 10
-4.5
 20
-185.4079741297824
 30
0.0
 40
3.0
  1
160
  7
ROMANS
 72
     1
 11
0.0
 21
-183.9079741297824
 31
0.0
100
AcDbText
 73
     2
  0
POINT
  5
38
330
31
100
AcDbEntity
  8
DEFPOINTS
  6
ByBlock
 62
     0
100
AcDbPoint
 10
-80.0
 20
-159.9869889920639
 30
0.0
  0
POINT
  5
3A
330
31
100
AcDbEntity
  8
DEFPOINTS
  6
ByBlock
 62
     0
100
AcDbPoint
 10
80.0
 20
-160.0130110079359
 30
0.0
  0
POINT
  5
3B
330
31
100
AcDbEntity
  8
DEFPOINTS
  6
ByBlock
 62
     0
100
AcDbPoint
 10
80.0
 20
-186.9079741297824
 30
0.0
  0
ENDBLK
  5
3D
330
31
100
AcDbEntity
  8
0
100
AcDbBlockEnd
  0
ENDSEC
  0
SECTION
  2
ENTITIES
  0
TEXT
  5
1F
330
2
100
AcDbEntity
  8
ANCON-TEXT
 62
     6
100
AcDbText
 10
173.4172477173438
 20
116.6992840261282
 30
0.0
 40
5.0
  1
WIDTH
  7
ROMANS
 72
     4
 11
184.0124858125819
 21
119.1992840261282
 31
0.0
100
AcDbText
  0
LINE
  5
21
330
2
100
AcDbEntity
  8
ANCON-TEXT
 62
     6
100
AcDbLine
 10
102.8373888762644
 20
84.76437743919607
 30
0.0
 11
278.2160665681269
 21
84.76437743919602
 31
0.0
  0
LINE
  5
22
330
2
100
AcDbEntity
  8
ANCON-TEXT
 62
     6
100
AcDbLine
 10
102.8373888762645
 20
111.7918625142431
 30
0.0
 11
278.2160665681269
 21
111.7918625142431
 31
0.0
  0
LINE
  5
23
330
2
100
AcDbEntity
  8
ANCON-TEXT
 62
     6
100
AcDbLine
 10
102.8373888762644
 20
137.8626235732888
 30
0.0
 11
278.2160665681269
 21
137.8626235732888
 31
0.0
  0
TEXT
  5
24
330
2
100
AcDbEntity
  8
ANCON-TEXT
 62
     6
100
AcDbText
 10
174.3419006073407
 20
95.57993453229462
 30
0.0
 40
5.0
  1
?? MM
  7
ROMANS
 72
     4
 11
186.7228529882931
 21
98.07993453229464
 31
0.0
100
AcDbText
  0
TEXT
  5
25
330
2
100
AcDbEntity
  8
ANCON-TEXT
 62
     6
100
AcDbText
 10
157.9410572411534
 20
127.5969074137472
 30
0.0
 40
5.0
  1
DESIGN JOINT
  7
ROMANS
 72
     4
 11
184.0124858125819
 21
130.0969074137472
 31
0.0
100
AcDbText
  0
LINE
  5
26
330
2
100
AcDbEntity
  8
ANCON-DSD
100
AcDbLine
 10
80.0
 20
159.9869889920641
 30
0.0
 11
80.0
 21
-160.0130110079359
 31
0.0
  0
LINE
  5
28
330
2
100
AcDbEntity
  8
ANCON-DSD
100
AcDbLine
 10
-80.0
 20
160.013011007936
 30
0.0
 11
-80.0
 21
-159.9869889920639
 31
0.0
  0
LINE
  5
29
330
2
100
AcDbEntity
  8
DIMS
  6
CENTER2
100
AcDbLine
 10
0.0
 20
165.0000000661275
 30
0.0
 11
0.0
 21
-165.0000000661273
 31
0.0
  0
LINE
  5
2B
330
2
100
AcDbEntity
  8
ANCON-DSD
  6
Continuous
100
AcDbLine
 10
-65.0
 20
-128.5113969995587
 30
0.0
 11
65.0
 21
-128.5113969995587
 31
0.0
  0
LINE
  5
2C
330
2
100
AcDbEntity
  8
ANCON-DSD
  6
Continuous
100
AcDbLine
 10
-63.0
 20
-126.5113969995587
 30
0.0
 11
63.0
 21
-126.5113969995587
 31
0.0
  0
LINE
  5
2D
330
2
100
AcDbEntity
  8
ANCON-DSD
  6
Continuous
100
AcDbLine
 10
-63.0
 20
-53.51139699955867
 30
0.0
 11
63.0
 21
-53.51139699955867
 31
0.0
  0
LINE
  5
2E
330
2
100
AcDbEntity
  8
ANCON-DSD
  6
Continuous
100
AcDbLine
 10
-65.0
 20
-51.51139699955868
 30
0.0
 11
65.0
 21
-51.51139699955868
 31
0.0
  0
LINE
  5
2F
330
2
100
AcDbEntity
  8
DIMS
  6
CENTER2
100
AcDbLine
 10
-70.0
 20
-90.01139699955869
 30
0.0
 11
70.0
 21
-90.01139699955869
 31
0.0
  0
DIMENSION
  5
30
330
2
100
AcDbEntity
  8
DIMS
100
AcDbDimension
  2
*D1
 10
80.0
 20
-186.9079741297824
 30
0.0
 11
0.0
 21
-183.9079741297824
 31
0.0
 71
     5
 42
-1.0
100
AcDbAlignedDimension
 13
-80.0
 23
-159.9869889920639
 33
0.0
 14
80.0
 24
-160.0130110079359
 34
0.0
100
AcDbRotatedDimension
  0
DIMENSION
  5
3E
330
2
100
AcDbEntity
  8
DIMS
100
AcDbDimension
  2
*D0
 10
172.576044007294
 20
-225.2334678576694
 30
0.0
 11
-2.423955992705941
 21
-222.2334678576694
 31
0.0
 71
     5
 42
-1.0
100
AcDbAlignedDimension
 13
-177.4239559927059
 23
-10.01251055423093
 33
0.0
 14
172.576044007294
 24
-10.01139699955867
 34
0.0
100
AcDbRotatedDimension
  0
LINE
  5
4B
330
2
100
AcDbEntity
  8
DIMS
  6
CENTER2
100
AcDbLine
 10
-182.4239559927059
 20
-0.01139699955867
 30
0.0
 11
177.576044007294
 21
-0.01139699955867
 31
0.0
  0
LINE
  5
4C
330
2
100
AcDbEntity
  8
ANCON-DSD
100
AcDbLine
 10
-80.0
 20
-159.9869889920639
 30
0.0
 11
79.99999999999999
 21
-160.0130110079359
 31
0.0
  0
LINE
  5
4D
330
2
100
AcDbEntity
  8
DIMS
  6
CENTER2
100
AcDbLine
 10
-78.25161549068434
 20
-151.9872231836029
 30
0.0
 11
-65.7483845093152
 21
-151.9893567905041
 31
0.0
  0
CIRCLE
  5
4E
330
2
100
AcDbEntity
  8
ANCON-DSD
100
AcDbCircle
 10
-72.0
 20
-151.9884313149825
 30
0.0
 40
2.5
  0
LINE
  5
4F
330
2
100
AcDbEntity
  8
DIMS
  6
CENTER2
100
AcDbLine
 10
-72.0
 20
-145.736674405347
 30
0.0
 11
-72.0
 21
-158.23990556876
 31
0.0
  0
LINE
  5
50
330
2
100
AcDbEntity
  8
ANCON-DSD
100
AcDbLine
 10
-177.4239559927059
 20
-10.01251055423093
 30
0.0
 11
-80.0
 21
-9.990813173953734
 31
0.0
  0
LINE
  5
51
330
2
100
AcDbEntity
  8
ANCON-DSD
100
AcDbLine
 10
-177.4239559927059
 20
9.987489445769067
 30
0.0
 11
-80.0
 21
10.00918682604626
 31
0.0
  0
LINE
  5
52
330
2
100
AcDbEntity
  8
ANCON-DSD
100
AcDbLine
 10
-177.4239559927059
 20
9.988603000441329
 30
0.0
 11
-177.4239559927059
 21
-10.01251055423093
 31
0.0
  0
LINE
  5
53
330
2
100
AcDbEntity
  8
ANCON-DSD
  6
Continuous
100
AcDbLine
 10
-65.0
 20
-51.51139699955868
 30
0.0
 11
-65.0
 21
-128.5113969995587
 31
0.0
  0
LINE
  5
54
330
2
100
AcDbEntity
  8
ANCON-DSD
  6
Continuous
100
AcDbLine
 10
-63.0
 20
-53.51139699955867
 30
0.0
 11
-63.0
 21
-126.5113969995587
 31
0.0
  0
LINE
  5
55
330
2
100
AcDbEntity
  8
DIMS
  6
CENTER2
100
AcDbLine
 10
65.74838450931565
 20
-152.0106429978877
 30
0.0
 11
78.25161549068389
 21
-152.0127766047889
 31
0.0
  0
CIRCLE
  5
56
330
2
100
AcDbEntity
  8
ANCON-DSD
100
AcDbCircle
 10
72.0
 20
-152.0108890901251
 30
0.0
 40
2.5
  0
LINE
  5
57
330
2
100
AcDbEntity
  8
DIMS
  6
CENTER2
100
AcDbLine
 10
72.0
 20
-145.7600942196318
 30
0.0
 11
72.0
 21
-158.2633253830449
 31
0.0
  0
CIRCLE
  5
58
330
2
100
AcDbEntity
  8
ANCON-DSD
100
AcDbCircle
 10
0.0
 20
-90.01139699955869
 30
0.0
 40
33.0
  0
CIRCLE
  5
59
330
2
100
AcDbEntity
  8
ANCON-DSD
100
AcDbCircle
 10
0.0
 20
-90.01139699955869
 30
0.0
 40
35.0
  0
LINE
  5
5A
330
2
100
AcDbEntity
  8
ANCON-DSD
  6
Continuous
100
AcDbLine
 10
65.0
 20
-51.51139699955868
 30
0.0
 11
65.0
 21
-128.5113969995587
 31
0.0
  0
LINE
  5
5B
330
2
100
AcDbEntity
  8
ANCON-DSD
  6
Continuous
100
AcDbLine
 10
63.0
 20
-53.51139699955867
 30
0.0
 11
63.0
 21
-126.5113969995587
 31
0.0
  0
LINE
  5
5E
330
2
100
AcDbEntity
  8
ANCON-DSD
100
AcDbLine
 10
80.0
 20
-10.01139699955866
 30
0.0
 11
172.576044007294
 21
-10.01139699955867
 31
0.0
  0
LINE
  5
5F
330
2
100
AcDbEntity
  8
ANCON-DSD
100
AcDbLine
 10
80.0
 20
9.988603000441329
 30
0.0
 11
172.576044007294
 21
9.988603000441329
 31
0.0
  0
LINE
  5
60
330
2
100
AcDbEntity
  8
ANCON-DSD
100
AcDbLine
 10
172.576044007294
 20
9.988603000441329
 30
0.0
 11
172.576044007294
 21
-10.01139699955867
 31
0.0
  0
LINE
  5
61
330
2
100
AcDbEntity
  8
ANCON-DSD
  6
Continuous
100
AcDbLine
 10
-63.0
 20
53.48860300044133
 30
0.0
 11
63.0
 21
53.48860300044133
 31
0.0
  0
LINE
  5
62
330
2
100
AcDbEntity
  8
ANCON-DSD
  6
Continuous
100
AcDbLine
 10
-63.0
 20
126.4886030004413
 30
0.0
 11
63.0
 21
126.4886030004413
 31
0.0
  0
LINE
  5
63
330
2
100
AcDbEntity
  8
ANCON-DSD
  6
Continuous
100
AcDbLine
 10
-65.0
 20
51.48860300044133
 30
0.0
 11
65.0
 21
51.48860300044133
 31
0.0
  0
LINE
  5
64
330
2
100
AcDbEntity
  8
ANCON-DSD
  6
Continuous
100
AcDbLine
 10
-65.0
 20
128.4886030004413
 30
0.0
 11
65.0
 21
128.4886030004413
 31
0.0
  0
LINE
  5
65
330
2
100
AcDbEntity
  8
DIMS
  6
CENTER2
100
AcDbLine
 10
-70.0
 20
89.98860300044134
 30
0.0
 11
70.0
 21
89.98860300044134
 31
0.0
  0
LINE
  5
66
330
2
100
AcDbEntity
  8
ANCON-DSD
100
AcDbLine
 10
-80.0
 20
160.013011007936
 30
0.0
 11
80.0
 21
159.9869889920641
 31
0.0
  0
LINE
  5
67
330
2
100
AcDbEntity
  8
ANCON-DSD
  6
Continuous
100
AcDbLine
 10
-63.0
 20
126.4886030004413
 30
0.0
 11
-63.0
 21
53.48860300044133
 31
0.0
  0
LINE
  5
68
330
2
100
AcDbEntity
  8
ANCON-DSD
  6
Continuous
100
AcDbLine
 10
-65.0
 20
128.4886030004413
 30
0.0
 11
-65.0
 21
51.48860300044133
 31
0.0
  0
LINE
  5
69
330
2
100
AcDbEntity
  8
DIMS
  6
CENTER2
100
AcDbLine
 10
-72.0
 20
158.263325383045
 30
0.0
 11
-72.0
 21
145.760094219632
 31
0.0
  0
LINE
  5
6A
330
2
100
AcDbEntity
  8
DIMS
  6
CENTER2
100
AcDbLine
 10
-78.25161549435552
 20
152.012754870677
 30
0.0
 11
-65.74838450564448
 21
152.010664732
 31
0.0
  0
CIRCLE
  5
6B
330
2
100
AcDbEntity
  8
ANCON-DSD
100
AcDbCircle
 10
-72.0
 20
152.0113812904427
 30
0.0
 40
2.5
  0
LINE
  5
6C
330
2
100
AcDbEntity
  8
DIMS
  6
CENTER2
100
AcDbLine
 10
65.7483845056447
 20
151.9893350563922
 30
0.0
 11
78.25161549435574
 21
151.9872449177153
 31
0.0
  0
CIRCLE
  5
6D
330
2
100
AcDbEntity
  8
ANCON-DSD
100
AcDbCircle
 10
72.00000000000023
 20
151.988505799426
 30
0.0
 40
2.5
  0
LINE
  5
6E
330
2
100
AcDbEntity
  8
ANCON-DSD
  6
Continuous
100
AcDbLine
 10
63.0
 20
126.4886030004413
 30
0.0
 11
63.0
 21
53.48860300044133
 31
0.0
  0
LINE
  5
6F
330
2
100
AcDbEntity
  8
ANCON-DSD
  6
Continuous
100
AcDbLine
 10
65.0
 20
128.4886030004413
 30
0.0
 11
65.0
 21
51.48860300044133
 31
0.0
  0
CIRCLE
  5
70
330
2
100
AcDbEntity
  8
ANCON-DSD
100
AcDbCircle
 10
0.0
 20
89.98860300044134
 30
0.0
 40
33.0
  0
CIRCLE
  5
71
330
2
100
AcDbEntity
  8
ANCON-DSD
100
AcDbCircle
 10
0.0
 20
89.98860300044134
 30
0.0
 40
35.0
  0
LINE
  5
72
330
2
100
AcDbEntity
  8
DIMS
  6
CENTER2
100
AcDbLine
 10
72.00000000000023
 20
158.2399055687602
 30
0.0
 11
71.99999999999977
 21
145.7366744053472
 31
0.0
  0
LINE
  5
73
330
2
100
AcDbEntity
  8
ANCON-TEXT
 62
     6
100
AcDbLine
 10
102.8373888762645
 20
137.8626235732888
 30
0.0
 11
102.8373888762645
 21
84.76437743919602
 31
0.0
  0
LINE
  5
74
330
2
100
AcDbEntity
  8
ANCON-TEXT
 62
     6
100
AcDbLine
 10
152.8373888762645
 20
137.8626235732888
 30
0.0
 11
152.8373888762645
 21
84.76437743919602
 31
0.0
  0
TEXT
  5
75
330
2
100
AcDbEntity
  8
ANCON-TEXT
 62
     6
100
AcDbText
 10
109.4609482263884
 20
95.81802977038988
 30
0.0
 40
5.0
  1
DSDQ450
  7
ROMANS
 72
     4
 11
126.7228529882931
 21
98.07993453229464
 31
0.0
100
AcDbText
  0
TEXT
  5
76
330
2
100
AcDbEntity
  8
ANCON-TEXT
 62
     6
100
AcDbText
 10
110.0297730253358
 20
127.5969074137472
 30
0.0
 40
5.0
  1
DSD REF:
  7
ROMANS
 72
     4
 11
128.0059635015263
 21
130.0969074137472
 31
0.0
100
AcDbText
  0
LINE
  5
77
330
2
100
AcDbEntity
  8
SPECP
 62
     6
100
AcDbLine
 10
358.6205575218543
 20
-149.0319336291333
 30
0.0
 11
426.2104084446162
 21
-149.0319336291332
 31
0.0
  0
LINE
  5
79
330
2
100
AcDbEntity
  8
SPECP
 62
     6
100
AcDbLine
 10
358.6205575218543
 20
-137.113958337132
 30
0.0
 11
426.2104084446162
 21
-137.113958337132
 31
0.0
  0
TEXT
  5
7A
330
2
100
AcDbEntity
  8
SPECD
 62
     6
100
AcDbText
 10
363.890019006989
 20
-215.8111141583476
 30
0.0
 40
5.0
  1
LOAD OF ??? kN
  7
ROMANS
 72
     4
 11
396.5090666260366
 21
-213.3111141583476
 31
0.0
100
AcDbText
  0
TEXT
  5
7C
330
2
100
AcDbEntity
  8
SPECD
 62
     6
100
AcDbText
 10
362.2498030806957
 20
-195.7271315794562
 30
0.0
 40
5.0
  1
SUITABLE FOR A DESIGN JOINT WIDTH OF ?? MM
  7
ROMANS
 72
     4
 11
457.1307554616482
 21
-193.2271315794562
 31
0.0
100
AcDbText
  0
LINE
  5
7D
330
2
100
AcDbEntity
  8
SPECD
 62
     6
100
AcDbLine
 10
358.6205575218543
 20
-166.4804720042258
 30
0.0
 11
561.1075076284947
 21
-166.4804720042258
 31
0.0
  0
LINE
  5
7E
330
2
100
AcDbEntity
  8
SPECD
 62
     6
100
AcDbLine
 10
358.6205575218543
 20
-219.5141645897762
 30
0.0
 11
561.1075076284947
 21
-219.5141645897762
 31
0.0
  0
TEXT
  5
7F
330
2
100
AcDbEntity
  8
SPECD
 62
     6
100
AcDbText
 10
362.7042382506459
 20
-205.7761889933853
 30
0.0
 40
5.0
  1
AND CAPABLE OF TRANSFERRING A SERVICEABILITY
  7
ROMANS
 72
     4
 11
460.0851906315982
 21
-203.2761889933853
 31
0.0
100
AcDbText
  0
TEXT
  5
80
330
2
100
AcDbEntity
  8
SPECD
 62
     6
100
AcDbText
 10
362.1911063206382
 20
-185.8259838697865
 30
0.0
 40
5.0
  1
COMPRISING SLEEVE AND DOWEL COMPONENT
  7
ROMANS
 72
     4
 11
450.1672967968287
 21
-183.3259838697865
 31
0.0
100
AcDbText
  0
TEXT
  5
81
330
2
100
AcDbEntity
  8
SPECD
 62
     6
100
AcDbText
 10
362.9122907266939
 20
-175.7212715439959
 30
0.0
 40
5.0
  1
TWO PART STAINLESS STEEL SHEAR CONNECTOR
  7
ROMANS
 72
     4
 11
455.5313383457417
 21
-173.2212715439959
 31
0.0
100
AcDbText
  0
TEXT
  5
82
330
2
100
AcDbEntity
  8
SPECP
 62
     1
100
AcDbText
 10
231.0481852309415
 20
-145.7510684529755
 30
0.0
 40
5.0
  1
SPECIFICATION BY PRODUCT
  7
ROMANS
 72
     4
 11
284.5005661833224
 21
-143.2510684529755
 31
0.0
100
AcDbText
  0
TEXT
  5
83
330
2
100
AcDbEntity
  8
SPECD
 62
     1
100
AcDbText
 10
231.1918218405678
 20
-175.6855229174717
 30
0.0
 40
5.0
  1
SPECIFICATION BY DESCRIPTION
  7
ROMANS
 72
     4
 11
290.8346789834249
 21
-173.1855229174717
 31
0.0
100
AcDbText
  0
LINE
  5
84
330
2
100
AcDbEntity
  8
SPECD
 62
     6
100
AcDbLine
 10
358.6205575218543
 20
-166.4804720042258
 30
0.0
 11
358.6205575218543
 21
-219.5141645897762
 31
0.0
  0
LINE
  5
85
330
2
100
AcDbEntity
  8
SPECP
 62
     6
100
AcDbLine
 10
358.6205575218543
 20
-137.113958337132
 30
0.0
 11
358.6205575218543
 21
-149.0319336291333
 31
0.0
  0
TEXT
  5
86
330
2
100
AcDbEntity
  8
SPECP
 62
     6
100
AcDbText
 10
363.1146671952464
 20
-145.7510684529755
 30
0.0
 40
5.0
  1
STAIFIX DSD ??
  7
ROMANS
 72
     4
 11
392.6384767190559
 21
-143.2510684529755
 31
0.0
100
AcDbText
  0
LINE
  5
87
330
2
100
AcDbEntity
  8
SPECP
 62
     6
100
AcDbLine
 10
426.2104084446162
 20
-137.113958337132
 30
0.0
 11
426.2104084446162
 21
-149.0319336291333
 31
0.0
  0
LINE
  5
88
330
2
100
AcDbEntity
  8
SPECD
 62
     6
100
AcDbLine
 10
561.1075076284947
 20
-166.4804720042258
 30
0.0
 11
561.1075076284947
 21
-219.5141645897762
 31
0.0
  0
TEXT
  5
89
330
2
100
AcDbEntity
  8
ANCON-TEXT
 62
     6
100
AcDbText
 10
221.9609482263884
 20
116.6584589723004
 30
0.0
 40
5.0
  1
LOAD ( kN )
  7
ROMANS
 72
     4
 11
246.7228529882931
 21
118.8013161151575
 31
0.0
100
AcDbText
  0
LINE
  5
8A
330
2
100
AcDbEntity
  8
ANCON-TEXT
 62
     6
100
AcDbLine
 10
213.3454824333273
 20
137.8626235732888
 30
0.0
 11
213.3454824333273
 21
84.76437743919602
 31
0.0
  0
LINE
  5
8B
330
2
100
AcDbEntity
  8
ANCON-TEXT
 62
     6
100
AcDbLine
 10
278.2160665681269
 20
137.8626235732888
 30
0.0
 11
278.2160665681269
 21
84.76437743919602
 31
0.0
  0
TEXT
  5
8C
330
2
100
AcDbEntity
  8
ANCON-TEXT
 62
     6
100
AcDbText
 10
240.2942815597217
 20
95.57993453229462
 30
0.0
 40
5.0
  1
???
  7
ROMANS
 72
     4
 11
246.7228529882931
 21
98.07993453229464
 31
0.0
100
AcDbText
  0
TEXT
  5
8D
330
2
100
AcDbEntity
  8
ANCON-TEXT
 62
     6
100
AcDbText
 10
218.8657101311503
 20
127.6017379108787
 30
0.0
 40
5.0
  1
SERVICEABILITY
  7
ROMANS
 72
     4
 11
246.7228529882931
 21
130.1017379108787
 31
0.0
100
AcDbText
  0
ENDSEC
  0
SECTION
  2
OBJECTS
  0
DICTIONARY
  5
1A
330
0
100
AcDbDictionary
281
     1
  3
ACAD_GROUP
350
18
  3
ACAD_LAYOUT
350
91
  3
ACAD_MLINESTYLE
350
19
  3
ACAD_PLOTSETTINGS
350
92
  3
ACAD_PLOTSTYLENAME
350
8F
  0
DICTIONARY
  5
18
102
{ACAD_REACTORS
330
1A
102
}
330
1A
100
AcDbDictionary
281
     1
  0
DICTIONARY
  5
91
102
{ACAD_REACTORS
330
1A
102
}
330
1A
100
AcDbDictionary
281
     1
  3
Layout1
350
94
  3
Model
350
93
  0
DICTIONARY
  5
19
102
{ACAD_REACTORS
330
1A
102
}
330
1A
100
AcDbDictionary
281
     1
  3
STANDARD
350
1D
  0
DICTIONARY
  5
92
102
{ACAD_REACTORS
330
1A
102
}
330
1A
100
AcDbDictionary
281
     1
  0
ACDBDICTIONARYWDFLT
  5
8F
102
{ACAD_REACTORS
330
1A
102
}
330
1A
100
AcDbDictionary
281
     1
  3
Normal
350
90
100
AcDbDictionaryWithDefault
340
90
  0
LAYOUT
  5
94
102
{ACAD_REACTORS
330
91
102
}
330
91
100
AcDbPlotSettings
  1

  2
Ancon 2
  4

  6

 40
0.0
 41
0.0
 42
0.0
 43
0.0
 44
0.0
 45
0.0
 46
0.0
 47
0.0
 48
0.0
 49
0.0
140
0.0
141
0.0
142
1.0
143
1.0
 70
   688
 72
     0
 73
     0
 74
     5
  7

 75
    16
147
1.0
148
0.0
149
0.0
100
AcDbLayout
  1
Layout1
 70
     1
 71
     1
 10
0.0
 20
0.0
 11
420.0
 21
297.0
 12
0.0
 22
0.0
 32
0.0
 14
1.000000000000000E+20
 24
1.000000000000000E+20
 34
1.000000000000000E+20
 15
-1.000000000000000E+20
 25
-1.000000000000000E+20
 35
-1.000000000000000E+20
146
0.0
 13
0.0
 23
0.0
 33
0.0
 16
1.0
 26
0.0
 36
0.0
 17
0.0
 27
1.0
 37
0.0
 76
     0
330
7
  0
LAYOUT
  5
93
102
{ACAD_REACTORS
330
91
102
}
330
91
100
AcDbPlotSettings
  1

  2
Ancon 2
  4

  6

 40
0.0
 41
0.0
 42
0.0
 43
0.0
 44
0.0
 45
0.0
 46
0.0
 47
0.0
 48
0.0
 49
0.0
140
0.0
141
0.0
142
1.0
143
1.0
 70
  1712
 72
     0
 73
     0
 74
     0
  7

 75
     0
147
1.0
148
0.0
149
0.0
100
AcDbLayout
  1
Model
 70
     1
 71
     0
 10
0.0
 20
0.0
 11
12.0
 21
9.0
 12
0.0
 22
0.0
 32
0.0
 14
0.0
 24
0.0
 34
0.0
 15
0.0
 25
0.0
 35
0.0
146
0.0
 13
0.0
 23
0.0
 33
0.0
 16
1.0
 26
0.0
 36
0.0
 17
0.0
 27
1.0
 37
0.0
 76
     0
330
2
  0
MLINESTYLE
  5
1D
102
{ACAD_REACTORS
330
19
102
}
330
19
100
AcDbMlineStyle
  2
STANDARD
 70
     0
  3

 62
   256
 51
90.0
 52
90.0
 71
     2
 49
0.5
 62
   256
  6
BYLAYER
 49
-0.5
 62
   256
  6
BYLAYER
  0
ACDBPLACEHOLDER
  5
90
102
{ACAD_REACTORS
330
8F
102
}
330
8F
  0
ENDSEC
  0
EOF
