  0
SECTION
  2
HEADER
  9
$ACADVER
  1
AC1024
  9
$ACADMAINTVER
 70
   225
  9
$DWGCODEPAGE
  3
ANSI_1252
  9
$LASTSAVEDBY
  1
poliver
  9
$INSBASE
 10
0.0
 20
0.0
 30
0.0
  9
$EXTMIN
 10
6.982726124916176
 20
86.40628543430905
 30
0.0
  9
$EXTMAX
 10
477.5299373261239
 20
461.5722434942084
 30
0.0
  9
$LIMMIN
 10
0.0
 20
0.0
  9
$LIMMAX
 10
12.0
 20
9.0
  9
$ORTHOMODE
 70
     1
  9
$REGENMODE
 70
     1
  9
$FILLMODE
 70
     1
  9
$QTEXTMODE
 70
     0
  9
$MIRRTEXT
 70
     1
  9
$LTSCALE
 40
1.0
  9
$ATTMODE
 70
     1
  9
$TEXTSIZE
 40
2.0
  9
$TRACEWID
 40
0.05
  9
$TEXTSTYLE
  7
STANDARD
  9
$CLAYER
  8
0
  9
$CELTYPE
  6
BYLAYER
  9
$CECOLOR
 62
   256
  9
$CELTSCALE
 40
1.0
  9
$DISPSILH
 70
     0
  9
$DIMSCALE
 40
0.0
  9
$DIMASZ
 40
1.5
  9
$DIMEXO
 40
0.75
  9
$DIMDLI
 40
5.0
  9
$DIMRND
 40
0.0
  9
$DIMDLE
 40
0.0
  9
$DIMEXE
 40
0.75
  9
$DIMTP
 40
0.0
  9
$DIMTM
 40
0.0
  9
$DIMTXT
 40
1.5
  9
$DIMCEN
 40
0.0
  9
$DIMTSZ
 40
0.0
  9
$DIMTOL
 70
     0
  9
$DIMLIM
 70
     0
  9
$DIMTIH
 70
     0
  9
$DIMTOH
 70
     0
  9
$DIMSE1
 70
     0
  9
$DIMSE2
 70
     0
  9
$DIMTAD
 70
     1
  9
$DIMZIN
 70
     8
  9
$DIMBLK
  1

  9
$DIMASO
 70
     1
  9
$DIMSHO
 70
     1
  9
$DIMPOST
  1

  9
$DIMAPOST
  1

  9
$DIMALT
 70
     0
  9
$DIMALTD
 70
     4
  9
$DIMALTF
 40
0.0394
  9
$DIMLFAC
 40
0.25
  9
$DIMTOFL
 70
     0
  9
$DIMTVP
 40
0.0
  9
$DIMTIX
 70
     0
  9
$DIMSOXD
 70
     0
  9
$DIMSAH
 70
     0
  9
$DIMBLK1
  1

  9
$DIMBLK2
  1

  9
$DIMSTYLE
  2
2-1
  9
$DIMCLRD
 70
     0
  9
$DIMCLRE
 70
     0
  9
$DIMCLRT
 70
     0
  9
$DIMTFAC
 40
1.0
  9
$DIMGAP
 40
0.75
  9
$DIMJUST
 70
     0
  9
$DIMSD1
 70
     0
  9
$DIMSD2
 70
     0
  9
$DIMTOLJ
 70
     1
  9
$DIMTZIN
 70
     0
  9
$DIMALTZ
 70
     0
  9
$DIMALTTZ
 70
     0
  9
$DIMUPT
 70
     0
  9
$DIMDEC
 70
     2
  9
$DIMTDEC
 70
     2
  9
$DIMALTU
 70
     8
  9
$DIMALTTD
 70
     4
  9
$DIMTXSTY
  7
STANDARD
  9
$DIMAUNIT
 70
     0
  9
$DIMADEC
 70
     0
  9
$DIMALTRND
 40
0.0
  9
$DIMAZIN
 70
     0
  9
$DIMDSEP
 70
    46
  9
$DIMATFIT
 70
     3
  9
$DIMFRAC
 70
     0
  9
$DIMLDRBLK
  1

  9
$DIMLUNIT
 70
     2
  9
$DIMLWD
 70
    -2
  9
$DIMLWE
 70
    -2
  9
$DIMTMOVE
 70
     0
  9
$DIMFXL
 40
1.0
  9
$DIMFXLON
 70
     0
  9
$DIMJOGANG
 40
0.7853981633974483
  9
$DIMTFILL
 70
     0
  9
$DIMTFILLCLR
 70
     0
  9
$DIMARCSYM
 70
     0
  9
$DIMLTYPE
  6

  9
$DIMLTEX1
  6

  9
$DIMLTEX2
  6

  9
$DIMTXTDIRECTION
 70
     0
  9
$LUNITS
 70
     2
  9
$LUPREC
 70
     4
  9
$SKETCHINC
 40
0.1
  9
$FILLETRAD
 40
0.0
  9
$AUNITS
 70
     0
  9
$AUPREC
 70
     0
  9
$MENU
  1
C:\arx\win\support\acadfull
  9
$ELEVATION
 40
0.0
  9
$PELEVATION
 40
0.0
  9
$THICKNESS
 40
0.0
  9
$LIMCHECK
 70
     0
  9
$CHAMFERA
 40
0.0
  9
$CHAMFERB
 40
0.0
  9
$CHAMFERC
 40
0.0
  9
$CHAMFERD
 40
0.0
  9
$SKPOLY
 70
     0
  9
$TDCREATE
 40
2450372.620949074
  9
$TDUCREATE
 40
2450372.579292014
  9
$TDUPDATE
 40
2458415.423657408
  9
$TDUUPDATE
 40
2458415.381990741
  9
$TDINDWG
 40
0.3340628241
  9
$TDUSRTIMER
 40
0.3340628241
  9
$USRTIMER
 70
     1
  9
$ANGBASE
 50
0.0
  9
$ANGDIR
 70
     0
  9
$PDMODE
 70
     0
  9
$PDSIZE
 40
0.0
  9
$PLINEWID
 40
0.0
  9
$SPLFRAME
 70
     0
  9
$SPLINETYPE
 70
     6
  9
$SPLINESEGS
 70
     8
  9
$HANDSEED
  5
6A9F
  9
$SURFTAB1
 70
     6
  9
$SURFTAB2
 70
     6
  9
$SURFTYPE
 70
     6
  9
$SURFU
 70
     6
  9
$SURFV
 70
     6
  9
$UCSBASE
  2

  9
$UCSNAME
  2

  9
$UCSORG
 10
0.0
 20
0.0
 30
0.0
  9
$UCSXDIR
 10
1.0
 20
0.0
 30
0.0
  9
$UCSYDIR
 10
0.0
 20
1.0
 30
0.0
  9
$UCSORTHOREF
  2

  9
$UCSORTHOVIEW
 70
     0
  9
$UCSORGTOP
 10
0.0
 20
0.0
 30
0.0
  9
$UCSORGBOTTOM
 10
0.0
 20
0.0
 30
0.0
  9
$UCSORGLEFT
 10
0.0
 20
0.0
 30
0.0
  9
$UCSORGRIGHT
 10
0.0
 20
0.0
 30
0.0
  9
$UCSORGFRONT
 10
0.0
 20
0.0
 30
0.0
  9
$UCSORGBACK
 10
0.0
 20
0.0
 30
0.0
  9
$PUCSBASE
  2

  9
$PUCSNAME
  2

  9
$PUCSORG
 10
0.0
 20
0.0
 30
0.0
  9
$PUCSXDIR
 10
1.0
 20
0.0
 30
0.0
  9
$PUCSYDIR
 10
0.0
 20
1.0
 30
0.0
  9
$PUCSORTHOREF
  2

  9
$PUCSORTHOVIEW
 70
     0
  9
$PUCSORGTOP
 10
0.0
 20
0.0
 30
0.0
  9
$PUCSORGBOTTOM
 10
0.0
 20
0.0
 30
0.0
  9
$PUCSORGLEFT
 10
0.0
 20
0.0
 30
0.0
  9
$PUCSORGRIGHT
 10
0.0
 20
0.0
 30
0.0
  9
$PUCSORGFRONT
 10
0.0
 20
0.0
 30
0.0
  9
$PUCSORGBACK
 10
0.0
 20
0.0
 30
0.0
  9
$USERI1
 70
     0
  9
$USERI2
 70
     0
  9
$USERI3
 70
     0
  9
$USERI4
 70
     0
  9
$USERI5
 70
     0
  9
$USERR1
 40
0.0
  9
$USERR2
 40
0.0
  9
$USERR3
 40
0.0
  9
$USERR4
 40
0.0
  9
$USERR5
 40
0.0
  9
$WORLDVIEW
 70
     1
  9
$SHADEDGE
 70
     3
  9
$SHADEDIF
 70
    70
  9
$TILEMODE
 70
     1
  9
$MAXACTVP
 70
    16
  9
$PINSBASE
 10
0.0
 20
0.0
 30
0.0
  9
$PLIMCHECK
 70
     0
  9
$PEXTMIN
 10
1.000000000000000E+20
 20
1.000000000000000E+20
 30
1.000000000000000E+20
  9
$PEXTMAX
 10
-1.000000000000000E+20
 20
-1.000000000000000E+20
 30
-1.000000000000000E+20
  9
$PLIMMIN
 10
-0.1979161059762549
 20
-0.1979166503966324
  9
$PLIMMAX
 10
11.4920836921752
 20
8.068749791993869
  9
$UNITMODE
 70
     0
  9
$VISRETAIN
 70
     0
  9
$PLINEGEN
 70
     0
  9
$PSLTSCALE
 70
     1
  9
$TREEDEPTH
 70
  3020
  9
$CMLSTYLE
  2
STANDARD
  9
$CMLJUST
 70
     0
  9
$CMLSCALE
 40
1.0
  9
$PROXYGRAPHICS
 70
     1
  9
$MEASUREMENT
 70
     0
  9
$CELWEIGHT
370
    -1
  9
$ENDCAPS
280
     0
  9
$JOINSTYLE
280
     0
  9
$LWDISPLAY
290
     0
  9
$INSUNITS
 70
     0
  9
$HYPERLINKBASE
  1

  9
$STYLESHEET
  1

  9
$XEDIT
290
     1
  9
$CEPSNTYPE
380
     0
  9
$PSTYLEMODE
290
     1
  9
$FINGERPRINTGUID
  2
{E4527D9D-310E-4D1A-8735-C8EBADE98B27}
  9
$VERSIONGUID
  2
{E6A9AC0F-668B-0949-A581-524A35A8A3EB}
  9
$EXTNAMES
290
     1
  9
$PSVPSCALE
 40
0.0
  9
$OLESTARTUP
290
     0
  9
$SORTENTS
280
   127
  9
$INDEXCTL
280
     0
  9
$HIDETEXT
280
     0
  9
$XCLIPFRAME
280
     2
  9
$HALOGAP
280
     0
  9
$OBSCOLOR
 70
   257
  9
$OBSLTYPE
280
     0
  9
$INTERSECTIONDISPLAY
280
     0
  9
$INTERSECTIONCOLOR
 70
   257
  9
$DIMASSOC
280
     1
  9
$PROJECTNAME
  1

  9
$CAMERADISPLAY
290
     0
  9
$LENSLENGTH
 40
50.0
  9
$CAMERAHEIGHT
 40
0.0
  9
$STEPSPERSEC
 40
2.0
  9
$STEPSIZE
 40
6.0
  9
$3DDWFPREC
 40
2.0
  9
$PSOLWIDTH
 40
0.25
  9
$PSOLHEIGHT
 40
4.0
  9
$LOFTANG1
 40
1.570796326794896
  9
$LOFTANG2
 40
1.570796326794896
  9
$LOFTMAG1
 40
0.0
  9
$LOFTMAG2
 40
0.0
  9
$LOFTPARAM
 70
     7
  9
$LOFTNORMALS
280
     1
  9
$LATITUDE
 40
37.795
  9
$LONGITUDE
 40
-122.394
  9
$NORTHDIRECTION
 40
0.0
  9
$TIMEZONE
 70
 -8000
  9
$LIGHTGLYPHDISPLAY
280
     1
  9
$TILEMODELIGHTSYNCH
280
     1
  9
$CMATERIAL
347
5962
  9
$SOLIDHIST
280
     1
  9
$SHOWHIST
280
     1
  9
$DWFFRAME
280
     2
  9
$DGNFRAME
280
     0
  9
$REALWORLDSCALE
290
     1
  9
$INTERFERECOLOR
 62
     1
  9
$INTERFEREOBJVS
345
5984
  9
$INTERFEREVPVS
346
5981
  9
$CSHADOW
280
     0
  9
$SHADOWPLANELOCATION
 40
0.0
  0
ENDSEC
  0
SECTION
  2
CLASSES
  0
CLASS
  1
DICTIONARYVAR
  2
AcDbDictionaryVar
  3
ObjectDBX Classes
 90
        0
 91
       14
280
     0
281
     0
  0
CLASS
  1
IDBUFFER
  2
AcDbIdBuffer
  3
ObjectDBX Classes
 90
        0
 91
        0
280
     0
281
     0
  0
CLASS
  1
ACDBDICTIONARYWDFLT
  2
AcDbDictionaryWithDefault
  3
ObjectDBX Classes
 90
        0
 91
        1
280
     0
281
     0
  0
CLASS
  1
MATERIAL
  2
AcDbMaterial
  3
ObjectDBX Classes
 90
     1153
 91
        3
280
     0
281
     0
  0
CLASS
  1
VISUALSTYLE
  2
AcDbVisualStyle
  3
ObjectDBX Classes
 90
     4095
 91
       26
280
     0
281
     0
  0
CLASS
  1
TABLESTYLE
  2
AcDbTableStyle
  3
ObjectDBX Classes
 90
     4095
 91
        1
280
     0
281
     0
  0
CLASS
  1
SCALE
  2
AcDbScale
  3
ObjectDBX Classes
 90
     1153
 91
       33
280
     0
281
     0
  0
CLASS
  1
MLEADERSTYLE
  2
AcDbMLeaderStyle
  3
ACDB_MLEADERSTYLE_CLASS
 90
     4095
 91
        1
280
     0
281
     0
  0
CLASS
  1
EXACXREFPANELOBJECT
  2
ExAcXREFPanelObject
  3
EXAC_ESW
 90
     1025
 91
        1
280
     0
281
     0
  0
CLASS
  1
NPOCOLLECTION
  2
AcDbImpNonPersistentObjectsCollection
  3
ObjectDBX Classes
 90
     1153
 91
        1
280
     0
281
     0
  0
CLASS
  1
EXACTERMXREFMAP
  2
ExAcTermXrefMap
  3
EXAC_SERVICE
 90
     1025
 91
        1
280
     0
281
     0
  0
CLASS
  1
SORTENTSTABLE
  2
AcDbSortentsTable
  3
ObjectDBX Classes
 90
        0
 91
        2
280
     0
281
     0
  0
CLASS
  1
ACDBSECTIONVIEWSTYLE
  2
AcDbSectionViewStyle
  3
ObjectDBX Classes
 90
     1025
 91
        2
280
     0
281
     0
  0
CLASS
  1
ACDBDETAILVIEWSTYLE
  2
AcDbDetailViewStyle
  3
ObjectDBX Classes
 90
     1025
 91
        2
280
     0
281
     0
  0
CLASS
  1
ACME_DATABASE
  2
AcMeDbDatabase
  3
AcMeServices
 90
     1024
 91
        3
280
     0
281
     0
  0
CLASS
  1
ACME_DOCUMENT
  2
AcMeDbDoc
  3
AcMeServices
 90
     1024
 91
        2
280
     0
281
     0
  0
CLASS
  1
AMGSETTINGSOBJ
  2
AmgSettingsObj
  3
"AcadM|Product Description: AutoCAD Mechanical|Company: Autodesk, Inc."
 90
     1024
 91
        2
280
     0
281
     0
  0
CLASS
  1
ACMESCOPE
  2
AcMeScope
  3
AcMeServices
 90
     1024
 91
        1
280
     0
281
     0
  0
CLASS
  1
ACMECOMMANDHISTORY
  2
AcMeCommandHistory
  3
AcMeServices
 90
     1024
 91
        1
280
     0
281
     0
  0
CLASS
  1
ACIMSYSVARMAN
  2
AcImSysVarManager
  3
AcMeServices
 90
     1024
 91
        3
280
     0
281
     0
  0
CLASS
  1
ACIMINTSYSVAR
  2
AcImIntSysVar
  3
AcMeServices
 90
     1024
 91
        2
280
     0
281
     0
  0
CLASS
  1
ACMESTATEMGR
  2
AcMeStateMgr
  3
AcMeServices
 90
     1024
 91
        1
280
     0
281
     0
  0
CLASS
  1
ACDBENTITYCACHE
  2
AcMeEntityCache
  3
AcMeServices
 90
     1024
 91
        1
280
     0
281
     0
  0
CLASS
  1
ACGREFMASTER
  2
AcGrefMaster
  3
AcAttribServices
 90
     1024
 91
        1
280
     0
281
     0
  0
CLASS
  1
ACRFINSADJUSTERMGR
  2
AcRfInsAdjusterMgr
  3
AcMeServices
 90
     1024
 91
        1
280
     0
281
     0
  0
CLASS
  1
ACGREFACADMASTER
  2
AcGrefacadMaster
  3
AcGrefServices
 90
     1024
 91
        1
280
     0
281
     0
  0
CLASS
  1
AMDTMENUSTATEMGR
  2
AmdtMenuStateMgr
  3
McadcomServices
 90
     1024
 91
        1
280
     0
281
     0
  0
CLASS
  1
AMDTMCOMMENUSTATE
  2
AmdtMcomMenuState
  3
McadcomServices
 90
     1024
 91
        1
280
     0
281
     0
  0
CLASS
  1
AMIMASTER
  2
AmiMaster
  3
AmiServices
 90
     1024
 91
        1
280
     0
281
     0
  0
CLASS
  1
MAPIAMMOUDLE
  2
MApiAmModule
  3
MApiAmServices
 90
     1024
 91
        1
280
     0
281
     0
  0
CLASS
  1
ACIMSTRSYSVAR
  2
AcImStrSysVar
  3
AcMeServices
 90
     1024
 91
        5
280
     0
281
     0
  0
CLASS
  1
AMDTAMMENUSTATE
  2
AmdtAmMenuState
  3
DesignerAssemblies
 90
     1024
 91
        1
280
     0
281
     0
  0
CLASS
  1
ACAMPROJECT
  2
AcAmProject
  3
DesignerAssemblies
 90
     1024
 91
        1
280
     0
281
     0
  0
CLASS
  1
ACAMGRCOMPDEF
  2
AcAmGrCompDef
  3
DesignerAssemblies
 90
     1024
 91
        1
280
     0
281
     0
  0
CLASS
  1
ACAMCOMPDEF
  2
AcAmCompDef
  3
DesignerAssemblies
 90
     1024
 91
        1
280
     0
281
     0
  0
CLASS
  1
ACAMCOMPDEFMGR
  2
AcAmCompDefMgr
  3
DesignerAssemblies
 90
     1024
 91
        1
280
     0
281
     0
  0
CLASS
  1
AMCONTEXTMGR
  2
AcAmContextMgr
  3
DesignerAssemblies
 90
     1024
 91
        1
280
     0
281
     0
  0
CLASS
  1
ACAMCONTEXTMODELER
  2
AcAmContextModeler
  3
DesignerAssemblies
 90
     1024
 91
        1
280
     0
281
     0
  0
CLASS
  1
ACMDATADICTIONARY
  2
AcmDataDictionary
  3
"AcmSymBB|Product Description: AutoCAD Mechanical|Company: Autodesk, Inc."
 90
     1024
 91
        1
280
     0
281
     0
  0
CLASS
  1
ACAMGRCOMPDEFSET
  2
AcAmGrCompDefSet
  3
DesignerAssemblies
 90
     1024
 91
        1
280
     0
281
     0
  0
CLASS
  1
AMDTBROWSERDBTAB
  2
AmdtBrowserDbTab
  3
McadcomServices
 90
     1024
 91
        1
280
     0
281
     0
  0
CLASS
  1
CBROWSERAPPOBJECT
  2
CBrowserAppObject
  3
McadcomServices
 90
     1024
 91
        2
280
     0
281
     0
  0
CLASS
  1
DM_PLACEHOLDER
  2
AcDmSelsetPlaceholder
  3
McadcomServices
 90
     1024
 91
        1
280
     0
281
     0
  0
CLASS
  1
ACMSTANDARDANSI
  2
AcmStandardANSI
  3
"Amdt_StdImp|Product Description: AutoCAD Mechanical|Company: Autodesk, Inc."
 90
     1024
 91
        1
280
     0
281
     0
  0
CLASS
  1
ACMSURFSTANDARDANSI
  2
AcmSurfTextStdANSI
  3
"Amdt_StdImp|Product Description: AutoCAD Mechanical|Company: Autodesk, Inc."
 90
     1024
 91
        1
280
     0
281
     0
  0
CLASS
  1
ACMFCFSTANDARDANSI
  2
AcmFCFStdANSI
  3
"Amdt_StdImp|Product Description: AutoCAD Mechanical|Company: Autodesk, Inc."
 90
     1024
 91
        1
280
     0
281
     0
  0
CLASS
  1
ACMWELDSTANDARDANSI
  2
AcmWeldingStdANSI
  3
"Amdt_StdImp|Product Description: AutoCAD Mechanical|Company: Autodesk, Inc."
 90
     1024
 91
        1
280
     0
281
     0
  0
CLASS
  1
ACMIDSTANDARDANSI
  2
AcmIdStdANSI
  3
"Amdt_StdImp|Product Description: AutoCAD Mechanical|Company: Autodesk, Inc."
 90
     1024
 91
        1
280
     0
281
     0
  0
CLASS
  1
ACMDATUMSTANDARDANSI
  2
AcmDatumStdANSI
  3
"Amdt_StdImp|Product Description: AutoCAD Mechanical|Company: Autodesk, Inc."
 90
     1024
 91
        1
280
     0
281
     0
  0
CLASS
  1
ACMBOMSTANDARDANSI
  2
AcmBOMStdANSI
  3
"Amdt_StdImp|Product Description: AutoCAD Mechanical|Company: Autodesk, Inc."
 90
     1024
 91
        1
280
     0
281
     0
  0
CLASS
  1
ACMDETAILSTANDARDANSI
  2
AmdtDetailSymStdANSI
  3
"Amdt_StdImp|Product Description: AutoCAD Mechanical|Company: Autodesk, Inc."
 90
     1024
 91
        1
280
     0
281
     0
  0
CLASS
  1
ACMSECTIONSTANDARDANSI
  2
AmdtSectionSymStdANSI
  3
"Amdt_StdImp|Product Description: AutoCAD Mechanical|Company: Autodesk, Inc."
 90
     1024
 91
        1
280
     0
281
     0
  0
CLASS
  1
ACMCENTERLINESTANDARDANSI
  2
AmdtCenterLineStdANSI
  3
"Amdt_StdImp|Product Description: AutoCAD Mechanical|Company: Autodesk, Inc."
 90
     1024
 91
        1
280
     0
281
     0
  0
CLASS
  1
ACMTHREADLINESTANDARDANSI
  2
AmdtThreadLineStdANSI
  3
"Amdt_StdImp|Product Description: AutoCAD Mechanical|Company: Autodesk, Inc."
 90
     1024
 91
        1
280
     0
281
     0
  0
CLASS
  1
ACMNOTESTANDARDANSI
  2
AmdtNoteStdANSI
  3
"Amdt_StdImp|Product Description: AutoCAD Mechanical|Company: Autodesk, Inc."
 90
     1024
 91
        1
280
     0
281
     0
  0
CLASS
  1
ACMTAPERSTANDARDANSI
  2
AcmTaperStdANSI
  3
"Amdt_StdImp|Product Description: AutoCAD Mechanical|Company: Autodesk, Inc."
 90
     1024
 91
        1
280
     0
281
     0
  0
CLASS
  1
ACMANOOTATIONVIEWSTANDARDANSI
  2
AmdtAnViewStdANSI
  3
"Amdt_StdImp|Product Description: AutoCAD Mechanical|Company: Autodesk, Inc."
 90
     1024
 91
        1
280
     0
281
     0
  0
CLASS
  1
ACAMGLAYSTD
  2
AcAmgLayStd
  3
"AmgLay|Product Description: AutoCAD Mechanical|Company: Autodesk, Inc."
 90
     1024
 91
        1
280
     0
281
     0
  0
CLASS
  1
ACAMGDIMSTD
  2
AcAmgDimStd
  3
"AmgDim|Product Description: AutoCAD Mechanical|Company: Autodesk, Inc."
 90
     1024
 91
        1
280
     0
281
     0
  0
CLASS
  1
AMGOBJPROPCFG
  2
AmgObjPropCfg
  3
"AmgLay|Product Description: AutoCAD Mechanical|Company: Autodesk, Inc."
 90
     1024
 91
        1
280
     0
281
     0
  0
CLASS
  1
ACAMGHOLECHARTSTDANSI
  2
AcAmgHoleChartStdANSI
  3
AmgDim|Product Description: AutoCAD Mechanical|Company: Autodesk, Inc.
 90
     1024
 91
        1
280
     0
281
     0
  0
CLASS
  1
ACAMGTITLESTD
  2
AcAmgTitleStd
  3
"AmgTitle|Product Description: AutoCAD Mechanical|Company: Autodesk, Inc."
 90
     1024
 91
        1
280
     0
281
     0
  0
CLASS
  1
ACMSECTIONSTANDARDCUSTOM
  2
AmdtSectionSymStdCustom
  3
"Amdt_StdImp|Product Description: AutoCAD Mechanical|Company: Autodesk, Inc."
 90
     1024
 91
        1
280
     0
281
     0
  0
CLASS
  1
ACMDETAILTANDARDCUSTOM
  2
AmdtDetailSymStdCustom
  3
"Amdt_StdImp|Product Description: AutoCAD Mechanical|Company: Autodesk, Inc."
 90
     1024
 91
        1
280
     0
281
     0
  0
CLASS
  1
FIELD
  2
AcDbField
  3
ObjectDBX Classes
 90
     1152
 91
        4
280
     0
281
     0
  0
CLASS
  1
FIELDLIST
  2
AcDbFieldList
  3
ObjectDBX Classes
 90
     1152
 91
        1
280
     0
281
     0
  0
CLASS
  1
AMDTNOTETEMPLATEDB
  2
AmdtNoteTemplateDB
  3
AcmSymBB|Product Description: AutoCAD Mechanical|Company: Autodesk, Inc.
 90
     1024
 91
        7
280
     0
281
     0
  0
CLASS
  1
ACAMGFILTERDAT
  2
AcAmgFilterDat
  3
"AcadM|Product Description: AutoCAD Mechanical|Company: Autodesk, Inc."
 90
     1024
 91
        6
280
     0
281
     0
  0
CLASS
  1
CELLSTYLEMAP
  2
AcDbCellStyleMap
  3
ObjectDBX Classes
 90
     1152
 91
        1
280
     0
281
     0
  0
ENDSEC
  0
SECTION
  2
TABLES
  0
TABLE
  2
VPORT
  5
8
330
0
100
AcDbSymbolTable
 70
     1
  0
VPORT
  5
595D
330
8
100
AcDbSymbolTableRecord
100
AcDbViewportTableRecord
  2
*ACTIVE
 70
     0
 10
0.0
 20
0.0
 11
1.0
 21
1.0
 12
278.1353070594231
 22
293.2908722425185
 13
0.0
 23
0.0
 14
1.0
 24
1.0
 15
0.0
 25
0.0
 16
0.0
 26
0.0
 36
1.0
 17
0.0
 27
0.0
 37
0.0
 40
478.1711621062691
 41
1.984633569739952
 42
50.0
 43
0.0
 44
0.0
 50
0.0
 51
0.0
 71
     0
 72
  1000
 73
     1
 74
     1
 75
     0
 76
     0
 77
     0
 78
     0
281
     0
 65
     1
110
0.0
120
0.0
130
0.0
111
1.0
121
0.0
131
0.0
112
0.0
122
1.0
132
0.0
 79
     0
146
0.0
348
5980
 60
     3
 61
     5
292
     1
282
     1
141
0.0
142
0.0
 63
   250
421
  3355443
1001
ACAD_NAV_VCDISPLAY
1070
     3
  0
ENDTAB
  0
TABLE
  2
LTYPE
  5
5
330
0
100
AcDbSymbolTable
 70
    43
  0
LTYPE
  5
13
330
5
100
AcDbSymbolTableRecord
100
AcDbLinetypeTableRecord
  2
BYBLOCK
 70
     0
  3

 72
    65
 73
     0
 40
0.0
  0
LTYPE
  5
14
330
5
100
AcDbSymbolTableRecord
100
AcDbLinetypeTableRecord
  2
BYLAYER
 70
     0
  3

 72
    65
 73
     0
 40
0.0
  0
LTYPE
  5
15
330
5
100
AcDbSymbolTableRecord
100
AcDbLinetypeTableRecord
  2
CONTINUOUS
 70
     0
  3
Solid line
 72
    65
 73
     0
 40
0.0
  0
LTYPE
  5
1E
330
5
100
AcDbSymbolTableRecord
100
AcDbLinetypeTableRecord
  2
CENTER
 70
     0
  3
Center ____ _ ____ _ ____ _ ____ _ ____ _ ____
 72
    65
 73
     4
 40
50.8
 49
31.75
 74
     0
 49
-6.349999999999999
 74
     0
 49
6.349999999999999
 74
     0
 49
-6.349999999999999
 74
     0
  0
LTYPE
  5
3C2
330
5
100
AcDbSymbolTableRecord
100
AcDbLinetypeTableRecord
  2
CENTER2
 70
     0
  3
Center (.5x) ___ _ ___ _ ___ _ ___ _ ___ _ ___
 72
    65
 73
     4
 40
28.575
 49
19.05
 74
     0
 49
-3.174999999999999
 74
     0
 49
3.174999999999999
 74
     0
 49
-3.174999999999999
 74
     0
  0
LTYPE
  5
2A2D
330
5
100
AcDbSymbolTableRecord
100
AcDbLinetypeTableRecord
  2
HIDDEN2
 70
     0
  3
Hidden (.5x) _ _ _ _ _ _ _ _ _ _ _ _ _ _ _ _ _
 72
    65
 73
     2
 40
4.762499999999999
 49
3.174999999999999
 74
     0
 49
-1.587499999999999
 74
     0
  0
LTYPE
  5
606D
330
5
100
AcDbSymbolTableRecord
100
AcDbLinetypeTableRecord
  2
A3stddwgtitblk|GRID1_50
 70
    48
  3
________________  __  ________________  __
 72
    65
 73
     4
 40
1800.0
 49
1500.0
 74
     0
 49
-100.0
 74
     0
 49
100.0
 74
     0
 49
-100.0
 74
     0
  0
LTYPE
  5
6081
330
5
100
AcDbSymbolTableRecord
100
AcDbLinetypeTableRecord
  2
HIDDEN
 70
     0
  3
Hidden __ __ __ __ __ __ __ __ __ __ __ __ __ _
 72
    65
 73
     2
 40
0.375
 49
0.25
 74
     0
 49
-0.125
 74
     0
  0
LTYPE
  5
6082
330
5
100
AcDbSymbolTableRecord
100
AcDbLinetypeTableRecord
  2
PHANTOM2
 70
     0
  3
Phantom (.5x) ___ _ _ ___ _ _ ___ _ _ ___ _ _
 72
    65
 73
     6
 40
1.25
 49
0.625
 74
     0
 49
-0.125
 74
     0
 49
0.125
 74
     0
 49
-0.125
 74
     0
 49
0.125
 74
     0
 49
-0.125
 74
     0
  0
LTYPE
  5
60BF
330
5
100
AcDbSymbolTableRecord
100
AcDbLinetypeTableRecord
  2
Amconstr
 70
     0
  3
_______________________
 72
    65
 73
     2
 40
9999.0
 49
9999.0
 74
     0
 49
0.0
 74
     0
  0
LTYPE
  5
60C5
330
5
100
AcDbSymbolTableRecord
100
AcDbLinetypeTableRecord
  2
Amzigzag2
 70
     0
  3
/\/-/\/-/\/-/\/-/\/-/\/
 72
    65
 73
     2
 40
0.4401
 49
0.0001
 74
     4
 75
   136
340
60C3
 46
0.0016
 50
0.0
 44
0.0
 45
0.0
 49
-0.4400000000000001
 74
     0
  0
LTYPE
  5
60D5
330
5
100
AcDbSymbolTableRecord
100
AcDbLinetypeTableRecord
  2
ACANSTGB
 70
     0
  3
__ . . __ . .
 72
    65
 73
     6
 40
0.35433070866
 49
0.15748031496
 74
     0
 49
-0.03937007874
 74
     0
 49
0.03937007874
 74
     0
 49
-0.03937007874
 74
     0
 49
0.03937007874
 74
     0
 49
-0.03937007874
 74
     0
  0
LTYPE
  5
60D6
330
5
100
AcDbSymbolTableRecord
100
AcDbLinetypeTableRecord
  2
ACANSTGL
 70
     0
  3
_ _ _ _ _
 72
    65
 73
     2
 40
0.11811023622
 49
0.07874015748
 74
     0
 49
-0.03937007874
 74
     0
  0
ENDTAB
  0
TABLE
  2
LAYER
  5
2
102
{ACAD_XDICTIONARY
360
59C3
102
}
330
0
100
AcDbSymbolTable
 70
    29
  0
LAYER
  5
F
102
{ACAD_XDICTIONARY
360
59ED
102
}
330
2
100
AcDbSymbolTableRecord
100
AcDbLayerTableRecord
  2
0
 70
     0
 62
     7
  6
CONTINUOUS
370
    -3
390
5960
347
5972
  0
LAYER
  5
3C4
102
{ACAD_XDICTIONARY
360
59F7
102
}
330
2
100
AcDbSymbolTableRecord
100
AcDbLayerTableRecord
  2
CENTRE
 70
     0
 62
     1
  6
CENTER
370
    -3
390
5960
347
5972
  0
LAYER
  5
3C5
102
{ACAD_XDICTIONARY
360
59F9
102
}
330
2
100
AcDbSymbolTableRecord
100
AcDbLayerTableRecord
  2
DIMENSIONS
 70
     0
 62
     2
  6
CONTINUOUS
370
    -3
390
5960
347
5972
  0
LAYER
  5
3C6
102
{ACAD_XDICTIONARY
360
59FB
102
}
330
2
100
AcDbSymbolTableRecord
100
AcDbLayerTableRecord
  2
HATCH
 70
     0
 62
     9
  6
CONTINUOUS
370
    -3
390
5960
347
5972
  0
LAYER
  5
3C8
102
{ACAD_XDICTIONARY
360
59FF
102
}
330
2
100
AcDbSymbolTableRecord
100
AcDbLayerTableRecord
  2
OUTLINE
 70
     0
 62
     4
  6
CONTINUOUS
370
    -3
390
5960
347
5972
  0
LAYER
  5
32A2
330
2
100
AcDbSymbolTableRecord
100
AcDbLayerTableRecord
  2
DEFPOINTS
 70
     0
 62
     7
  6
CONTINUOUS
290
     0
370
    -3
390
5960
347
5972
  0
LAYER
  5
61E6
102
{ACAD_XDICTIONARY
360
61E7
102
}
330
2
100
AcDbSymbolTableRecord
100
AcDbLayerTableRecord
  2
ANCON-TEXT
 70
     0
 62
     6
  6
CONTINUOUS
370
    -3
390
5960
347
5972
  0
ENDTAB
  0
TABLE
  2
STYLE
  5
3
330
0
100
AcDbSymbolTable
 70
     9
  0
STYLE
  5
10
330
3
100
AcDbSymbolTableRecord
100
AcDbTextStyleTableRecord
  2
STANDARD
 70
     0
 40
0.0
 41
1.0
 50
0.0
 71
     0
 42
2.0
  3
tahoma.ttf
  4

1001
ACAD
1000
Tahoma
1071
       34
  0
STYLE
  5
32A3
330
3
100
AcDbSymbolTableRecord
100
AcDbTextStyleTableRecord
  2
BOLD
 70
     0
 40
0.0
 41
1.0
 50
0.0
 71
     0
 42
3.0
  3
arial.ttf
  4

1001
ACAD
1000
Arial
1071
       34
  0
STYLE
  5
60C3
330
3
100
AcDbSymbolTableRecord
100
AcDbTextStyleTableRecord
  2

 70
     1
 40
0.0
 41
1.0
 50
0.0
 71
     0
 42
2.0
  3
genltshp.shx
  4

  0
STYLE
  5
60D4
330
3
100
AcDbSymbolTableRecord
100
AcDbTextStyleTableRecord
  2
ACANSGDT
 70
     0
 40
0.0
 41
1.0
 50
0.0
 71
     0
 42
2.0
  3
amgdt.shx
  4

  0
ENDTAB
  0
TABLE
  2
VIEW
  5
6
330
0
100
AcDbSymbolTable
 70
     3
  0
ENDTAB
  0
TABLE
  2
UCS
  5
7
330
0
100
AcDbSymbolTable
 70
     0
  0
ENDTAB
  0
TABLE
  2
APPID
  5
9
330
0
100
AcDbSymbolTable
 70
    19
  0
APPID
  5
11
330
9
100
AcDbSymbolTableRecord
100
AcDbRegAppTableRecord
  2
ACAD
 70
     0
  0
APPID
  5
59D0
330
9
100
AcDbSymbolTableRecord
100
AcDbRegAppTableRecord
  2
ACAD_PSEXT
 70
     0
  0
APPID
  5
59E9
330
9
100
AcDbSymbolTableRecord
100
AcDbRegAppTableRecord
  2
ACAD_MLEADERVER
 70
     0
  0
APPID
  5
5A72
330
9
100
AcDbSymbolTableRecord
100
AcDbRegAppTableRecord
  2
AcadAnnoPO
 70
     0
  0
APPID
  5
5ED2
330
9
100
AcDbSymbolTableRecord
100
AcDbRegAppTableRecord
  2
ACAD_EXEMPT_FROM_CAD_STANDARDS
 70
     0
  0
APPID
  5
5F14
330
9
100
AcDbSymbolTableRecord
100
AcDbRegAppTableRecord
  2
ACAD_DSTYLE_DIMJAG
 70
     0
  0
APPID
  5
5F15
330
9
100
AcDbSymbolTableRecord
100
AcDbRegAppTableRecord
  2
ACAD_DSTYLE_DIMTALN
 70
     0
  0
APPID
  5
607A
330
9
100
AcDbSymbolTableRecord
100
AcDbRegAppTableRecord
  2
MCAD_NO_VIS
 70
     0
  0
APPID
  5
607B
330
9
100
AcDbSymbolTableRecord
100
AcDbRegAppTableRecord
  2
ACAD_TEMP_GRAPHIC
 70
     0
  0
APPID
  5
6087
330
9
100
AcDbSymbolTableRecord
100
AcDbRegAppTableRecord
  2
ACATTRIBSERVICES
 70
     0
  0
APPID
  5
609F
330
9
100
AcDbSymbolTableRecord
100
AcDbRegAppTableRecord
  2
DESIGNERASSEMBLIES
 70
     0
  0
APPID
  5
60BA
330
9
100
AcDbSymbolTableRecord
100
AcDbRegAppTableRecord
  2
ACAD_DSTYLE_DIMBREAK
 70
     0
  0
APPID
  5
60ED
330
9
100
AcDbSymbolTableRecord
100
AcDbRegAppTableRecord
  2
AcAecLayerStandard
 70
     0
  0
APPID
  5
60EE
330
9
100
AcDbSymbolTableRecord
100
AcDbRegAppTableRecord
  2
GENIUS_GENSCREG_15
 70
     0
  0
APPID
  5
60EF
330
9
100
AcDbSymbolTableRecord
100
AcDbRegAppTableRecord
  2
GENIUS_GENODEF_13
 70
     0
  0
APPID
  5
60F0
330
9
100
AcDbSymbolTableRecord
100
AcDbRegAppTableRecord
  2
GENIUS_GENOBJ-N-SDF_13
 70
     0
  0
APPID
  5
61EA
330
9
100
AcDbSymbolTableRecord
100
AcDbRegAppTableRecord
  2
ACAD_NAV_VCDISPLAY
 70
     0
  0
APPID
  5
61EB
330
9
100
AcDbSymbolTableRecord
100
AcDbRegAppTableRecord
  2
ACAD_DSTYLE_DIMINSPECT
 70
     0
  0
APPID
  5
674A
330
9
100
AcDbSymbolTableRecord
100
AcDbRegAppTableRecord
  2
GENIUS_GENDTOL_13
 70
     0
  0
ENDTAB
  0
TABLE
  2
DIMSTYLE
  5
A
330
0
100
AcDbSymbolTable
 70
    23
100
AcDbDimStyleTable
 71
     2
340
547A
340
61E8
  0
DIMSTYLE
105
3B3
330
A
100
AcDbSymbolTableRecord
100
AcDbDimStyleTableRecord
  2
STANDARD
 70
     0
 41
3.0
 42
3.0
 43
10.0
 44
3.0
 73
     0
 74
     0
 77
     1
140
3.0
141
3.0
147
1.5
172
     1
176
     2
177
     2
178
   254
271
     2
272
     2
289
     0
340
10
  0
DIMSTYLE
105
547A
330
A
100
AcDbSymbolTableRecord
100
AcDbDimStyleTableRecord
  2
2-1
 70
     0
 40
0.0
 41
1.5
 42
0.75
 43
5.0
 44
0.75
 73
     0
 74
     0
 77
     1
 78
     8
140
1.5
141
0.0
143
0.0394
144
0.25
147
0.75
171
     4
271
     2
272
     2
273
     8
274
     4
340
10
1001
ACAD_DSTYLE_DIMJAG
1070
   388
1040
1.5
1001
ACAD_DSTYLE_DIMTALN
1070
   392
1070
     0
  0
DIMSTYLE
105
60B9
102
{ACAD_REACTORS
330
60A9
102
}
330
A
100
AcDbSymbolTableRecord
100
AcDbDimStyleTableRecord
  2
AM_ANSI
 70
     0
  4
mm
 41
0.12
 42
0.05
 43
0.5
 44
0.1
 47
0.1
 48
0.1
 78
     7
 79
     2
 90
     1
140
0.12
141
0.0
146
0.71
147
0.06
176
   256
177
   256
178
     2
274
     4
284
     7
340
10
345
13
346
13
347
13
371
    -1
372
    -1
1001
ACAD_DSTYLE_DIMJAG
1070
   388
1040
1.5
1001
ACAD_DSTYLE_DIMBREAK
1070
   391
1040
0.125
  0
DIMSTYLE
105
60C6
330
A
100
AcDbSymbolTableRecord
100
AcDbDimStyleTableRecord
  2
AM_ANSI$3
 70
     0
  4
mm
 41
0.12
 42
0.05
 43
0.5
 44
0.1
 47
0.1
 48
0.1
 78
     7
 79
     2
 90
     1
140
0.12
141
0.0
146
0.71
147
0.06
176
   256
177
   256
178
     2
274
     4
284
     7
288
     1
289
     0
340
10
345
13
346
13
347
13
371
    -1
372
    -1
1001
ACAD_DSTYLE_DIMBREAK
1070
   391
1040
0.125
1001
ACAD_DSTYLE_DIMJAG
1070
   388
1040
1.5
  0
DIMSTYLE
105
60C7
330
A
100
AcDbSymbolTableRecord
100
AcDbDimStyleTableRecord
  2
AM_ANSI$4
 70
     0
  4
mm
 41
0.12
 42
0.05
 43
0.5
 44
0.1
 47
0.1
 48
0.1
 78
     7
 79
     2
 90
     1
140
0.12
141
0.0
146
0.71
147
0.06
176
   256
177
   256
178
     2
274
     4
284
     7
288
     1
289
     0
340
10
345
13
346
13
347
13
371
    -1
372
    -1
1001
ACAD_DSTYLE_DIMBREAK
1070
   391
1040
0.125
1001
ACAD_DSTYLE_DIMJAG
1070
   388
1040
1.5
  0
DIMSTYLE
105
60C8
330
A
100
AcDbSymbolTableRecord
100
AcDbDimStyleTableRecord
  2
AM_ANSI$7
 70
     0
  4
mm
 41
0.12
 42
0.05
 43
0.5
 44
0.1
 47
0.1
 48
0.1
 78
     7
 79
     2
 90
     1
140
0.12
141
0.0
146
0.71
147
0.06
176
   256
177
   256
178
     2
274
     4
284
     7
340
10
345
13
346
13
347
13
371
    -1
372
    -1
1001
ACAD_DSTYLE_DIMBREAK
1070
   391
1040
0.125
1001
ACAD_DSTYLE_DIMJAG
1070
   388
1040
1.5
  0
DIMSTYLE
105
60C9
330
A
100
AcDbSymbolTableRecord
100
AcDbDimStyleTableRecord
  2
AM_ANSI$SF
 70
     0
  4
mm
 41
0.12
 42
0.05
 43
0.5
 44
0.1
 47
0.1
 48
0.1
 75
     1
 76
     1
 78
     7
 79
     2
 90
     1
140
0.12
141
0.0
146
0.71
147
0.06
176
   256
177
   256
178
     2
274
     4
284
     7
340
10
345
13
346
13
347
13
371
    -1
372
    -1
1001
ACAD_DSTYLE_DIMBREAK
1070
   391
1040
0.125
1001
ACAD_DSTYLE_DIMJAG
1070
   388
1040
1.5
  0
DIMSTYLE
105
60CE
330
A
100
AcDbSymbolTableRecord
100
AcDbDimStyleTableRecord
  2
AM_ANSI$SH
 70
     0
  4
mm
 41
0.12
 42
0.05
 43
0.5
 44
0.1
 47
0.1
 48
0.1
 75
     1
 76
     1
 78
     7
 79
     2
 90
     1
140
0.12
141
0.0
146
0.71
147
0.06
173
     1
176
   256
177
   256
178
     2
274
     4
284
     7
340
10
343
60CA
345
13
346
13
347
13
371
    -1
372
    -1
1001
ACAD_DSTYLE_DIMBREAK
1070
   391
1040
0.125
1001
ACAD_DSTYLE_DIMJAG
1070
   388
1040
1.5
  0
DIMSTYLE
105
61E8
102
{ACAD_REACTORS
330
61FF
330
6229
330
6228
330
621C
330
621B
330
6216
330
6215
330
61FE
330
61FD
330
61FC
330
61FB
330
61FA
330
61F9
330
6202
330
439B
330
4378
330
3E4D
330
3E2A
330
33D4
330
33D3
330
32D8
330
32D7
330
32D6
330
32D5
330
32D4
330
32D3
330
32D2
330
32DB
102
}
330
A
100
AcDbSymbolTableRecord
100
AcDbDimStyleTableRecord
  2
STDX2_1_1
 70
     0
 40
2.0
 41
2.5
 42
2.0
 43
5.0
 44
2.0
 73
     0
 74
     0
 77
     1
 78
     8
140
3.0
141
0.0
143
0.0394
147
1.0
171
     4
271
     2
272
     0
273
     8
274
     4
340
10
  0
ENDTAB
  0
TABLE
  2
BLOCK_RECORD
  5
1
330
0
100
AcDbSymbolTable
 70
    68
  0
BLOCK_RECORD
  5
19
330
1
100
AcDbSymbolTableRecord
100
AcDbBlockTableRecord
  2
*MODEL_SPACE
340
59B7
 70
     0
280
     1
281
     0
  0
BLOCK_RECORD
  5
6A00
330
1
100
AcDbSymbolTableRecord
100
AcDbBlockTableRecord
  2
*Paper_Space
340
6A01
 70
     0
280
     1
281
     0
  0
BLOCK_RECORD
  5
3198
330
1
100
AcDbSymbolTableRecord
100
AcDbBlockTableRecord
  2
*D0
340
0
 70
     0
280
     1
281
     0
  0
BLOCK_RECORD
  5
31A4
330
1
100
AcDbSymbolTableRecord
100
AcDbBlockTableRecord
  2
*D1
340
0
 70
     0
280
     1
281
     0
  0
BLOCK_RECORD
  5
31AF
330
1
100
AcDbSymbolTableRecord
100
AcDbBlockTableRecord
  2
*D2
340
0
 70
     0
280
     1
281
     0
  0
BLOCK_RECORD
  5
31BA
330
1
100
AcDbSymbolTableRecord
100
AcDbBlockTableRecord
  2
*D3
340
0
 70
     0
280
     1
281
     0
  0
BLOCK_RECORD
  5
31C5
330
1
100
AcDbSymbolTableRecord
100
AcDbBlockTableRecord
  2
*D4
340
0
 70
     0
280
     1
281
     0
  0
BLOCK_RECORD
  5
31D0
330
1
100
AcDbSymbolTableRecord
100
AcDbBlockTableRecord
  2
*D5
340
0
 70
     0
280
     1
281
     0
  0
BLOCK_RECORD
  5
31DB
330
1
100
AcDbSymbolTableRecord
100
AcDbBlockTableRecord
  2
*D6
340
0
 70
     0
280
     1
281
     0
  0
BLOCK_RECORD
  5
31E7
330
1
100
AcDbSymbolTableRecord
100
AcDbBlockTableRecord
  2
*D7
340
0
 70
     0
280
     1
281
     0
  0
BLOCK_RECORD
  5
328C
330
1
100
AcDbSymbolTableRecord
100
AcDbBlockTableRecord
  2
*D20
340
0
 70
     0
280
     1
281
     0
  0
BLOCK_RECORD
  5
3297
330
1
100
AcDbSymbolTableRecord
100
AcDbBlockTableRecord
  2
*D21
340
0
 70
     0
280
     1
281
     0
  0
BLOCK_RECORD
  5
3E2B
330
1
100
AcDbSymbolTableRecord
100
AcDbBlockTableRecord
  2
*D22
340
0
 70
     0
280
     1
281
     0
  0
BLOCK_RECORD
  5
3E4E
330
1
100
AcDbSymbolTableRecord
100
AcDbBlockTableRecord
  2
*D23
340
0
 70
     0
280
     1
281
     0
  0
BLOCK_RECORD
  5
4379
330
1
100
AcDbSymbolTableRecord
100
AcDbBlockTableRecord
  2
*D24
340
0
 70
     0
280
     1
281
     0
  0
BLOCK_RECORD
  5
439C
330
1
100
AcDbSymbolTableRecord
100
AcDbBlockTableRecord
  2
*D25
340
0
 70
     0
280
     1
281
     0
  0
BLOCK_RECORD
  5
59D6
330
1
100
AcDbSymbolTableRecord
100
AcDbBlockTableRecord
  2
A3stddwgtitblk
340
0
102
{BLKREFS
102
}
 70
     0
280
     1
281
     0
  0
BLOCK_RECORD
  5
60CA
330
1
100
AcDbSymbolTableRecord
100
AcDbBlockTableRecord
  2
GENAXEH
340
0
 70
     0
280
     1
281
     0
  0
BLOCK_RECORD
  5
60D8
330
1
100
AcDbSymbolTableRecord
100
AcDbBlockTableRecord
  2
_ACMFILLEDHALF
340
0
 70
     0
280
     1
281
     0
  0
ENDTAB
  0
ENDSEC
  0
SECTION
  2
BLOCKS
  0
BLOCK
  5
1A
330
19
100
AcDbEntity
  8
0
100
AcDbBlockBegin
  2
*MODEL_SPACE
 70
     0
 10
0.0
 20
0.0
 30
0.0
  3
*MODEL_SPACE
  1

  0
ENDBLK
  5
1B
330
19
100
AcDbEntity
  8
0
100
AcDbBlockEnd
  0
BLOCK
  5
6A02
330
6A00
100
AcDbEntity
 67
     1
  8
0
100
AcDbBlockBegin
  2
*Paper_Space
 70
     0
 10
0.0
 20
0.0
 30
0.0
  3
*Paper_Space
  1

  0
ENDBLK
  5
6A03
330
6A00
100
AcDbEntity
 67
     1
  8
0
100
AcDbBlockEnd
  0
BLOCK
  5
5320
330
3198
100
AcDbEntity
  8
0
100
AcDbBlockBegin
  2
*D0
 70
     1
 10
0.0
 20
0.0
 30
0.0
  3
*D0
  1

  0
LINE
  5
6974
330
3198
100
AcDbEntity
  8
DIMENSIONS
 62
     0
440
 16777216
370
    -2
100
AcDbLine
 10
77.9928
 20
423.1283213988424
 30
0.0
 11
77.9928
 21
437.1283213988424
 31
0.0
  0
LINE
  5
6975
330
3198
100
AcDbEntity
  8
DIMENSIONS
 62
     0
440
 16777216
370
    -2
100
AcDbLine
 10
53.9928
 20
417.1283213988424
 30
0.0
 11
53.9928
 21
437.1283213988424
 31
0.0
  0
LINE
  5
6976
330
3198
100
AcDbEntity
  8
DIMENSIONS
 62
     0
440
 16777216
370
    -2
100
AcDbLine
 10
71.9928
 20
435.1283213988424
 30
0.0
 11
59.9928
 21
435.1283213988424
 31
0.0
  0
SOLID
  5
6977
330
3198
100
AcDbEntity
  8
DIMENSIONS
 62
     0
440
 16777216
100
AcDbTrace
 10
71.9928
 20
436.1283213988424
 30
0.0
 11
71.9928
 21
434.1283213988424
 31
0.0
 12
77.9928
 22
435.1283213988424
 32
0.0
 13
77.9928
 23
435.1283213988424
 33
0.0
  0
SOLID
  5
6978
330
3198
100
AcDbEntity
  8
DIMENSIONS
 62
     0
440
 16777216
100
AcDbTrace
 10
59.9928
 20
436.1283213988424
 30
0.0
 11
59.9928
 21
434.1283213988424
 31
0.0
 12
53.9928
 22
435.1283213988424
 32
0.0
 13
53.9928
 23
435.1283213988424
 33
0.0
  0
MTEXT
  5
6979
330
3198
100
AcDbEntity
  8
DIMENSIONS
 62
     0
440
 16777216
100
AcDbMText
 10
65.9928
 20
441.1907794243629
 30
0.0
 40
6.0
 41
0.0
 46
0.0
 71
     5
 72
     1
  1
\A1;24
 73
     1
 44
1.0
  0
POINT
  5
697A
330
3198
100
AcDbEntity
  8
DEFPOINTS
 62
     0
440
 16777216
100
AcDbPoint
 10
77.9928
 20
421.1283213988424
 30
0.0
  0
POINT
  5
697B
330
3198
100
AcDbEntity
  8
DEFPOINTS
 62
     0
440
 16777216
100
AcDbPoint
 10
53.9928
 20
415.1283213988424
 30
0.0
  0
POINT
  5
697C
330
3198
100
AcDbEntity
  8
DEFPOINTS
 62
     0
440
 16777216
100
AcDbPoint
 10
53.9928
 20
435.1283213988424
 30
0.0
  0
ENDBLK
  5
532B
330
3198
100
AcDbEntity
  8
0
100
AcDbBlockEnd
  0
BLOCK
  5
5315
330
31A4
100
AcDbEntity
  8
0
100
AcDbBlockBegin
  2
*D1
 70
     1
 10
0.0
 20
0.0
 30
0.0
  3
*D1
  1

  0
LINE
  5
697D
330
31A4
100
AcDbEntity
  8
DIMENSIONS
 62
     0
440
 16777216
370
    -2
100
AcDbLine
 10
77.9928
 20
423.1283213988424
 30
0.0
 11
77.9928
 21
437.1283213988424
 31
0.0
  0
LINE
  5
697E
330
31A4
100
AcDbEntity
  8
DIMENSIONS
 62
     0
440
 16777216
370
    -2
100
AcDbLine
 10
104.9928
 20
423.1283213988424
 30
0.0
 11
104.9928
 21
437.1283213988424
 31
0.0
  0
LINE
  5
697F
330
31A4
100
AcDbEntity
  8
DIMENSIONS
 62
     0
440
 16777216
370
    -2
100
AcDbLine
 10
83.9928
 20
435.1283213988424
 30
0.0
 11
98.9928
 21
435.1283213988424
 31
0.0
  0
SOLID
  5
6980
330
31A4
100
AcDbEntity
  8
DIMENSIONS
 62
     0
440
 16777216
100
AcDbTrace
 10
83.9928
 20
436.1283213988424
 30
0.0
 11
83.9928
 21
434.1283213988424
 31
0.0
 12
77.9928
 22
435.1283213988424
 32
0.0
 13
77.9928
 23
435.1283213988424
 33
0.0
  0
SOLID
  5
6981
330
31A4
100
AcDbEntity
  8
DIMENSIONS
 62
     0
440
 16777216
100
AcDbTrace
 10
98.9928
 20
436.1283213988424
 30
0.0
 11
98.9928
 21
434.1283213988424
 31
0.0
 12
104.9928
 22
435.1283213988424
 32
0.0
 13
104.9928
 23
435.1283213988424
 33
0.0
  0
MTEXT
  5
6982
330
31A4
100
AcDbEntity
  8
DIMENSIONS
 62
     0
440
 16777216
100
AcDbMText
 10
91.4928
 20
441.1907794243629
 30
0.0
 40
6.0
 41
0.0
 46
0.0
 71
     5
 72
     1
  1
\A1;27
 73
     1
 44
1.0
  0
POINT
  5
6983
330
31A4
100
AcDbEntity
  8
DEFPOINTS
 62
     0
440
 16777216
100
AcDbPoint
 10
77.9928
 20
421.1283213988424
 30
0.0
  0
POINT
  5
6984
330
31A4
100
AcDbEntity
  8
DEFPOINTS
 62
     0
440
 16777216
100
AcDbPoint
 10
104.9928
 20
421.1283213988424
 30
0.0
  0
POINT
  5
6985
330
31A4
100
AcDbEntity
  8
DEFPOINTS
 62
     0
440
 16777216
100
AcDbPoint
 10
104.9928
 20
435.1283213988424
 30
0.0
  0
ENDBLK
  5
531F
330
31A4
100
AcDbEntity
  8
0
100
AcDbBlockEnd
  0
BLOCK
  5
534D
330
31AF
100
AcDbEntity
  8
0
100
AcDbBlockBegin
  2
*D2
 70
     1
 10
0.0
 20
0.0
 30
0.0
  3
*D2
  1

  0
LINE
  5
6986
330
31AF
100
AcDbEntity
  8
DIMENSIONS
 62
     0
440
 16777216
370
    -2
100
AcDbLine
 10
158.9928
 20
423.1283213988424
 30
0.0
 11
158.9928
 21
437.1283213988424
 31
0.0
  0
LINE
  5
6987
330
31AF
100
AcDbEntity
  8
DIMENSIONS
 62
     0
440
 16777216
370
    -2
100
AcDbLine
 10
185.9928
 20
423.1283213988424
 30
0.0
 11
185.9928
 21
437.1283213988424
 31
0.0
  0
LINE
  5
6988
330
31AF
100
AcDbEntity
  8
DIMENSIONS
 62
     0
440
 16777216
370
    -2
100
AcDbLine
 10
164.9928
 20
435.1283213988424
 30
0.0
 11
179.9928
 21
435.1283213988424
 31
0.0
  0
SOLID
  5
6989
330
31AF
100
AcDbEntity
  8
DIMENSIONS
 62
     0
440
 16777216
100
AcDbTrace
 10
164.9928
 20
436.1283213988424
 30
0.0
 11
164.9928
 21
434.1283213988424
 31
0.0
 12
158.9928
 22
435.1283213988424
 32
0.0
 13
158.9928
 23
435.1283213988424
 33
0.0
  0
SOLID
  5
698A
330
31AF
100
AcDbEntity
  8
DIMENSIONS
 62
     0
440
 16777216
100
AcDbTrace
 10
179.9928
 20
436.1283213988424
 30
0.0
 11
179.9928
 21
434.1283213988424
 31
0.0
 12
185.9928
 22
435.1283213988424
 32
0.0
 13
185.9928
 23
435.1283213988424
 33
0.0
  0
MTEXT
  5
698B
330
31AF
100
AcDbEntity
  8
DIMENSIONS
 62
     0
440
 16777216
100
AcDbMText
 10
172.4928
 20
441.1907794243629
 30
0.0
 40
6.0
 41
0.0
 46
0.0
 71
     5
 72
     1
  1
\A1;27
 73
     1
 44
1.0
  0
POINT
  5
698C
330
31AF
100
AcDbEntity
  8
DEFPOINTS
 62
     0
440
 16777216
100
AcDbPoint
 10
158.9928
 20
421.1283213988424
 30
0.0
  0
POINT
  5
698D
330
31AF
100
AcDbEntity
  8
DEFPOINTS
 62
     0
440
 16777216
100
AcDbPoint
 10
185.9928
 20
421.1283213988424
 30
0.0
  0
POINT
  5
698E
330
31AF
100
AcDbEntity
  8
DEFPOINTS
 62
     0
440
 16777216
100
AcDbPoint
 10
185.9928
 20
435.1283213988424
 30
0.0
  0
ENDBLK
  5
5357
330
31AF
100
AcDbEntity
  8
0
100
AcDbBlockEnd
  0
BLOCK
  5
5379
330
31BA
100
AcDbEntity
  8
0
100
AcDbBlockBegin
  2
*D3
 70
     1
 10
0.0
 20
0.0
 30
0.0
  3
*D3
  1

  0
LINE
  5
698F
330
31BA
100
AcDbEntity
  8
DIMENSIONS
 62
     0
440
 16777216
370
    -2
100
AcDbLine
 10
287.9928
 20
423.1283213988424
 30
0.0
 11
287.9928
 21
437.1283213988424
 31
0.0
  0
LINE
  5
6990
330
31BA
100
AcDbEntity
  8
DIMENSIONS
 62
     0
440
 16777216
370
    -2
100
AcDbLine
 10
314.9928
 20
423.1283213988424
 30
0.0
 11
314.9928
 21
437.1283213988424
 31
0.0
  0
LINE
  5
6991
330
31BA
100
AcDbEntity
  8
DIMENSIONS
 62
     0
440
 16777216
370
    -2
100
AcDbLine
 10
293.9928
 20
435.1283213988424
 30
0.0
 11
308.9928
 21
435.1283213988424
 31
0.0
  0
SOLID
  5
6992
330
31BA
100
AcDbEntity
  8
DIMENSIONS
 62
     0
440
 16777216
100
AcDbTrace
 10
293.9928
 20
436.1283213988424
 30
0.0
 11
293.9928
 21
434.1283213988424
 31
0.0
 12
287.9928
 22
435.1283213988424
 32
0.0
 13
287.9928
 23
435.1283213988424
 33
0.0
  0
SOLID
  5
6993
330
31BA
100
AcDbEntity
  8
DIMENSIONS
 62
     0
440
 16777216
100
AcDbTrace
 10
308.9928
 20
436.1283213988424
 30
0.0
 11
308.9928
 21
434.1283213988424
 31
0.0
 12
314.9928
 22
435.1283213988424
 32
0.0
 13
314.9928
 23
435.1283213988424
 33
0.0
  0
MTEXT
  5
6994
330
31BA
100
AcDbEntity
  8
DIMENSIONS
 62
     0
440
 16777216
100
AcDbMText
 10
301.4928
 20
441.1907794243629
 30
0.0
 40
6.0
 41
0.0
 46
0.0
 71
     5
 72
     1
  1
\A1;27
 73
     1
 44
1.0
  0
POINT
  5
6995
330
31BA
100
AcDbEntity
  8
DEFPOINTS
 62
     0
440
 16777216
100
AcDbPoint
 10
287.9928
 20
421.1283213988424
 30
0.0
  0
POINT
  5
6996
330
31BA
100
AcDbEntity
  8
DEFPOINTS
 62
     0
440
 16777216
100
AcDbPoint
 10
314.9928
 20
421.1283213988424
 30
0.0
  0
POINT
  5
6997
330
31BA
100
AcDbEntity
  8
DEFPOINTS
 62
     0
440
 16777216
100
AcDbPoint
 10
314.9928
 20
435.1283213988424
 30
0.0
  0
ENDBLK
  5
5383
330
31BA
100
AcDbEntity
  8
0
100
AcDbBlockEnd
  0
BLOCK
  5
536E
330
31C5
100
AcDbEntity
  8
0
100
AcDbBlockBegin
  2
*D4
 70
     1
 10
0.0
 20
0.0
 30
0.0
  3
*D4
  1

  0
LINE
  5
6998
330
31C5
100
AcDbEntity
  8
DIMENSIONS
 62
     0
440
 16777216
370
    -2
100
AcDbLine
 10
314.9928
 20
423.1283213988424
 30
0.0
 11
314.9928
 21
437.1283213988424
 31
0.0
  0
LINE
  5
6999
330
31C5
100
AcDbEntity
  8
DIMENSIONS
 62
     0
440
 16777216
370
    -2
100
AcDbLine
 10
341.9928
 20
423.1283213988424
 30
0.0
 11
341.9928
 21
437.1283213988424
 31
0.0
  0
LINE
  5
699A
330
31C5
100
AcDbEntity
  8
DIMENSIONS
 62
     0
440
 16777216
370
    -2
100
AcDbLine
 10
320.9928
 20
435.1283213988424
 30
0.0
 11
335.9928
 21
435.1283213988424
 31
0.0
  0
SOLID
  5
699B
330
31C5
100
AcDbEntity
  8
DIMENSIONS
 62
     0
440
 16777216
100
AcDbTrace
 10
320.9928
 20
436.1283213988424
 30
0.0
 11
320.9928
 21
434.1283213988424
 31
0.0
 12
314.9928
 22
435.1283213988424
 32
0.0
 13
314.9928
 23
435.1283213988424
 33
0.0
  0
SOLID
  5
699C
330
31C5
100
AcDbEntity
  8
DIMENSIONS
 62
     0
440
 16777216
100
AcDbTrace
 10
335.9928
 20
436.1283213988424
 30
0.0
 11
335.9928
 21
434.1283213988424
 31
0.0
 12
341.9928
 22
435.1283213988424
 32
0.0
 13
341.9928
 23
435.1283213988424
 33
0.0
  0
MTEXT
  5
699D
330
31C5
100
AcDbEntity
  8
DIMENSIONS
 62
     0
440
 16777216
100
AcDbMText
 10
328.4928
 20
441.1907794243629
 30
0.0
 40
6.0
 41
0.0
 46
0.0
 71
     5
 72
     1
  1
\A1;27
 73
     1
 44
1.0
  0
POINT
  5
699E
330
31C5
100
AcDbEntity
  8
DEFPOINTS
 62
     0
440
 16777216
100
AcDbPoint
 10
314.9928
 20
421.1283213988424
 30
0.0
  0
POINT
  5
699F
330
31C5
100
AcDbEntity
  8
DEFPOINTS
 62
     0
440
 16777216
100
AcDbPoint
 10
341.9928
 20
421.1283213988424
 30
0.0
  0
POINT
  5
69A0
330
31C5
100
AcDbEntity
  8
DEFPOINTS
 62
     0
440
 16777216
100
AcDbPoint
 10
341.9928
 20
435.1283213988424
 30
0.0
  0
ENDBLK
  5
5378
330
31C5
100
AcDbEntity
  8
0
100
AcDbBlockEnd
  0
BLOCK
  5
52F3
330
31D0
100
AcDbEntity
  8
0
100
AcDbBlockBegin
  2
*D5
 70
     1
 10
0.0
 20
0.0
 30
0.0
  3
*D5
  1

  0
LINE
  5
69A1
330
31D0
100
AcDbEntity
  8
DIMENSIONS
 62
     0
440
 16777216
370
    -2
100
AcDbLine
 10
341.9928
 20
423.1283213988424
 30
0.0
 11
341.9928
 21
437.1283213988424
 31
0.0
  0
LINE
  5
69A2
330
31D0
100
AcDbEntity
  8
DIMENSIONS
 62
     0
440
 16777216
370
    -2
100
AcDbLine
 10
365.9928
 20
417.1283213988424
 30
0.0
 11
365.9928
 21
437.1283213988424
 31
0.0
  0
LINE
  5
69A3
330
31D0
100
AcDbEntity
  8
DIMENSIONS
 62
     0
440
 16777216
370
    -2
100
AcDbLine
 10
347.9928
 20
435.1283213988424
 30
0.0
 11
359.9928
 21
435.1283213988424
 31
0.0
  0
SOLID
  5
69A4
330
31D0
100
AcDbEntity
  8
DIMENSIONS
 62
     0
440
 16777216
100
AcDbTrace
 10
347.9928
 20
436.1283213988424
 30
0.0
 11
347.9928
 21
434.1283213988424
 31
0.0
 12
341.9928
 22
435.1283213988424
 32
0.0
 13
341.9928
 23
435.1283213988424
 33
0.0
  0
SOLID
  5
69A5
330
31D0
100
AcDbEntity
  8
DIMENSIONS
 62
     0
440
 16777216
100
AcDbTrace
 10
359.9928
 20
436.1283213988424
 30
0.0
 11
359.9928
 21
434.1283213988424
 31
0.0
 12
365.9928
 22
435.1283213988424
 32
0.0
 13
365.9928
 23
435.1283213988424
 33
0.0
  0
MTEXT
  5
69A6
330
31D0
100
AcDbEntity
  8
DIMENSIONS
 62
     0
440
 16777216
100
AcDbMText
 10
353.9928
 20
441.1907794243629
 30
0.0
 40
6.0
 41
0.0
 46
0.0
 71
     5
 72
     1
  1
\A1;24
 73
     1
 44
1.0
  0
POINT
  5
69A7
330
31D0
100
AcDbEntity
  8
DEFPOINTS
 62
     0
440
 16777216
100
AcDbPoint
 10
341.9928
 20
421.1283213988424
 30
0.0
  0
POINT
  5
69A8
330
31D0
100
AcDbEntity
  8
DEFPOINTS
 62
     0
440
 16777216
100
AcDbPoint
 10
365.9928
 20
415.1283213988424
 30
0.0
  0
POINT
  5
69A9
330
31D0
100
AcDbEntity
  8
DEFPOINTS
 62
     0
440
 16777216
100
AcDbPoint
 10
365.9928
 20
435.1283213988424
 30
0.0
  0
ENDBLK
  5
52FE
330
31D0
100
AcDbEntity
  8
0
100
AcDbBlockEnd
  0
BLOCK
  5
5384
330
31DB
100
AcDbEntity
  8
0
100
AcDbBlockBegin
  2
*D6
 70
     1
 10
0.0
 20
0.0
 30
0.0
  3
*D6
  1

  0
LINE
  5
69AA
330
31DB
100
AcDbEntity
  8
DIMENSIONS
 62
     0
440
 16777216
370
    -2
100
AcDbLine
 10
365.9928
 20
417.1283213988424
 30
0.0
 11
365.9928
 21
452.1283213988424
 31
0.0
  0
LINE
  5
69AB
330
31DB
100
AcDbEntity
  8
DIMENSIONS
 62
     0
440
 16777216
370
    -2
100
AcDbLine
 10
53.9928
 20
417.1283213988424
 30
0.0
 11
53.9928
 21
452.1283213988424
 31
0.0
  0
LINE
  5
69AC
330
31DB
100
AcDbEntity
  8
DIMENSIONS
 62
     0
440
 16777216
370
    -2
100
AcDbLine
 10
359.9928
 20
450.1283213988424
 30
0.0
 11
59.9928
 21
450.1283213988424
 31
0.0
  0
SOLID
  5
69AD
330
31DB
100
AcDbEntity
  8
DIMENSIONS
 62
     0
440
 16777216
100
AcDbTrace
 10
359.9928
 20
451.1283213988424
 30
0.0
 11
359.9928
 21
449.1283213988424
 31
0.0
 12
365.9928
 22
450.1283213988424
 32
0.0
 13
365.9928
 23
450.1283213988424
 33
0.0
  0
SOLID
  5
69AE
330
31DB
100
AcDbEntity
  8
DIMENSIONS
 62
     0
440
 16777216
100
AcDbTrace
 10
59.9928
 20
451.1283213988424
 30
0.0
 11
59.9928
 21
449.1283213988424
 31
0.0
 12
53.9928
 22
450.1283213988424
 32
0.0
 13
53.9928
 23
450.1283213988424
 33
0.0
  0
MTEXT
  5
69AF
330
31DB
100
AcDbEntity
  8
DIMENSIONS
 62
     0
440
 16777216
100
AcDbMText
 10
209.9928
 20
456.2532374498833
 30
0.0
 40
6.0
 41
0.0
 46
0.0
 71
     5
 72
     1
  1
\A1;312
 73
     1
 44
1.0
  0
POINT
  5
69B0
330
31DB
100
AcDbEntity
  8
DEFPOINTS
 62
     0
440
 16777216
100
AcDbPoint
 10
365.9928
 20
415.1283213988424
 30
0.0
  0
POINT
  5
69B1
330
31DB
100
AcDbEntity
  8
DEFPOINTS
 62
     0
440
 16777216
100
AcDbPoint
 10
53.9928
 20
415.1283213988424
 30
0.0
  0
POINT
  5
69B2
330
31DB
100
AcDbEntity
  8
DEFPOINTS
 62
     0
440
 16777216
100
AcDbPoint
 10
53.9928
 20
450.1283213988424
 30
0.0
  0
ENDBLK
  5
538E
330
31DB
100
AcDbEntity
  8
0
100
AcDbBlockEnd
  0
BLOCK
  5
5236
330
31E7
100
AcDbEntity
  8
0
100
AcDbBlockBegin
  2
*D7
 70
     1
 10
0.0
 20
0.0
 30
0.0
  3
*D7
  1

  0
LINE
  5
69B3
330
31E7
100
AcDbEntity
  8
DIMENSIONS
 62
     0
440
 16777216
370
    -2
100
AcDbLine
 10
51.99280000000002
 20
344.1283213988425
 30
0.0
 11
16.99280000000003
 21
344.1283213988425
 31
0.0
  0
LINE
  5
69B4
330
31E7
100
AcDbEntity
  8
DIMENSIONS
 62
     0
440
 16777216
370
    -2
100
AcDbLine
 10
51.99280000000003
 20
415.1283213988426
 30
0.0
 11
16.99280000000001
 21
415.1283213988426
 31
0.0
  0
LINE
  5
69B5
330
31E7
100
AcDbEntity
  8
DIMENSIONS
 62
     0
440
 16777216
370
    -2
100
AcDbLine
 10
18.99280000000002
 20
350.1283213988426
 30
0.0
 11
18.99280000000001
 21
409.1283213988426
 31
0.0
  0
SOLID
  5
69B6
330
31E7
100
AcDbEntity
  8
DIMENSIONS
 62
     0
440
 16777216
100
AcDbTrace
 10
17.99280000000003
 20
350.1283213988426
 30
0.0
 11
19.99280000000003
 21
350.1283213988426
 31
0.0
 12
18.99280000000002
 22
344.1283213988425
 32
0.0
 13
18.99280000000002
 23
344.1283213988425
 33
0.0
  0
SOLID
  5
69B7
330
31E7
100
AcDbEntity
  8
DIMENSIONS
 62
     0
440
 16777216
100
AcDbTrace
 10
17.99280000000001
 20
409.1283213988426
 30
0.0
 11
19.99280000000001
 21
409.1283213988426
 31
0.0
 12
18.99280000000001
 22
415.1283213988426
 32
0.0
 13
18.99280000000001
 23
415.1283213988426
 33
0.0
  0
MTEXT
  5
69B8
330
31E7
100
AcDbEntity
  8
DIMENSIONS
 62
     0
440
 16777216
100
AcDbMText
 10
12.98272612491617
 20
379.6283213988425
 30
0.0
 40
6.0
 41
0.0
 46
0.0
 71
     5
 72
     1
  1
\A1;%%C71
 11
0.0000000000000001
 21
1.0
 31
0.0
 73
     1
 44
1.0
  0
POINT
  5
69B9
330
31E7
100
AcDbEntity
  8
DEFPOINTS
 62
     0
440
 16777216
100
AcDbPoint
 10
53.99280000000002
 20
344.1283213988425
 30
0.0
  0
POINT
  5
69BA
330
31E7
100
AcDbEntity
  8
DEFPOINTS
 62
     0
440
 16777216
100
AcDbPoint
 10
53.99280000000003
 20
415.1283213988426
 30
0.0
  0
POINT
  5
69BB
330
31E7
100
AcDbEntity
  8
DEFPOINTS
 62
     0
440
 16777216
100
AcDbPoint
 10
18.99280000000001
 20
415.1283213988426
 30
0.0
  0
ENDBLK
  5
5240
330
31E7
100
AcDbEntity
  8
0
100
AcDbBlockEnd
  0
BLOCK
  5
5363
330
328C
100
AcDbEntity
  8
0
100
AcDbBlockBegin
  2
*D20
 70
     1
 10
0.0
 20
0.0
 30
0.0
  3
*D20
  1

  0
LINE
  5
69BC
330
328C
100
AcDbEntity
  8
DIMENSIONS
 62
     0
440
 16777216
370
    -2
100
AcDbLine
 10
209.9928
 20
423.1283213988424
 30
0.0
 11
209.9928
 21
437.1283213988424
 31
0.0
  0
LINE
  5
69BD
330
328C
100
AcDbEntity
  8
DIMENSIONS
 62
     0
440
 16777216
370
    -2
100
AcDbLine
 10
233.9928
 20
423.1283213988424
 30
0.0
 11
233.9928
 21
437.1283213988424
 31
0.0
  0
LINE
  5
69BE
330
328C
100
AcDbEntity
  8
DIMENSIONS
 62
     0
440
 16777216
370
    -2
100
AcDbLine
 10
215.9928
 20
435.1283213988424
 30
0.0
 11
227.9928
 21
435.1283213988424
 31
0.0
  0
SOLID
  5
69BF
330
328C
100
AcDbEntity
  8
DIMENSIONS
 62
     0
440
 16777216
100
AcDbTrace
 10
215.9928
 20
436.1283213988424
 30
0.0
 11
215.9928
 21
434.1283213988424
 31
0.0
 12
209.9928
 22
435.1283213988424
 32
0.0
 13
209.9928
 23
435.1283213988424
 33
0.0
  0
SOLID
  5
69C0
330
328C
100
AcDbEntity
  8
DIMENSIONS
 62
     0
440
 16777216
100
AcDbTrace
 10
227.9928
 20
436.1283213988424
 30
0.0
 11
227.9928
 21
434.1283213988424
 31
0.0
 12
233.9928
 22
435.1283213988424
 32
0.0
 13
233.9928
 23
435.1283213988424
 33
0.0
  0
MTEXT
  5
69C1
330
328C
100
AcDbEntity
  8
DIMENSIONS
 62
     0
440
 16777216
100
AcDbMText
 10
221.9928
 20
441.1907794243629
 30
0.0
 40
6.0
 41
0.0
 46
0.0
 71
     5
 72
     1
  1
\A1;24
 73
     1
 44
1.0
  0
POINT
  5
69C2
330
328C
100
AcDbEntity
  8
DEFPOINTS
 62
     0
440
 16777216
100
AcDbPoint
 10
209.9928
 20
421.1283213988424
 30
0.0
  0
POINT
  5
69C3
330
328C
100
AcDbEntity
  8
DEFPOINTS
 62
     0
440
 16777216
100
AcDbPoint
 10
233.9928
 20
421.1283213988424
 30
0.0
  0
POINT
  5
69C4
330
328C
100
AcDbEntity
  8
DEFPOINTS
 62
     0
440
 16777216
100
AcDbPoint
 10
233.9928
 20
435.1283213988424
 30
0.0
  0
ENDBLK
  5
536D
330
328C
100
AcDbEntity
  8
0
100
AcDbBlockEnd
  0
BLOCK
  5
5342
330
3297
100
AcDbEntity
  8
0
100
AcDbBlockBegin
  2
*D21
 70
     1
 10
0.0
 20
0.0
 30
0.0
  3
*D21
  1

  0
LINE
  5
69C5
330
3297
100
AcDbEntity
  8
DIMENSIONS
 62
     0
440
 16777216
370
    -2
100
AcDbLine
 10
185.9928
 20
423.1283213988424
 30
0.0
 11
185.9928
 21
437.1283213988424
 31
0.0
  0
LINE
  5
69C6
330
3297
100
AcDbEntity
  8
DIMENSIONS
 62
     0
440
 16777216
370
    -2
100
AcDbLine
 10
209.9928
 20
423.1283213988424
 30
0.0
 11
209.9928
 21
437.1283213988424
 31
0.0
  0
LINE
  5
69C7
330
3297
100
AcDbEntity
  8
DIMENSIONS
 62
     0
440
 16777216
370
    -2
100
AcDbLine
 10
191.9928
 20
435.1283213988424
 30
0.0
 11
203.9928
 21
435.1283213988424
 31
0.0
  0
SOLID
  5
69C8
330
3297
100
AcDbEntity
  8
DIMENSIONS
 62
     0
440
 16777216
100
AcDbTrace
 10
191.9928
 20
436.1283213988424
 30
0.0
 11
191.9928
 21
434.1283213988424
 31
0.0
 12
185.9928
 22
435.1283213988424
 32
0.0
 13
185.9928
 23
435.1283213988424
 33
0.0
  0
SOLID
  5
69C9
330
3297
100
AcDbEntity
  8
DIMENSIONS
 62
     0
440
 16777216
100
AcDbTrace
 10
203.9928
 20
436.1283213988424
 30
0.0
 11
203.9928
 21
434.1283213988424
 31
0.0
 12
209.9928
 22
435.1283213988424
 32
0.0
 13
209.9928
 23
435.1283213988424
 33
0.0
  0
MTEXT
  5
69CA
330
3297
100
AcDbEntity
  8
DIMENSIONS
 62
     0
440
 16777216
100
AcDbMText
 10
197.9928
 20
441.1907794243629
 30
0.0
 40
6.0
 41
0.0
 46
0.0
 71
     5
 72
     1
  1
\A1;24
 73
     1
 44
1.0
  0
POINT
  5
69CB
330
3297
100
AcDbEntity
  8
DEFPOINTS
 62
     0
440
 16777216
100
AcDbPoint
 10
185.9928
 20
421.1283213988424
 30
0.0
  0
POINT
  5
69CC
330
3297
100
AcDbEntity
  8
DEFPOINTS
 62
     0
440
 16777216
100
AcDbPoint
 10
209.9928
 20
421.1283213988424
 30
0.0
  0
POINT
  5
69CD
330
3297
100
AcDbEntity
  8
DEFPOINTS
 62
     0
440
 16777216
100
AcDbPoint
 10
209.9928
 20
435.1283213988424
 30
0.0
  0
ENDBLK
  5
534C
330
3297
100
AcDbEntity
  8
0
100
AcDbBlockEnd
  0
BLOCK
  5
532C
330
3E2B
100
AcDbEntity
  8
0
100
AcDbBlockBegin
  2
*D22
 70
     1
 10
0.0
 20
0.0
 30
0.0
  3
*D22
  1

  0
LINE
  5
69CE
330
3E2B
100
AcDbEntity
  8
DIMENSIONS
 62
     0
440
 16777216
370
    -2
100
AcDbLine
 10
104.9928
 20
423.1283213988424
 30
0.0
 11
104.9928
 21
437.1283213988424
 31
0.0
  0
LINE
  5
69CF
330
3E2B
100
AcDbEntity
  8
DIMENSIONS
 62
     0
440
 16777216
370
    -2
100
AcDbLine
 10
131.9928
 20
423.1283213988424
 30
0.0
 11
131.9928
 21
437.1283213988424
 31
0.0
  0
LINE
  5
69D0
330
3E2B
100
AcDbEntity
  8
DIMENSIONS
 62
     0
440
 16777216
370
    -2
100
AcDbLine
 10
110.9928
 20
435.1283213988424
 30
0.0
 11
125.9928
 21
435.1283213988424
 31
0.0
  0
SOLID
  5
69D1
330
3E2B
100
AcDbEntity
  8
DIMENSIONS
 62
     0
440
 16777216
100
AcDbTrace
 10
110.9928
 20
436.1283213988424
 30
0.0
 11
110.9928
 21
434.1283213988424
 31
0.0
 12
104.9928
 22
435.1283213988424
 32
0.0
 13
104.9928
 23
435.1283213988424
 33
0.0
  0
SOLID
  5
69D2
330
3E2B
100
AcDbEntity
  8
DIMENSIONS
 62
     0
440
 16777216
100
AcDbTrace
 10
125.9928
 20
436.1283213988424
 30
0.0
 11
125.9928
 21
434.1283213988424
 31
0.0
 12
131.9928
 22
435.1283213988424
 32
0.0
 13
131.9928
 23
435.1283213988424
 33
0.0
  0
MTEXT
  5
69D3
330
3E2B
100
AcDbEntity
  8
DIMENSIONS
 62
     0
440
 16777216
100
AcDbMText
 10
118.4928
 20
441.1907794243629
 30
0.0
 40
6.0
 41
0.0
 46
0.0
 71
     5
 72
     1
  1
\A1;27
 73
     1
 44
1.0
  0
POINT
  5
69D4
330
3E2B
100
AcDbEntity
  8
DEFPOINTS
 62
     0
440
 16777216
100
AcDbPoint
 10
104.9928
 20
421.1283213988424
 30
0.0
  0
POINT
  5
69D5
330
3E2B
100
AcDbEntity
  8
DEFPOINTS
 62
     0
440
 16777216
100
AcDbPoint
 10
131.9928
 20
421.1283213988424
 30
0.0
  0
POINT
  5
69D6
330
3E2B
100
AcDbEntity
  8
DEFPOINTS
 62
     0
440
 16777216
100
AcDbPoint
 10
131.9928
 20
435.1283213988424
 30
0.0
  0
ENDBLK
  5
5336
330
3E2B
100
AcDbEntity
  8
0
100
AcDbBlockEnd
  0
BLOCK
  5
5337
330
3E4E
100
AcDbEntity
  8
0
100
AcDbBlockBegin
  2
*D23
 70
     1
 10
0.0
 20
0.0
 30
0.0
  3
*D23
  1

  0
LINE
  5
69D7
330
3E4E
100
AcDbEntity
  8
DIMENSIONS
 62
     0
440
 16777216
370
    -2
100
AcDbLine
 10
260.9928
 20
423.1283213988424
 30
0.0
 11
260.9928
 21
437.1283213988424
 31
0.0
  0
LINE
  5
69D8
330
3E4E
100
AcDbEntity
  8
DIMENSIONS
 62
     0
440
 16777216
370
    -2
100
AcDbLine
 10
287.9928
 20
423.1283213988424
 30
0.0
 11
287.9928
 21
437.1283213988424
 31
0.0
  0
LINE
  5
69D9
330
3E4E
100
AcDbEntity
  8
DIMENSIONS
 62
     0
440
 16777216
370
    -2
100
AcDbLine
 10
266.9928
 20
435.1283213988424
 30
0.0
 11
281.9928
 21
435.1283213988424
 31
0.0
  0
SOLID
  5
69DA
330
3E4E
100
AcDbEntity
  8
DIMENSIONS
 62
     0
440
 16777216
100
AcDbTrace
 10
266.9928
 20
436.1283213988424
 30
0.0
 11
266.9928
 21
434.1283213988424
 31
0.0
 12
260.9928
 22
435.1283213988424
 32
0.0
 13
260.9928
 23
435.1283213988424
 33
0.0
  0
SOLID
  5
69DB
330
3E4E
100
AcDbEntity
  8
DIMENSIONS
 62
     0
440
 16777216
100
AcDbTrace
 10
281.9928
 20
436.1283213988424
 30
0.0
 11
281.9928
 21
434.1283213988424
 31
0.0
 12
287.9928
 22
435.1283213988424
 32
0.0
 13
287.9928
 23
435.1283213988424
 33
0.0
  0
MTEXT
  5
69DC
330
3E4E
100
AcDbEntity
  8
DIMENSIONS
 62
     0
440
 16777216
100
AcDbMText
 10
274.4928
 20
441.1907794243629
 30
0.0
 40
6.0
 41
0.0
 46
0.0
 71
     5
 72
     1
  1
\A1;27
 73
     1
 44
1.0
  0
POINT
  5
69DD
330
3E4E
100
AcDbEntity
  8
DEFPOINTS
 62
     0
440
 16777216
100
AcDbPoint
 10
260.9928
 20
421.1283213988424
 30
0.0
  0
POINT
  5
69DE
330
3E4E
100
AcDbEntity
  8
DEFPOINTS
 62
     0
440
 16777216
100
AcDbPoint
 10
287.9928
 20
421.1283213988424
 30
0.0
  0
POINT
  5
69DF
330
3E4E
100
AcDbEntity
  8
DEFPOINTS
 62
     0
440
 16777216
100
AcDbPoint
 10
287.9928
 20
435.1283213988424
 30
0.0
  0
ENDBLK
  5
5341
330
3E4E
100
AcDbEntity
  8
0
100
AcDbBlockEnd
  0
BLOCK
  5
52FF
330
4379
100
AcDbEntity
  8
0
100
AcDbBlockBegin
  2
*D24
 70
     1
 10
0.0
 20
0.0
 30
0.0
  3
*D24
  1

  0
LINE
  5
69E0
330
4379
100
AcDbEntity
  8
DIMENSIONS
 62
     0
440
 16777216
370
    -2
100
AcDbLine
 10
131.9928
 20
423.1283213988424
 30
0.0
 11
131.9928
 21
437.1283213988424
 31
0.0
  0
LINE
  5
69E1
330
4379
100
AcDbEntity
  8
DIMENSIONS
 62
     0
440
 16777216
370
    -2
100
AcDbLine
 10
158.9928
 20
423.1283213988424
 30
0.0
 11
158.9928
 21
437.1283213988424
 31
0.0
  0
LINE
  5
69E2
330
4379
100
AcDbEntity
  8
DIMENSIONS
 62
     0
440
 16777216
370
    -2
100
AcDbLine
 10
137.9928
 20
435.1283213988424
 30
0.0
 11
152.9928
 21
435.1283213988424
 31
0.0
  0
SOLID
  5
69E3
330
4379
100
AcDbEntity
  8
DIMENSIONS
 62
     0
440
 16777216
100
AcDbTrace
 10
137.9928
 20
436.1283213988424
 30
0.0
 11
137.9928
 21
434.1283213988424
 31
0.0
 12
131.9928
 22
435.1283213988424
 32
0.0
 13
131.9928
 23
435.1283213988424
 33
0.0
  0
SOLID
  5
69E4
330
4379
100
AcDbEntity
  8
DIMENSIONS
 62
     0
440
 16777216
100
AcDbTrace
 10
152.9928
 20
436.1283213988424
 30
0.0
 11
152.9928
 21
434.1283213988424
 31
0.0
 12
158.9928
 22
435.1283213988424
 32
0.0
 13
158.9928
 23
435.1283213988424
 33
0.0
  0
MTEXT
  5
69E5
330
4379
100
AcDbEntity
  8
DIMENSIONS
 62
     0
440
 16777216
100
AcDbMText
 10
145.4928
 20
441.1907794243629
 30
0.0
 40
6.0
 41
0.0
 46
0.0
 71
     5
 72
     1
  1
\A1;27
 73
     1
 44
1.0
  0
POINT
  5
69E6
330
4379
100
AcDbEntity
  8
DEFPOINTS
 62
     0
440
 16777216
100
AcDbPoint
 10
131.9928
 20
421.1283213988424
 30
0.0
  0
POINT
  5
69E7
330
4379
100
AcDbEntity
  8
DEFPOINTS
 62
     0
440
 16777216
100
AcDbPoint
 10
158.9928
 20
421.1283213988424
 30
0.0
  0
POINT
  5
69E8
330
4379
100
AcDbEntity
  8
DEFPOINTS
 62
     0
440
 16777216
100
AcDbPoint
 10
158.9928
 20
435.1283213988424
 30
0.0
  0
ENDBLK
  5
5309
330
4379
100
AcDbEntity
  8
0
100
AcDbBlockEnd
  0
BLOCK
  5
5358
330
439C
100
AcDbEntity
  8
0
100
AcDbBlockBegin
  2
*D25
 70
     1
 10
0.0
 20
0.0
 30
0.0
  3
*D25
  1

  0
LINE
  5
69E9
330
439C
100
AcDbEntity
  8
DIMENSIONS
 62
     0
440
 16777216
370
    -2
100
AcDbLine
 10
233.9928
 20
423.1283213988424
 30
0.0
 11
233.9928
 21
437.1283213988424
 31
0.0
  0
LINE
  5
69EA
330
439C
100
AcDbEntity
  8
DIMENSIONS
 62
     0
440
 16777216
370
    -2
100
AcDbLine
 10
260.9928
 20
423.1283213988424
 30
0.0
 11
260.9928
 21
437.1283213988424
 31
0.0
  0
LINE
  5
69EB
330
439C
100
AcDbEntity
  8
DIMENSIONS
 62
     0
440
 16777216
370
    -2
100
AcDbLine
 10
239.9928
 20
435.1283213988424
 30
0.0
 11
254.9928
 21
435.1283213988424
 31
0.0
  0
SOLID
  5
69EC
330
439C
100
AcDbEntity
  8
DIMENSIONS
 62
     0
440
 16777216
100
AcDbTrace
 10
239.9928
 20
436.1283213988424
 30
0.0
 11
239.9928
 21
434.1283213988424
 31
0.0
 12
233.9928
 22
435.1283213988424
 32
0.0
 13
233.9928
 23
435.1283213988424
 33
0.0
  0
SOLID
  5
69ED
330
439C
100
AcDbEntity
  8
DIMENSIONS
 62
     0
440
 16777216
100
AcDbTrace
 10
254.9928
 20
436.1283213988424
 30
0.0
 11
254.9928
 21
434.1283213988424
 31
0.0
 12
260.9928
 22
435.1283213988424
 32
0.0
 13
260.9928
 23
435.1283213988424
 33
0.0
  0
MTEXT
  5
69EE
330
439C
100
AcDbEntity
  8
DIMENSIONS
 62
     0
440
 16777216
100
AcDbMText
 10
247.4928
 20
441.1907794243629
 30
0.0
 40
6.0
 41
0.0
 46
0.0
 71
     5
 72
     1
  1
\A1;27
 73
     1
 44
1.0
  0
POINT
  5
69EF
330
439C
100
AcDbEntity
  8
DEFPOINTS
 62
     0
440
 16777216
100
AcDbPoint
 10
233.9928
 20
421.1283213988424
 30
0.0
  0
POINT
  5
69F0
330
439C
100
AcDbEntity
  8
DEFPOINTS
 62
     0
440
 16777216
100
AcDbPoint
 10
260.9928
 20
421.1283213988424
 30
0.0
  0
POINT
  5
69F1
330
439C
100
AcDbEntity
  8
DEFPOINTS
 62
     0
440
 16777216
100
AcDbPoint
 10
260.9928
 20
435.1283213988424
 30
0.0
  0
ENDBLK
  5
5362
330
439C
100
AcDbEntity
  8
0
100
AcDbBlockEnd
  0
BLOCK
  5
59D7
330
59D6
100
AcDbEntity
  8
0
100
AcDbBlockBegin
  2
A3stddwgtitblk
 70
    44
 10
0.0
 20
0.0
 30
0.0
  3
A3stddwgtitblk
  1
M:\acad\Standard Drawings\A3stddwgtitblk.dwg
  0
ENDBLK
  5
59D8
330
59D6
100
AcDbEntity
  8
0
100
AcDbBlockEnd
  0
BLOCK
  5
60CC
330
60CA
100
AcDbEntity
  8
0
100
AcDbBlockBegin
  2
GENAXEH
 70
     0
 10
0.0
 20
0.0
 30
0.0
  3
GENAXEH
  1

  0
LINE
  5
60CB
330
60CA
100
AcDbEntity
  8
0
100
AcDbLine
 10
-1.0
 20
0.0
 30
0.0
 11
1.0
 21
0.0
 31
0.0
  0
ENDBLK
  5
60CD
330
60CA
100
AcDbEntity
  8
0
100
AcDbBlockEnd
  0
BLOCK
  5
60D9
330
60D8
100
AcDbEntity
  8
0
100
AcDbBlockBegin
  2
_ACMFILLEDHALF
 70
     0
 10
0.0
 20
0.0
 30
0.0
  3
_ACMFILLEDHALF
  1

  0
TRACE
  5
60DB
330
60D8
100
AcDbEntity
  8
0
 62
     0
100
AcDbTrace
 10
-0.8
 20
0.0
 30
0.0
 11
-1.0
 21
0.166666666
 31
0.0
 12
0.0
 22
0.0
 32
0.0
 13
0.0
 23
0.0
 33
0.0
  0
LINE
  5
60DC
330
60D8
100
AcDbEntity
  8
0
 62
     0
100
AcDbLine
 10
-1.0
 20
0.0
 30
0.0
 11
-0.8
 21
0.0
 31
0.0
  0
ENDBLK
  5
60DA
330
60D8
100
AcDbEntity
  8
0
100
AcDbBlockEnd
  0
ENDSEC
  0
SECTION
  2
ENTITIES
  0
LWPOLYLINE
  5
32C4
330
19
100
AcDbEntity
  8
OUTLINE
100
AcDbPolyline
 90
        4
 70
     1
 43
0.0
 10
53.9928
 20
344.1283213988425
 10
365.9928
 20
344.1283213988425
 10
365.9928
 20
415.1283213988424
 10
53.9928
 20
415.1283213988424
  0
LINE
  5
32C5
330
19
100
AcDbEntity
  8
CENTRE
  6
CENTER2
 48
0.75
100
AcDbLine
 10
209.9928
 20
338.1283213988425
 30
0.0
 11
209.9928
 21
421.1283213988424
 31
0.0
  0
LINE
  5
32C6
330
19
100
AcDbEntity
  8
CENTRE
  6
CENTER2
100
AcDbLine
 10
380.4928
 20
379.6283213988425
 30
0.0
 11
39.4928
 21
379.6283213988425
 31
0.0
  0
LWPOLYLINE
  5
32C7
330
19
100
AcDbEntity
  8
OUTLINE
100
AcDbPolyline
 90
        4
 70
     0
 10
31.4928
 20
399.6283213988424
 40
0.0
 41
8.0
 10
31.4928
 20
387.6283213988425
 40
1.6
 41
1.6
 10
31.4928
 20
379.6283213988425
 40
1.6
 41
1.6
 10
39.4928
 20
379.6283213988425
 40
1.6
 41
1.6
  0
TEXT
  5
32C8
330
19
100
AcDbEntity
  8
DIMENSIONS
100
AcDbText
 10
35.76565129604366
 20
392.4283213988425
 30
0.0
 40
8.0
  1
A
  7
BOLD
 72
     4
 11
39.4928
 21
396.4283213988425
 31
0.0
100
AcDbText
  0
LWPOLYLINE
  5
32C9
330
19
100
AcDbEntity
  8
OUTLINE
100
AcDbPolyline
 90
        4
 70
     0
 10
388.4928
 20
399.6283213988424
 40
0.0
 41
8.0
 10
388.4928
 20
387.6283213988425
 40
1.6
 41
1.6
 10
388.4928
 20
379.6283213988425
 40
1.6
 41
1.6
 10
380.4928
 20
379.6283213988425
 40
1.6
 41
1.6
  0
TEXT
  5
32CA
330
19
100
AcDbEntity
  8
DIMENSIONS
100
AcDbText
 10
376.7656512960436
 20
392.4283213988425
 30
0.0
 40
8.0
  1
A
  7
BOLD
 72
     4
 11
380.4928
 21
396.4283213988425
 31
0.0
100
AcDbText
  0
LINE
  5
32CB
330
19
100
AcDbEntity
  8
CENTRE
  6
CENTER2
 48
0.75
100
AcDbLine
 10
77.9928
 20
366.6283213988425
 30
0.0
 11
77.9928
 21
421.1283213988424
 31
0.0
  0
LINE
  5
32CC
330
19
100
AcDbEntity
  8
CENTRE
  6
CENTER2
 48
0.75
100
AcDbLine
 10
104.9928
 20
366.6283213988425
 30
0.0
 11
104.9928
 21
421.1283213988424
 31
0.0
  0
LINE
  5
32CD
330
19
100
AcDbEntity
  8
CENTRE
  6
CENTER2
 48
0.75
100
AcDbLine
 10
341.9928
 20
366.6283213988425
 30
0.0
 11
341.9928
 21
421.1283213988424
 31
0.0
  0
LINE
  5
32CE
330
19
100
AcDbEntity
  8
CENTRE
  6
CENTER2
 48
0.75
100
AcDbLine
 10
314.9928
 20
366.6283213988425
 30
0.0
 11
314.9928
 21
421.1283213988424
 31
0.0
  0
CIRCLE
  5
32CF
330
19
100
AcDbEntity
  8
OUTLINE
100
AcDbCircle
 10
209.9928
 20
379.6283213988425
 30
0.0
 40
3.0
  0
DIMENSION
  5
32D2
330
19
100
AcDbEntity
  8
DIMENSIONS
100
AcDbDimension
280
     0
  2
*D0
 10
53.9928
 20
435.1283213988424
 30
0.0
 11
65.9928
 21
441.1907794243629
 31
0.0
 70
    32
 71
     5
 42
24.0
 73
     0
 74
     0
 75
     0
  3
STDX2_1_1
100
AcDbAlignedDimension
 13
77.9928
 23
421.1283213988424
 33
0.0
 14
53.9928
 24
415.1283213988424
 34
0.0
100
AcDbRotatedDimension
1001
ACAD
1000
DSTYLE
1002
{
1070
    40
1040
1.0
1070
    41
1040
6.0
1070
   140
1040
6.0
1070
   147
1040
3.0
1002
}
1001
ACAD_DSTYLE_DIMINSPECT
1070
   396
1000
100%
1070
   395
1000

1070
   394
1070
    33
1070
   393
1070
     0
  0
DIMENSION
  5
32D3
330
19
100
AcDbEntity
  8
DIMENSIONS
100
AcDbDimension
280
     0
  2
*D1
 10
104.9928
 20
435.1283213988424
 30
0.0
 11
91.4928
 21
441.1907794243629
 31
0.0
 70
    32
 71
     5
 42
27.0
 73
     0
 74
     0
 75
     0
  3
STDX2_1_1
100
AcDbAlignedDimension
 13
77.9928
 23
421.1283213988424
 33
0.0
 14
104.9928
 24
421.1283213988424
 34
0.0
100
AcDbRotatedDimension
1001
ACAD
1000
DSTYLE
1002
{
1070
    40
1040
1.0
1070
    41
1040
6.0
1070
   140
1040
6.0
1070
   147
1040
3.0
1002
}
1001
ACAD_DSTYLE_DIMINSPECT
1070
   396
1000
100%
1070
   395
1000

1070
   394
1070
    33
1070
   393
1070
     0
  0
DIMENSION
  5
32D4
330
19
100
AcDbEntity
  8
DIMENSIONS
100
AcDbDimension
280
     0
  2
*D2
 10
185.9928
 20
435.1283213988424
 30
0.0
 11
172.4928
 21
441.1907794243629
 31
0.0
 70
    32
 71
     5
 42
27.0
 73
     0
 74
     0
 75
     0
  3
STDX2_1_1
100
AcDbAlignedDimension
 13
158.9928
 23
421.1283213988424
 33
0.0
 14
185.9928
 24
421.1283213988424
 34
0.0
100
AcDbRotatedDimension
1001
ACAD
1000
DSTYLE
1002
{
1070
    40
1040
1.0
1070
    41
1040
6.0
1070
   140
1040
6.0
1070
   147
1040
3.0
1002
}
1001
ACAD_DSTYLE_DIMINSPECT
1070
   396
1000
100%
1070
   395
1000

1070
   394
1070
    33
1070
   393
1070
     0
  0
DIMENSION
  5
32D5
330
19
100
AcDbEntity
  8
DIMENSIONS
100
AcDbDimension
280
     0
  2
*D3
 10
314.9928
 20
435.1283213988424
 30
0.0
 11
301.4928
 21
441.1907794243629
 31
0.0
 70
    32
 71
     5
 42
27.0
 73
     0
 74
     0
 75
     0
  3
STDX2_1_1
100
AcDbAlignedDimension
 13
287.9928
 23
421.1283213988424
 33
0.0
 14
314.9928
 24
421.1283213988424
 34
0.0
100
AcDbRotatedDimension
1001
ACAD
1000
DSTYLE
1002
{
1070
    40
1040
1.0
1070
    41
1040
6.0
1070
   140
1040
6.0
1070
   147
1040
3.0
1002
}
1001
ACAD_DSTYLE_DIMINSPECT
1070
   396
1000
100%
1070
   395
1000

1070
   394
1070
    33
1070
   393
1070
     0
  0
DIMENSION
  5
32D6
330
19
100
AcDbEntity
  8
DIMENSIONS
100
AcDbDimension
280
     0
  2
*D4
 10
341.9928
 20
435.1283213988424
 30
0.0
 11
328.4928
 21
441.1907794243629
 31
0.0
 70
    32
 71
     5
 42
27.0
 73
     0
 74
     0
 75
     0
  3
STDX2_1_1
100
AcDbAlignedDimension
 13
314.9928
 23
421.1283213988424
 33
0.0
 14
341.9928
 24
421.1283213988424
 34
0.0
100
AcDbRotatedDimension
1001
ACAD
1000
DSTYLE
1002
{
1070
    40
1040
1.0
1070
    41
1040
6.0
1070
   140
1040
6.0
1070
   147
1040
3.0
1002
}
1001
ACAD_DSTYLE_DIMINSPECT
1070
   396
1000
100%
1070
   395
1000

1070
   394
1070
    33
1070
   393
1070
     0
  0
DIMENSION
  5
32D7
330
19
100
AcDbEntity
  8
DIMENSIONS
100
AcDbDimension
280
     0
  2
*D5
 10
365.9928
 20
435.1283213988424
 30
0.0
 11
353.9928
 21
441.1907794243629
 31
0.0
 70
    32
 71
     5
 42
24.0
 73
     0
 74
     0
 75
     0
  3
STDX2_1_1
100
AcDbAlignedDimension
 13
341.9928
 23
421.1283213988424
 33
0.0
 14
365.9928
 24
415.1283213988424
 34
0.0
100
AcDbRotatedDimension
1001
ACAD
1000
DSTYLE
1002
{
1070
    40
1040
1.0
1070
    41
1040
6.0
1070
   140
1040
6.0
1070
   147
1040
3.0
1002
}
1001
ACAD_DSTYLE_DIMINSPECT
1070
   396
1000
100%
1070
   395
1000

1070
   394
1070
    33
1070
   393
1070
     0
  0
DIMENSION
  5
32D8
330
19
100
AcDbEntity
  8
DIMENSIONS
100
AcDbDimension
280
     0
  2
*D6
 10
53.9928
 20
450.1283213988424
 30
0.0
 11
209.9928
 21
456.2532374498833
 31
0.0
 70
    32
 71
     5
 42
312.0
 73
     0
 74
     0
 75
     0
  3
STDX2_1_1
100
AcDbAlignedDimension
 13
365.9928
 23
415.1283213988424
 33
0.0
 14
53.9928
 24
415.1283213988424
 34
0.0
100
AcDbRotatedDimension
1001
ACAD
1000
DSTYLE
1002
{
1070
    40
1040
1.0
1070
    41
1040
6.0
1070
   140
1040
6.0
1070
   147
1040
3.0
1002
}
1001
ACAD_DSTYLE_DIMINSPECT
1070
   396
1000
100%
1070
   395
1000

1070
   394
1070
    33
1070
   393
1070
     0
  0
LINE
  5
32D9
330
19
100
AcDbEntity
  8
OUTLINE
  6
HIDDEN2
 48
3.5
100
AcDbLine
 10
53.9928
 20
357.3283213988424
 30
0.0
 11
365.9928
 21
357.3283213988424
 31
0.0
  0
LINE
  5
32DA
330
19
100
AcDbEntity
  8
OUTLINE
  6
HIDDEN2
 48
3.5
100
AcDbLine
 10
53.9928
 20
401.9283213988424
 30
0.0
 11
365.9928
 21
401.9283213988424
 31
0.0
  0
DIMENSION
  5
32DB
330
19
100
AcDbEntity
  8
DIMENSIONS
100
AcDbDimension
280
     0
  2
*D7
 10
18.99280000000001
 20
415.1283213988426
 30
0.0
 11
12.98272612491617
 21
379.6283213988425
 31
0.0
 70
    32
  1
%%C<>
 71
     5
 42
71.00000000000005
 73
     0
 74
     0
 75
     0
  3
STDX2_1_1
100
AcDbAlignedDimension
 13
53.9928
 23
344.1283213988425
 33
0.0
 14
53.9928
 24
415.1283213988424
 34
0.0
 50
90.0
100
AcDbRotatedDimension
1001
ACAD
1000
DSTYLE
1002
{
1070
    40
1040
1.0
1070
    41
1040
6.0
1070
   140
1040
6.0
1070
   147
1040
3.0
1002
}
1001
ACAD_DSTYLE_DIMINSPECT
1070
   396
1000
100%
1070
   395
1000

1070
   394
1070
    33
1070
   393
1070
     0
  0
LINE
  5
32DD
330
19
100
AcDbEntity
  8
OUTLINE
  6
HIDDEN2
 48
3.5
100
AcDbLine
 10
53.99279999999999
 20
204.208
 30
0.0
 11
365.9928
 21
204.208
 31
0.0
  0
LINE
  5
32DE
330
19
100
AcDbEntity
  8
CENTRE
  6
CENTER2
100
AcDbLine
 10
380.4928
 20
226.508
 30
0.0
 11
39.4928
 21
226.508
 31
0.0
  0
LINE
  5
32E1
330
19
100
AcDbEntity
  8
CENTRE
  6
CENTER2
 48
0.75
100
AcDbLine
 10
77.9928
 20
181.308
 30
0.0
 11
77.9928
 21
293.1309303646738
 31
0.0
  0
LINE
  5
32E2
330
19
100
AcDbEntity
  8
CENTRE
  6
CENTER2
 48
0.75
100
AcDbLine
 10
104.9928
 20
242.633
 30
0.0
 11
104.9928
 21
293.130930364674
 31
0.0
  0
LINE
  5
32E3
330
19
100
AcDbEntity
  8
CENTRE
  6
CENTER2
 48
0.75
100
AcDbLine
 10
209.9928
 20
242.633
 30
0.0
 11
209.9928
 21
271.708
 31
0.0
  0
LINE
  5
32E4
330
19
100
AcDbEntity
  8
CENTRE
  6
CENTER2
 48
0.75
100
AcDbLine
 10
287.9928
 20
242.633
 30
0.0
 11
287.9928000000001
 21
293.130930364674
 31
0.0
  0
LINE
  5
32E5
330
19
100
AcDbEntity
  8
CENTRE
  6
CENTER2
 48
0.75
100
AcDbLine
 10
341.9928
 20
242.633
 30
0.0
 11
341.9928
 21
293.130930364674
 31
0.0
  0
TEXT
  5
32EC
330
19
100
AcDbEntity
  8
DIMENSIONS
100
AcDbText
 10
57.46565129604364
 20
177.308
 30
0.0
 40
8.0
  1
B
  7
BOLD
 72
     4
 11
61.19279999999999
 21
181.308
 31
0.0
100
AcDbText
  0
LWPOLYLINE
  5
32ED
330
19
100
AcDbEntity
  8
OUTLINE
100
AcDbPolyline
 90
        4
 70
     0
 10
57.99279999999999
 20
173.308
 40
0.0
 41
8.0
 10
69.9928
 20
173.308
 40
1.6
 41
1.6
 10
77.9928
 20
173.308
 40
1.6
 41
1.6
 10
77.9928
 20
181.308
 40
1.6
 41
1.6
  0
ARC
  5
32F1
330
19
100
AcDbEntity
  8
OUTLINE
100
AcDbCircle
 10
209.9928
 20
278.4363291907607
 30
0.0
 40
16.70000000000001
100
AcDbArc
 50
259.6511666165172
 51
280.3488333834827
  0
LWPOLYLINE
  5
32F4
330
19
100
AcDbEntity
  8
OUTLINE
100
AcDbPolyline
 90
        2
 70
     0
 43
0.0
 10
206.9927999999999
 20
262.0080000000001
 10
193.9738
 20
262.0080000000001
  0
LWPOLYLINE
  5
32F5
330
19
100
AcDbEntity
  8
OUTLINE
100
AcDbPolyline
 90
        4
 70
     0
 10
57.9928
 20
301.1309303646739
 40
0.0
 41
8.0
 10
69.9928
 20
301.1309303646739
 40
1.6
 41
1.6
 10
77.9928
 20
301.1309303646739
 40
1.6
 41
1.6
 10
77.9928
 20
293.1309303646738
 40
1.6
 41
1.6
  0
TEXT
  5
32F6
330
19
100
AcDbEntity
  8
DIMENSIONS
100
AcDbText
 10
57.46565129604366
 20
289.1309303646739
 30
0.0
 40
8.0
  1
B
  7
BOLD
 72
     4
 11
61.1928
 21
293.1309303646738
 31
0.0
100
AcDbText
  0
LINE
  5
32FA
330
19
100
AcDbEntity
  8
CENTRE
100
AcDbLine
 10
435.9928
 20
185.736515625
 30
0.0
 11
435.9928
 21
289.5147262655855
 31
0.0
  0
LINE
  5
32FB
330
19
100
AcDbEntity
  8
CENTRE
100
AcDbLine
 10
475.9127200443867
 20
226.508
 30
0.0
 11
396.0728799556133
 21
226.508
 31
0.0
  0
LINE
  5
32FC
330
19
100
AcDbEntity
  8
CENTRE
  6
CENTER2
100
AcDbLine
 10
407.1630069193961
 20
197.6782069193961
 30
0.0
 11
435.9928
 21
226.508
 31
0.0
  0
LINE
  5
32FD
330
19
100
AcDbEntity
  8
CENTRE
  6
CENTER2
100
AcDbLine
 10
464.8225930806037
 20
197.6782069193961
 30
0.0
 11
435.9928
 21
226.508
 31
0.0
  0
LINE
  5
32FE
330
19
100
AcDbEntity
  8
OUTLINE
100
AcDbLine
 10
448.6771095777185
 20
208.1668361727888
 30
0.0
 11
454.3339638272108
 21
213.8236904222811
 31
0.0
  0
LINE
  5
33D1
330
19
100
AcDbEntity
  8
CENTRE
  6
CENTER2
 48
0.75
100
AcDbLine
 10
185.9928
 20
366.6283213988425
 30
0.0
 11
185.9928
 21
421.1283213988424
 31
0.0
  0
LINE
  5
33D2
330
19
100
AcDbEntity
  8
CENTRE
  6
CENTER2
 48
0.75
100
AcDbLine
 10
233.9928
 20
366.6283213988425
 30
0.0
 11
233.9928
 21
421.1283213988424
 31
0.0
  0
DIMENSION
  5
33D3
330
19
100
AcDbEntity
  8
DIMENSIONS
100
AcDbDimension
280
     0
  2
*D20
 10
233.9928
 20
435.1283213988424
 30
0.0
 11
221.9928
 21
441.1907794243629
 31
0.0
 70
    32
 71
     5
 42
24.0
 73
     0
 74
     0
 75
     0
  3
STDX2_1_1
100
AcDbAlignedDimension
 13
209.9928
 23
421.1283213988424
 33
0.0
 14
233.9928
 24
421.1283213988424
 34
0.0
100
AcDbRotatedDimension
1001
ACAD
1000
DSTYLE
1002
{
1070
    40
1040
1.0
1070
    41
1040
6.0
1070
   140
1040
6.0
1070
   147
1040
3.0
1002
}
1001
ACAD_DSTYLE_DIMINSPECT
1070
   396
1000
100%
1070
   395
1000

1070
   394
1070
    33
1070
   393
1070
     0
  0
DIMENSION
  5
33D4
330
19
100
AcDbEntity
  8
DIMENSIONS
100
AcDbDimension
280
     0
  2
*D21
 10
209.9928
 20
435.1283213988424
 30
0.0
 11
197.9928
 21
441.1907794243629
 31
0.0
 70
    32
 71
     5
 42
24.0
 73
     0
 74
     0
 75
     0
  3
STDX2_1_1
100
AcDbAlignedDimension
 13
185.9928
 23
421.1283213988424
 33
0.0
 14
209.9928
 24
421.1283213988424
 34
0.0
100
AcDbRotatedDimension
1001
ACAD
1000
DSTYLE
1002
{
1070
    40
1040
1.0
1070
    41
1040
6.0
1070
   140
1040
6.0
1070
   147
1040
3.0
1002
}
1001
ACAD_DSTYLE_DIMINSPECT
1070
   396
1000
100%
1070
   395
1000

1070
   394
1070
    33
1070
   393
1070
     0
  0
LINE
  5
33D5
330
19
100
AcDbEntity
  8
CENTRE
  6
CENTER2
 48
0.75
100
AcDbLine
 10
131.9928
 20
242.633
 30
0.0
 11
131.9928
 21
293.130930364674
 31
0.0
  0
LINE
  5
33D6
330
19
100
AcDbEntity
  8
CENTRE
  6
CENTER2
 48
0.75
100
AcDbLine
 10
260.9928
 20
242.633
 30
0.0
 11
260.9928
 21
293.130930364674
 31
0.0
  0
LINE
  5
3E26
330
19
100
AcDbEntity
  8
CENTRE
  6
CENTER2
 48
0.75
100
AcDbLine
 10
131.9928
 20
366.6283213988425
 30
0.0
 11
131.9928
 21
421.1283213988424
 31
0.0
  0
LINE
  5
3E29
330
19
100
AcDbEntity
  8
CENTRE
  6
CENTER2
 48
0.75
100
AcDbLine
 10
287.9928
 20
366.6283213988425
 30
0.0
 11
287.9928
 21
421.1283213988424
 31
0.0
  0
DIMENSION
  5
3E2A
330
19
100
AcDbEntity
  8
DIMENSIONS
100
AcDbDimension
280
     0
  2
*D22
 10
131.9928
 20
435.1283213988424
 30
0.0
 11
118.4928
 21
441.1907794243629
 31
0.0
 70
    32
 71
     5
 42
26.99999999999999
 73
     0
 74
     0
 75
     0
  3
STDX2_1_1
100
AcDbAlignedDimension
 13
104.9928
 23
421.1283213988424
 33
0.0
 14
131.9928
 24
421.1283213988424
 34
0.0
100
AcDbRotatedDimension
1001
ACAD
1000
DSTYLE
1002
{
1070
    40
1040
1.0
1070
    41
1040
6.0
1070
   140
1040
6.0
1070
   147
1040
3.0
1002
}
1001
ACAD_DSTYLE_DIMINSPECT
1070
   396
1000
100%
1070
   395
1000

1070
   394
1070
    33
1070
   393
1070
     0
  0
DIMENSION
  5
3E4D
330
19
100
AcDbEntity
  8
DIMENSIONS
100
AcDbDimension
280
     0
  2
*D23
 10
287.9928
 20
435.1283213988424
 30
0.0
 11
274.4928
 21
441.1907794243629
 31
0.0
 70
    32
 71
     5
 42
27.0
 73
     0
 74
     0
 75
     0
  3
STDX2_1_1
100
AcDbAlignedDimension
 13
260.9928
 23
421.1283213988424
 33
0.0
 14
287.9928
 24
421.1283213988424
 34
0.0
100
AcDbRotatedDimension
1001
ACAD
1000
DSTYLE
1002
{
1070
    40
1040
1.0
1070
    41
1040
6.0
1070
   140
1040
6.0
1070
   147
1040
3.0
1002
}
1001
ACAD_DSTYLE_DIMINSPECT
1070
   396
1000
100%
1070
   395
1000

1070
   394
1070
    33
1070
   393
1070
     0
  0
MTEXT
  5
3E7F
330
19
100
AcDbEntity
  8
DIMENSIONS
  6
Continuous
100
AcDbMText
 10
209.9928
 20
182.6479167804815
 30
0.0
 40
8.0
 41
0.0
 46
0.0
 71
     2
 72
     5
  1
SECTION A-A
  7
BOLD
 73
     1
 44
1.0
  0
MTEXT
  5
3E80
330
19
100
AcDbEntity
  8
DIMENSIONS
  6
Continuous
100
AcDbMText
 10
435.9928
 20
181.1479167804815
 30
0.0
 40
8.0
 41
0.0
 46
0.0
 71
     2
 72
     5
  1
SECTION B-B
  7
BOLD
 73
     1
 44
1.0
  0
LINE
  5
3EA9
330
19
100
AcDbEntity
  8
CENTRE
  6
CENTER2
 48
0.75
100
AcDbLine
 10
158.9928
 20
242.633
 30
0.0
 11
158.9928
 21
293.130930364674
 31
0.0
  0
LINE
  5
3EB0
330
19
100
AcDbEntity
  8
CENTRE
  6
CENTER2
 48
0.75
100
AcDbLine
 10
233.9928
 20
242.633
 30
0.0
 11
233.9928
 21
293.130930364674
 31
0.0
  0
LINE
  5
3F41
330
19
100
AcDbEntity
  8
OUTLINE
100
AcDbLine
 10
427.9927999999999
 20
247.3236191356394
 30
0.0
 11
427.9927999999999
 21
261.0948472110425
 31
0.0
  0
LINE
  5
3F43
330
19
100
AcDbEntity
  8
OUTLINE
100
AcDbLine
 10
443.9928
 20
247.3236191356394
 30
0.0
 11
443.9928
 21
261.0948472110425
 31
0.0
  0
ARC
  5
3FEA
330
19
100
AcDbEntity
  8
OUTLINE
100
AcDbCircle
 10
435.9928
 20
226.508
 30
0.0
 40
35.5
100
AcDbArc
 50
102.9921115445191
 51
77.00788845547586
  0
ARC
  5
3FEB
330
19
100
AcDbEntity
  8
OUTLINE
100
AcDbCircle
 10
435.9928
 20
226.508
 30
0.0
 40
22.3
100
AcDbArc
 50
101.2927102846955
 51
78.70728971529806
  0
LINE
  5
3FF2
330
19
100
AcDbEntity
  8
OUTLINE
100
AcDbLine
 10
53.9928
 20
262.0080000000001
 30
0.0
 11
53.99279999999999
 21
191.008
 31
0.0
  0
LINE
  5
3FF3
330
19
100
AcDbEntity
  8
OUTLINE
100
AcDbLine
 10
53.99279999999999
 20
191.008
 30
0.0
 11
365.9928
 21
191.008
 31
0.0
  0
LINE
  5
3FF4
330
19
100
AcDbEntity
  8
OUTLINE
100
AcDbLine
 10
365.9928
 20
191.008
 30
0.0
 11
365.9928
 21
262.0080000000001
 31
0.0
  0
LINE
  5
4373
330
19
100
AcDbEntity
  8
CENTRE
  6
CENTER2
 48
0.75
100
AcDbLine
 10
260.9928
 20
366.6283213988425
 30
0.0
 11
260.9928
 21
421.1283213988424
 31
0.0
  0
LINE
  5
4377
330
19
100
AcDbEntity
  8
CENTRE
  6
CENTER2
 48
0.75
100
AcDbLine
 10
158.9928
 20
366.6283213988425
 30
0.0
 11
158.9928
 21
421.1283213988424
 31
0.0
  0
DIMENSION
  5
4378
330
19
100
AcDbEntity
  8
DIMENSIONS
100
AcDbDimension
280
     0
  2
*D24
 10
158.9928
 20
435.1283213988424
 30
0.0
 11
145.4928
 21
441.1907794243629
 31
0.0
 70
    32
 71
     5
 42
27.0
 73
     0
 74
     0
 75
     0
  3
STDX2_1_1
100
AcDbAlignedDimension
 13
131.9928
 23
421.1283213988424
 33
0.0
 14
158.9928
 24
421.1283213988424
 34
0.0
100
AcDbRotatedDimension
1001
ACAD
1000
DSTYLE
1002
{
1070
    40
1040
1.0
1070
    41
1040
6.0
1070
   140
1040
6.0
1070
   147
1040
3.0
1002
}
1001
ACAD_DSTYLE_DIMINSPECT
1070
   396
1000
100%
1070
   395
1000

1070
   394
1070
    33
1070
   393
1070
     0
  0
DIMENSION
  5
439B
330
19
100
AcDbEntity
  8
DIMENSIONS
100
AcDbDimension
280
     0
  2
*D25
 10
260.9928
 20
435.1283213988424
 30
0.0
 11
247.4928
 21
441.1907794243629
 31
0.0
 70
    32
 71
     5
 42
27.0
 73
     0
 74
     0
 75
     0
  3
STDX2_1_1
100
AcDbAlignedDimension
 13
233.9928
 23
421.1283213988424
 33
0.0
 14
260.9928
 24
421.1283213988424
 34
0.0
100
AcDbRotatedDimension
1001
ACAD
1000
DSTYLE
1002
{
1070
    40
1040
1.0
1070
    41
1040
6.0
1070
   140
1040
6.0
1070
   147
1040
3.0
1002
}
1001
ACAD_DSTYLE_DIMINSPECT
1070
   396
1000
100%
1070
   395
1000

1070
   394
1070
    33
1070
   393
1070
     0
  0
LINE
  5
43BF
330
19
100
AcDbEntity
  8
CENTRE
  6
CENTER2
 48
0.75
100
AcDbLine
 10
314.9928
 20
242.633
 30
0.0
 11
314.9928
 21
293.130930364674
 31
0.0
  0
LINE
  5
43C5
330
19
100
AcDbEntity
  8
OUTLINE
100
AcDbLine
 10
443.9738000000014
 20
248.8080073578882
 30
0.0
 11
443.9738000000014
 21
250.7594458875395
 31
0.0
  0
LINE
  5
43C7
330
19
100
AcDbEntity
  8
OUTLINE
100
AcDbLine
 10
428.0118000000014
 20
248.8080073578882
 30
0.0
 11
428.0118000000014
 21
250.7594458875395
 31
0.0
  0
LINE
  5
43C8
330
19
100
AcDbEntity
  8
CENTRE
  6
CENTER2
 48
0.75
100
AcDbLine
 10
185.9927999999999
 20
242.633
 30
0.0
 11
185.9928
 21
293.130930364674
 31
0.0
  0
LINE
  5
4540
330
19
100
AcDbEntity
  8
OUTLINE
100
AcDbLine
 10
454.3339638272108
 20
213.8236904222811
 30
0.0
 11
449.3842163589051
 21
218.7734378905869
 31
0.0
  0
LINE
  5
4541
330
19
100
AcDbEntity
  8
OUTLINE
100
AcDbLine
 10
448.6771095777185
 20
208.1668361727888
 30
0.0
 11
443.7273621094125
 21
213.1165836410946
 31
0.0
  0
LINE
  5
4542
330
19
100
AcDbEntity
  8
OUTLINE
100
AcDbLine
 10
449.3842163589051
 20
218.7734378905869
 30
0.0
 11
443.7273621094125
 21
213.1165836410946
 31
0.0
  0
LINE
  5
45B5
330
19
100
AcDbEntity
  8
OUTLINE
100
AcDbLine
 10
423.3084904222814
 20
208.1668361727888
 30
0.0
 11
417.651636172789
 21
213.8236904222811
 31
0.0
  0
LINE
  5
45B7
330
19
100
AcDbEntity
  8
OUTLINE
100
AcDbLine
 10
417.651636172789
 20
213.8236904222811
 30
0.0
 11
422.6013836410947
 21
218.7734378905869
 31
0.0
  0
LINE
  5
45B8
330
19
100
AcDbEntity
  8
OUTLINE
100
AcDbLine
 10
423.3084904222814
 20
208.1668361727888
 30
0.0
 11
428.2582378905874
 21
213.1165836410946
 31
0.0
  0
LINE
  5
45B9
330
19
100
AcDbEntity
  8
OUTLINE
100
AcDbLine
 10
422.6013836410947
 20
218.7734378905869
 30
0.0
 11
428.2582378905874
 21
213.1165836410946
 31
0.0
  0
HATCH
  5
576C
330
19
100
AcDbEntity
  8
HATCH
100
AcDbHatch
 10
0.0
 20
0.0
 30
0.0
210
0.0
220
0.0
230
1.0
  2
ANSI31
 70
     0
 71
     0
 91
        2
 92
        7
 72
     1
 73
     1
 93
        8
 10
427.9927999999999
 20
247.3236191356394
 42
0.0
 10
427.9927999999999
 20
261.0948472110425
 42
0.3491001810737773
 10
400.4927999999999
 20
226.508
 42
1.0
 10
471.4927999999999
 20
226.508
 42
0.3491001810737773
 10
443.9928
 20
261.0948472110425
 42
0.0
 10
443.9928
 20
247.3236191356395
 42
-0.3103977222235247
 10
458.2927999999999
 20
226.508
 42
-1.0
 10
413.6928
 20
226.508
 42
-0.3103977222235231
 97
        0
 92
        5
 93
        4
 72
     1
 10
427.9927999999999
 20
247.3236191356394
 11
428.0118000000014
 21
250.7594458875395
 72
     1
 10
428.0118000000014
 20
250.7594458875395
 11
428.0118000000014
 21
261.0992364479795
 72
     2
 10
435.9927999999613
 20
226.5080000001824
 40
35.49999999981358
 50
102.9921115445245
 51
103.0235845118542
 73
     1
 72
     1
 10
427.9927999999999
 20
261.0948472110425
 11
427.9927999999999
 21
247.3236191356394
 97
        0
 75
     0
 76
     1
 52
0.0
 41
50.0
 77
     0
 78
     1
 53
45.0
 43
0.0
 44
-15.0
 45
-4.419417382415921
 46
4.419417382415922
 79
     0
 47
0.1600054654582442
 98
        2
 10
417.4200657535553
 20
243.8919329055529
 10
428.0018493256366
 20
255.0284871773018
  0
LINE
  5
57DB
330
19
100
AcDbEntity
  8
OUTLINE
100
AcDbLine
 10
435.9928000000015
 20
244.0094458875395
 30
0.0
 11
429.2428000000016
 21
250.7594458875395
 31
0.0
  0
LINE
  5
57DC
330
19
100
AcDbEntity
  8
OUTLINE
100
AcDbLine
 10
435.9928000000015
 20
244.0094458875395
 30
0.0
 11
442.7428000000013
 21
250.7594458875395
 31
0.0
  0
ARC
  5
57DD
330
19
100
AcDbEntity
  8
OUTLINE
  6
Continuous
100
AcDbCircle
 10
429.2428
 20
278.7116101497669
 30
0.0
 40
2.702164262227505
100
AcDbArc
 50
213.6264291359718
 51
326.3735708640281
  0
ARC
  5
57DE
330
19
100
AcDbEntity
  8
OUTLINE
  6
Continuous
100
AcDbCircle
 10
429.2428
 20
283.3072816253119
 30
0.0
 40
2.702164262227505
100
AcDbArc
 50
33.62642913597187
 51
146.3735708640282
  0
LINE
  5
57DF
330
19
100
AcDbEntity
  8
OUTLINE
100
AcDbLine
 10
428.0118000000014
 20
270.8594458875398
 30
0.0
 11
443.9738000000016
 21
270.8594458875396
 31
0.0
  0
LINE
  5
57E0
330
19
100
AcDbEntity
  8
OUTLINE
100
AcDbLine
 10
428.8428000000001
 20
272.5594458875409
 30
0.0
 11
443.1428000000001
 21
272.5594458875384
 31
0.0
  0
LINE
  5
57E1
330
19
100
AcDbEntity
  8
OUTLINE
  6
Continuous
100
AcDbLine
 10
426.9928000000029
 20
280.0094458875394
 30
0.0
 11
444.9927999999999
 21
280.0094458875394
 31
0.0
  0
LINE
  5
57E2
330
19
100
AcDbEntity
  8
OUTLINE
  6
Continuous
100
AcDbLine
 10
427.9928000000029
 20
281.0094458875394
 30
0.0
 11
443.9928
 21
281.0094458875394
 31
0.0
  0
LINE
  5
57E3
330
19
100
AcDbEntity
  8
OUTLINE
  6
Continuous
100
AcDbLine
 10
444.9927999999999
 20
282.0094458875394
 30
0.0
 11
426.9928000000029
 21
282.0094458875394
 31
0.0
  0
LINE
  5
57E4
330
19
100
AcDbEntity
  8
OUTLINE
100
AcDbLine
 10
429.6928000000015
 20
271.3094458875395
 30
0.0
 11
442.2928000000013
 21
271.3094458875395
 31
0.0
  0
LINE
  5
57E5
330
19
100
AcDbEntity
  8
OUTLINE
100
AcDbLine
 10
429.6928000000014
 20
271.7094458875396
 30
0.0
 11
442.2928000000012
 21
271.7094458875396
 31
0.0
  0
LINE
  5
57E6
330
19
100
AcDbEntity
  8
OUTLINE
  6
Continuous
100
AcDbLine
 10
429.2428
 20
276.0094458875394
 30
0.0
 11
442.7427999999999
 21
276.0094458875394
 31
0.0
  0
LINE
  5
57E7
330
19
100
AcDbEntity
  8
OUTLINE
  6
Continuous
100
AcDbLine
 10
429.2428
 20
286.0094458875394
 30
0.0
 11
442.7427999999999
 21
286.0094458875394
 31
0.0
  0
LINE
  5
57E8
330
19
100
AcDbEntity
  8
OUTLINE
100
AcDbLine
 10
428.0118000000014
 20
250.7594458875395
 30
0.0
 11
443.9738000000014
 21
250.7594458875395
 31
0.0
  0
LINE
  5
57E9
330
19
100
AcDbEntity
  8
OUTLINE
100
AcDbLine
 10
429.2198000000014
 20
270.8594458875398
 30
0.0
 11
429.2198000000014
 21
247.7545637456982
 31
0.0
  0
LINE
  5
57EA
330
19
100
AcDbEntity
  8
OUTLINE
100
AcDbLine
 10
428.0118000000014
 20
270.8594458875398
 30
0.0
 11
428.0118000000014
 21
250.7594458875395
 31
0.0
  0
LINE
  5
57EB
330
19
100
AcDbEntity
  8
OUTLINE
  6
Continuous
100
AcDbLine
 10
426.9928
 20
277.2152172534795
 30
0.0
 11
426.9928
 21
280.0094458875394
 31
0.0
  0
LINE
  5
57EC
330
19
100
AcDbEntity
  8
OUTLINE
100
AcDbLine
 10
428.8428000000001
 20
272.5594458875409
 30
0.0
 11
428.8428
 21
276.0392157739198
 31
0.0
  0
LINE
  5
57ED
330
19
100
AcDbEntity
  8
OUTLINE
100
AcDbLine
 10
428.8428000000001
 20
272.5594458875409
 30
0.0
 11
429.6928000000014
 21
271.7094458875396
 31
0.0
  0
LINE
  5
57EE
330
19
100
AcDbEntity
  8
OUTLINE
100
AcDbLine
 10
429.2428000000016
 20
270.8594458875398
 30
0.0
 11
429.6928000000011
 21
271.3094458875395
 31
0.0
  0
LINE
  5
57EF
330
19
100
AcDbEntity
  8
OUTLINE
100
AcDbLine
 10
429.6928000000015
 20
271.3094458875395
 30
0.0
 11
429.6928000000014
 21
271.7094458875396
 31
0.0
  0
LINE
  5
57F0
330
19
100
AcDbEntity
  8
OUTLINE
  6
Continuous
100
AcDbLine
 10
426.9928
 20
282.0094458875394
 30
0.0
 11
426.9928
 21
284.8036745215994
 31
0.0
  0
LINE
  5
57F1
330
19
100
AcDbEntity
  8
OUTLINE
  6
Continuous
100
AcDbLine
 10
427.9928000000029
 20
281.0094458875394
 30
0.0
 11
426.9928000000029
 21
282.0094458875394
 31
0.0
  0
LINE
  5
57F2
330
19
100
AcDbEntity
  8
OUTLINE
  6
Continuous
100
AcDbLine
 10
426.9928000000029
 20
280.0094458875394
 30
0.0
 11
427.9928000000029
 21
281.0094458875394
 31
0.0
  0
LINE
  5
57F3
330
19
100
AcDbEntity
  8
OUTLINE
100
AcDbLine
 10
442.7658000000015
 20
270.8594458875396
 30
0.0
 11
442.7658000000015
 21
247.7545637456973
 31
0.0
  0
LINE
  5
57F4
330
19
100
AcDbEntity
  8
OUTLINE
100
AcDbLine
 10
443.9738000000016
 20
270.8594458875396
 30
0.0
 11
443.9738000000014
 21
250.7594458875395
 31
0.0
  0
LINE
  5
57F5
330
19
100
AcDbEntity
  8
OUTLINE
  6
Continuous
100
AcDbLine
 10
444.9927999999999
 20
280.0094458875394
 30
0.0
 11
444.9927999999999
 21
277.2152172534795
 31
0.0
  0
LINE
  5
57F6
330
19
100
AcDbEntity
  8
OUTLINE
  6
Continuous
100
AcDbLine
 10
440.4927999999999
 20
277.2152172534795
 30
0.0
 11
440.4927999999999
 21
280.0094458875394
 31
0.0
  0
LINE
  5
57F7
330
19
100
AcDbEntity
  8
OUTLINE
  6
Continuous
100
AcDbLine
 10
431.4928
 20
277.2152172534795
 30
0.0
 11
431.4928
 21
280.0094458875394
 31
0.0
  0
ARC
  5
57F8
330
19
100
AcDbEntity
  8
OUTLINE
  6
Continuous
100
AcDbCircle
 10
435.9928
 20
285.0094458875394
 30
0.0
 40
8.999999999999923
100
AcDbArc
 50
239.9999999999999
 51
300.0
  0
LINE
  5
57F9
330
19
100
AcDbEntity
  8
OUTLINE
100
AcDbLine
 10
443.1428000000001
 20
272.5594458875384
 30
0.0
 11
443.1428000000001
 21
276.0392157739198
 31
0.0
  0
LINE
  5
57FA
330
19
100
AcDbEntity
  8
OUTLINE
100
AcDbLine
 10
442.7428000000011
 20
270.8594458875396
 30
0.0
 11
442.2928000000013
 21
271.3094458875395
 31
0.0
  0
LINE
  5
57FB
330
19
100
AcDbEntity
  8
OUTLINE
100
AcDbLine
 10
443.1428000000001
 20
272.5594458875384
 30
0.0
 11
442.2928000000012
 21
271.7094458875396
 31
0.0
  0
LINE
  5
57FC
330
19
100
AcDbEntity
  8
OUTLINE
100
AcDbLine
 10
442.2928000000013
 20
271.3094458875395
 30
0.0
 11
442.2928000000015
 21
271.7094458875396
 31
0.0
  0
ARC
  5
57FD
330
19
100
AcDbEntity
  8
OUTLINE
  6
Continuous
100
AcDbCircle
 10
442.7427999999999
 20
278.7116101497669
 30
0.0
 40
2.702164262227505
100
AcDbArc
 50
213.6264291359719
 51
326.3735708640282
  0
ARC
  5
57FE
330
19
100
AcDbEntity
  8
OUTLINE
  6
Continuous
100
AcDbCircle
 10
435.9928
 20
277.0094458875395
 30
0.0
 40
8.999999999999923
100
AcDbArc
 50
60.0
 51
120.0
  0
LINE
  5
57FF
330
19
100
AcDbEntity
  8
OUTLINE
  6
Continuous
100
AcDbLine
 10
431.4928
 20
282.0094458875394
 30
0.0
 11
431.4928
 21
284.8036745215993
 31
0.0
  0
LINE
  5
5800
330
19
100
AcDbEntity
  8
OUTLINE
  6
Continuous
100
AcDbLine
 10
444.9927999999999
 20
284.8036745215994
 30
0.0
 11
444.9927999999999
 21
282.0094458875394
 31
0.0
  0
LINE
  5
5801
330
19
100
AcDbEntity
  8
OUTLINE
  6
Continuous
100
AcDbLine
 10
440.4927999999999
 20
282.0094458875394
 30
0.0
 11
440.4927999999999
 21
284.8036745215994
 31
0.0
  0
LINE
  5
5802
330
19
100
AcDbEntity
  8
OUTLINE
  6
Continuous
100
AcDbLine
 10
444.9927999999999
 20
280.0094458875394
 30
0.0
 11
443.9928
 21
281.0094458875394
 31
0.0
  0
LINE
  5
5803
330
19
100
AcDbEntity
  8
OUTLINE
  6
Continuous
100
AcDbLine
 10
443.9928
 20
281.0094458875394
 30
0.0
 11
444.9927999999999
 21
282.0094458875394
 31
0.0
  0
ARC
  5
5804
330
19
100
AcDbEntity
  8
OUTLINE
  6
Continuous
100
AcDbCircle
 10
442.7427999999999
 20
283.3072816253119
 30
0.0
 40
2.702164262227505
100
AcDbArc
 50
33.62642913597178
 51
146.3735708640281
  0
MTEXT
  5
6607
330
19
100
AcDbEntity
  8
ANCON-TEXT
100
AcDbMText
 10
56.30168541403691
 20
138.1725715323614
 30
0.0
 40
8.0
 41
510.1400342988036
 46
0.0
 71
     1
 72
     5
  1
Ancon ET32 MBT COUPLER
 73
     1
 44
1.0
1001
ACAD
1000
ACAD_MTEXT_COLUMN_INFO_BEGIN
1070
    75
1070
     2
1070
    79
1070
     0
1070
    76
1070
     1
1070
    78
1070
     0
1070
    48
1040
510.1400342988036
1070
    49
1040
1.0
1070
    50
1070
     1
1040
8.971088634296766
1000
ACAD_MTEXT_COLUMN_INFO_END
  0
MTEXT
  5
6608
330
19
100
AcDbEntity
  8
ANCON-TEXT
100
AcDbMText
 10
266.8302429518271
 20
138.1725715323614
 30
0.0
 40
8.0
 41
448.6979488550819
 46
0.0
 71
     1
 72
     5
  1
Ancon Ltd. \PTel: +44(0)114 2755224\PEmail: info@ancon.co.uk\PWeb: www.ancon.co.uk
 73
     1
 44
1.0
1001
ACAD
1000
ACAD_MTEXT_COLUMN_INFO_BEGIN
1070
    75
1070
     2
1070
    79
1070
     0
1070
    76
1070
     1
1070
    78
1070
     0
1070
    48
1040
448.6979488550819
1070
    49
1040
1.0
1070
    50
1070
     1
1040
0.0
1000
ACAD_MTEXT_COLUMN_INFO_END
  0
LWPOLYLINE
  5
67CA
330
19
100
AcDbEntity
  8
OUTLINE
100
AcDbPolyline
 90
        2
 70
     0
 43
0.0
 10
178.0118
 20
262.008
 10
166.9738
 20
262.0080000000001
  0
ARC
  5
67CB
330
19
100
AcDbEntity
  8
OUTLINE
  6
Continuous
100
AcDbCircle
 10
179.2427999999985
 20
278.7116027918786
 30
0.0
 40
2.702164262227505
100
AcDbArc
 50
213.6264291359714
 51
326.3735708640286
  0
ARC
  5
67CC
330
19
100
AcDbEntity
  8
OUTLINE
  6
Continuous
100
AcDbCircle
 10
179.2427999999985
 20
283.3072742674237
 30
0.0
 40
2.702164262227505
100
AcDbArc
 50
33.62642913597142
 51
146.3735708640285
  0
LINE
  5
67CD
330
19
100
AcDbEntity
  8
OUTLINE
100
AcDbLine
 10
178.0118
 20
270.8594385296516
 30
0.0
 11
193.9738000000001
 21
270.8594385296514
 31
0.0
  0
LINE
  5
67CE
330
19
100
AcDbEntity
  8
OUTLINE
100
AcDbLine
 10
178.8427999999986
 20
272.5594385296527
 30
0.0
 11
193.1427999999986
 21
272.5594385296502
 31
0.0
  0
LINE
  5
67CF
330
19
100
AcDbEntity
  8
OUTLINE
  6
Continuous
100
AcDbLine
 10
176.9928000000014
 20
280.0094385296512
 30
0.0
 11
194.9927999999985
 21
280.0094385296512
 31
0.0
  0
LINE
  5
67D0
330
19
100
AcDbEntity
  8
OUTLINE
  6
Continuous
100
AcDbLine
 10
177.9928000000014
 20
281.0094385296512
 30
0.0
 11
193.9927999999985
 21
281.0094385296512
 31
0.0
  0
LINE
  5
67D1
330
19
100
AcDbEntity
  8
OUTLINE
  6
Continuous
100
AcDbLine
 10
194.9927999999985
 20
282.0094385296512
 30
0.0
 11
176.9928000000014
 21
282.0094385296512
 31
0.0
  0
LINE
  5
67D2
330
19
100
AcDbEntity
  8
OUTLINE
100
AcDbLine
 10
179.6928
 20
271.3094385296512
 30
0.0
 11
192.2927999999998
 21
271.3094385296512
 31
0.0
  0
LINE
  5
67D3
330
19
100
AcDbEntity
  8
OUTLINE
100
AcDbLine
 10
179.6927999999999
 20
271.7094385296513
 30
0.0
 11
192.2927999999997
 21
271.7094385296513
 31
0.0
  0
LINE
  5
67D4
330
19
100
AcDbEntity
  8
OUTLINE
  6
Continuous
100
AcDbLine
 10
179.2427999999985
 20
276.0094385296512
 30
0.0
 11
192.7427999999985
 21
276.0094385296512
 31
0.0
  0
LINE
  5
67D5
330
19
100
AcDbEntity
  8
OUTLINE
  6
Continuous
100
AcDbLine
 10
179.2427999999985
 20
286.0094385296512
 30
0.0
 11
192.7427999999985
 21
286.0094385296512
 31
0.0
  0
LINE
  5
67D6
330
19
100
AcDbEntity
  8
OUTLINE
100
AcDbLine
 10
178.0118
 20
270.8594385296516
 30
0.0
 11
178.0118
 21
262.008
 31
0.0
  0
LINE
  5
67D7
330
19
100
AcDbEntity
  8
OUTLINE
  6
Continuous
100
AcDbLine
 10
176.9927999999985
 20
277.2152098955912
 30
0.0
 11
176.9927999999985
 21
280.0094385296512
 31
0.0
  0
LINE
  5
67D8
330
19
100
AcDbEntity
  8
OUTLINE
100
AcDbLine
 10
178.8427999999986
 20
272.5594385296527
 30
0.0
 11
178.8427999999985
 21
276.0392084160315
 31
0.0
  0
LINE
  5
67D9
330
19
100
AcDbEntity
  8
OUTLINE
100
AcDbLine
 10
178.8427999999986
 20
272.5594385296527
 30
0.0
 11
179.6927999999999
 21
271.7094385296513
 31
0.0
  0
LINE
  5
67DA
330
19
100
AcDbEntity
  8
OUTLINE
100
AcDbLine
 10
179.2428000000001
 20
270.8594385296516
 30
0.0
 11
179.6927999999997
 21
271.3094385296512
 31
0.0
  0
LINE
  5
67DB
330
19
100
AcDbEntity
  8
OUTLINE
100
AcDbLine
 10
179.6928
 20
271.3094385296512
 30
0.0
 11
179.6927999999999
 21
271.7094385296513
 31
0.0
  0
LINE
  5
67DC
330
19
100
AcDbEntity
  8
OUTLINE
  6
Continuous
100
AcDbLine
 10
176.9927999999985
 20
282.0094385296512
 30
0.0
 11
176.9927999999985
 21
284.8036671637111
 31
0.0
  0
LINE
  5
67DD
330
19
100
AcDbEntity
  8
OUTLINE
  6
Continuous
100
AcDbLine
 10
177.9928000000014
 20
281.0094385296512
 30
0.0
 11
176.9928000000014
 21
282.0094385296512
 31
0.0
  0
LINE
  5
67DE
330
19
100
AcDbEntity
  8
OUTLINE
  6
Continuous
100
AcDbLine
 10
176.9928000000014
 20
280.0094385296512
 30
0.0
 11
177.9928000000014
 21
281.0094385296512
 31
0.0
  0
LINE
  5
67DF
330
19
100
AcDbEntity
  8
OUTLINE
100
AcDbLine
 10
193.9738000000001
 20
270.8594385296514
 30
0.0
 11
193.9738
 21
262.008
 31
0.0
  0
LINE
  5
67E0
330
19
100
AcDbEntity
  8
OUTLINE
  6
Continuous
100
AcDbLine
 10
194.9927999999985
 20
280.0094385296512
 30
0.0
 11
194.9927999999985
 21
277.2152098955912
 31
0.0
  0
LINE
  5
67E1
330
19
100
AcDbEntity
  8
OUTLINE
  6
Continuous
100
AcDbLine
 10
190.4927999999985
 20
277.2152098955912
 30
0.0
 11
190.4927999999985
 21
280.0094385296512
 31
0.0
  0
LINE
  5
67E2
330
19
100
AcDbEntity
  8
OUTLINE
  6
Continuous
100
AcDbLine
 10
181.4927999999985
 20
277.2152098955912
 30
0.0
 11
181.4927999999985
 21
280.0094385296512
 31
0.0
  0
ARC
  5
67E3
330
19
100
AcDbEntity
  8
OUTLINE
  6
Continuous
100
AcDbCircle
 10
185.9927999999986
 20
285.0094385296511
 30
0.0
 40
8.999999999999923
100
AcDbArc
 50
239.9999999999998
 51
300.0000000000001
  0
LINE
  5
67E4
330
19
100
AcDbEntity
  8
OUTLINE
100
AcDbLine
 10
193.1427999999986
 20
272.5594385296502
 30
0.0
 11
193.1427999999986
 21
276.0392084160315
 31
0.0
  0
LINE
  5
67E5
330
19
100
AcDbEntity
  8
OUTLINE
100
AcDbLine
 10
192.7427999999996
 20
270.8594385296514
 30
0.0
 11
192.2927999999998
 21
271.3094385296512
 31
0.0
  0
LINE
  5
67E6
330
19
100
AcDbEntity
  8
OUTLINE
100
AcDbLine
 10
193.1427999999986
 20
272.5594385296502
 30
0.0
 11
192.2927999999997
 21
271.7094385296513
 31
0.0
  0
LINE
  5
67E7
330
19
100
AcDbEntity
  8
OUTLINE
100
AcDbLine
 10
192.2927999999998
 20
271.3094385296512
 30
0.0
 11
192.2928
 21
271.7094385296513
 31
0.0
  0
ARC
  5
67E8
330
19
100
AcDbEntity
  8
OUTLINE
  6
Continuous
100
AcDbCircle
 10
192.7427999999985
 20
278.7116027918786
 30
0.0
 40
2.702164262227505
100
AcDbArc
 50
213.6264291359714
 51
326.3735708640286
  0
ARC
  5
67E9
330
19
100
AcDbEntity
  8
OUTLINE
  6
Continuous
100
AcDbCircle
 10
185.9927999999986
 20
277.0094385296512
 30
0.0
 40
8.999999999999923
100
AcDbArc
 50
59.99999999999986
 51
120.0000000000001
  0
LINE
  5
67EA
330
19
100
AcDbEntity
  8
OUTLINE
  6
Continuous
100
AcDbLine
 10
181.4927999999985
 20
282.0094385296512
 30
0.0
 11
181.4927999999985
 21
284.803667163711
 31
0.0
  0
LINE
  5
67EB
330
19
100
AcDbEntity
  8
OUTLINE
  6
Continuous
100
AcDbLine
 10
194.9927999999985
 20
284.8036671637111
 30
0.0
 11
194.9927999999985
 21
282.0094385296512
 31
0.0
  0
LINE
  5
67EC
330
19
100
AcDbEntity
  8
OUTLINE
  6
Continuous
100
AcDbLine
 10
190.4927999999985
 20
282.0094385296512
 30
0.0
 11
190.4927999999985
 21
284.8036671637111
 31
0.0
  0
LINE
  5
67ED
330
19
100
AcDbEntity
  8
OUTLINE
  6
Continuous
100
AcDbLine
 10
194.9927999999985
 20
280.0094385296512
 30
0.0
 11
193.9927999999985
 21
281.0094385296512
 31
0.0
  0
LINE
  5
67EE
330
19
100
AcDbEntity
  8
OUTLINE
  6
Continuous
100
AcDbLine
 10
193.9927999999985
 20
281.0094385296512
 30
0.0
 11
194.9927999999985
 21
282.0094385296512
 31
0.0
  0
ARC
  5
67EF
330
19
100
AcDbEntity
  8
OUTLINE
  6
Continuous
100
AcDbCircle
 10
192.7427999999985
 20
283.3072742674237
 30
0.0
 40
2.702164262227505
100
AcDbArc
 50
33.62642913597142
 51
146.3735708640285
  0
ARC
  5
67F0
330
19
100
AcDbEntity
  8
OUTLINE
  6
Continuous
100
AcDbCircle
 10
185.9928
 20
318.8796614568544
 30
0.0
 40
57.42893206270741
100
AcDbArc
 50
262.0116489535629
 51
277.9883510464371
  0
LINE
  5
67F1
330
19
100
AcDbEntity
  8
OUTLINE
100
AcDbLine
 10
178.0118
 20
262.0080000000001
 30
0.0
 11
166.9738
 21
262.0080000000001
 31
0.0
  0
LINE
  5
67F2
330
19
100
AcDbEntity
  8
OUTLINE
100
AcDbLine
 10
151.0118
 20
262.1705000000001
 30
0.0
 11
139.9738000000002
 21
262.1705000000001
 31
0.0
  0
LINE
  5
67F3
330
19
100
AcDbEntity
  8
OUTLINE
100
AcDbLine
 10
124.0118000000001
 20
262.1705000000001
 30
0.0
 11
112.9738000000002
 21
262.1705000000001
 31
0.0
  0
LINE
  5
67F4
330
19
100
AcDbEntity
  8
OUTLINE
100
AcDbLine
 10
97.01180000000011
 20
262.1705000000001
 30
0.0
 11
85.9738000000002
 21
262.1705000000001
 31
0.0
  0
LINE
  5
67F5
330
19
100
AcDbEntity
  8
OUTLINE
100
AcDbLine
 10
70.01179999999999
 20
262.008
 30
0.0
 11
53.99279999999999
 21
262.0080000000001
 31
0.0
  0
ARC
  5
67F6
330
19
100
AcDbEntity
  8
OUTLINE
  6
Continuous
100
AcDbCircle
 10
152.2427999999986
 20
278.7116027918787
 30
0.0
 40
2.702164262227505
100
AcDbArc
 50
213.6264291359714
 51
326.3735708640286
  0
ARC
  5
67F7
330
19
100
AcDbEntity
  8
OUTLINE
  6
Continuous
100
AcDbCircle
 10
152.2427999999986
 20
283.3072742674237
 30
0.0
 40
2.702164262227505
100
AcDbArc
 50
33.62642913597142
 51
146.3735708640285
  0
LINE
  5
67F8
330
19
100
AcDbEntity
  8
OUTLINE
100
AcDbLine
 10
151.0118000000001
 20
270.8594385296517
 30
0.0
 11
166.9738000000002
 21
270.8594385296515
 31
0.0
  0
LINE
  5
67F9
330
19
100
AcDbEntity
  8
OUTLINE
100
AcDbLine
 10
151.8427999999987
 20
272.5594385296527
 30
0.0
 11
166.1427999999987
 21
272.5594385296503
 31
0.0
  0
LINE
  5
67FA
330
19
100
AcDbEntity
  8
OUTLINE
  6
Continuous
100
AcDbLine
 10
149.9928000000016
 20
280.0094385296512
 30
0.0
 11
167.9927999999986
 21
280.0094385296512
 31
0.0
  0
LINE
  5
67FB
330
19
100
AcDbEntity
  8
OUTLINE
  6
Continuous
100
AcDbLine
 10
150.9928000000016
 20
281.0094385296512
 30
0.0
 11
166.9927999999986
 21
281.0094385296512
 31
0.0
  0
LINE
  5
67FC
330
19
100
AcDbEntity
  8
OUTLINE
  6
Continuous
100
AcDbLine
 10
167.9927999999986
 20
282.0094385296512
 30
0.0
 11
149.9928000000016
 21
282.0094385296512
 31
0.0
  0
LINE
  5
67FD
330
19
100
AcDbEntity
  8
OUTLINE
100
AcDbLine
 10
152.6928000000001
 20
271.3094385296513
 30
0.0
 11
165.2927999999999
 21
271.3094385296513
 31
0.0
  0
LINE
  5
67FE
330
19
100
AcDbEntity
  8
OUTLINE
100
AcDbLine
 10
152.6928
 20
271.7094385296514
 30
0.0
 11
165.2927999999997
 21
271.7094385296514
 31
0.0
  0
LINE
  5
67FF
330
19
100
AcDbEntity
  8
OUTLINE
  6
Continuous
100
AcDbLine
 10
152.2427999999986
 20
276.0094385296512
 30
0.0
 11
165.7427999999986
 21
276.0094385296512
 31
0.0
  0
LINE
  5
6800
330
19
100
AcDbEntity
  8
OUTLINE
  6
Continuous
100
AcDbLine
 10
152.2427999999986
 20
286.0094385296512
 30
0.0
 11
165.7427999999986
 21
286.0094385296512
 31
0.0
  0
LINE
  5
6801
330
19
100
AcDbEntity
  8
OUTLINE
100
AcDbLine
 10
151.0118000000001
 20
270.8594385296517
 30
0.0
 11
151.0118000000001
 21
262.0080000000001
 31
0.0
  0
LINE
  5
6802
330
19
100
AcDbEntity
  8
OUTLINE
  6
Continuous
100
AcDbLine
 10
149.9927999999986
 20
277.2152098955913
 30
0.0
 11
149.9927999999986
 21
280.0094385296512
 31
0.0
  0
LINE
  5
6803
330
19
100
AcDbEntity
  8
OUTLINE
100
AcDbLine
 10
151.8427999999987
 20
272.5594385296527
 30
0.0
 11
151.8427999999986
 21
276.0392084160316
 31
0.0
  0
LINE
  5
6804
330
19
100
AcDbEntity
  8
OUTLINE
100
AcDbLine
 10
151.8427999999987
 20
272.5594385296527
 30
0.0
 11
152.6928
 21
271.7094385296514
 31
0.0
  0
LINE
  5
6805
330
19
100
AcDbEntity
  8
OUTLINE
100
AcDbLine
 10
152.2428000000002
 20
270.8594385296517
 30
0.0
 11
152.6927999999998
 21
271.3094385296513
 31
0.0
  0
LINE
  5
6806
330
19
100
AcDbEntity
  8
OUTLINE
100
AcDbLine
 10
152.6928000000001
 20
271.3094385296513
 30
0.0
 11
152.6928
 21
271.7094385296514
 31
0.0
  0
LINE
  5
6807
330
19
100
AcDbEntity
  8
OUTLINE
  6
Continuous
100
AcDbLine
 10
149.9927999999986
 20
282.0094385296512
 30
0.0
 11
149.9927999999986
 21
284.8036671637112
 31
0.0
  0
LINE
  5
6808
330
19
100
AcDbEntity
  8
OUTLINE
  6
Continuous
100
AcDbLine
 10
150.9928000000016
 20
281.0094385296512
 30
0.0
 11
149.9928000000016
 21
282.0094385296512
 31
0.0
  0
LINE
  5
6809
330
19
100
AcDbEntity
  8
OUTLINE
  6
Continuous
100
AcDbLine
 10
149.9928000000016
 20
280.0094385296512
 30
0.0
 11
150.9928000000016
 21
281.0094385296512
 31
0.0
  0
LINE
  5
680A
330
19
100
AcDbEntity
  8
OUTLINE
100
AcDbLine
 10
166.9738000000002
 20
270.8594385296515
 30
0.0
 11
166.9738000000001
 21
262.0080000000001
 31
0.0
  0
LINE
  5
680B
330
19
100
AcDbEntity
  8
OUTLINE
  6
Continuous
100
AcDbLine
 10
167.9927999999986
 20
280.0094385296512
 30
0.0
 11
167.9927999999986
 21
277.2152098955913
 31
0.0
  0
LINE
  5
680C
330
19
100
AcDbEntity
  8
OUTLINE
  6
Continuous
100
AcDbLine
 10
163.4927999999986
 20
277.2152098955913
 30
0.0
 11
163.4927999999986
 21
280.0094385296512
 31
0.0
  0
LINE
  5
680D
330
19
100
AcDbEntity
  8
OUTLINE
  6
Continuous
100
AcDbLine
 10
154.4927999999986
 20
277.2152098955913
 30
0.0
 11
154.4927999999986
 21
280.0094385296512
 31
0.0
  0
ARC
  5
680E
330
19
100
AcDbEntity
  8
OUTLINE
  6
Continuous
100
AcDbCircle
 10
158.9927999999986
 20
285.0094385296511
 30
0.0
 40
8.999999999999923
100
AcDbArc
 50
239.9999999999998
 51
300.0000000000001
  0
LINE
  5
680F
330
19
100
AcDbEntity
  8
OUTLINE
100
AcDbLine
 10
166.1427999999987
 20
272.5594385296503
 30
0.0
 11
166.1427999999987
 21
276.0392084160316
 31
0.0
  0
LINE
  5
6810
330
19
100
AcDbEntity
  8
OUTLINE
100
AcDbLine
 10
165.7427999999997
 20
270.8594385296515
 30
0.0
 11
165.2927999999999
 21
271.3094385296513
 31
0.0
  0
LINE
  5
6811
330
19
100
AcDbEntity
  8
OUTLINE
100
AcDbLine
 10
166.1427999999987
 20
272.5594385296503
 30
0.0
 11
165.2927999999997
 21
271.7094385296514
 31
0.0
  0
LINE
  5
6812
330
19
100
AcDbEntity
  8
OUTLINE
100
AcDbLine
 10
165.2927999999999
 20
271.3094385296513
 30
0.0
 11
165.2928000000001
 21
271.7094385296514
 31
0.0
  0
ARC
  5
6813
330
19
100
AcDbEntity
  8
OUTLINE
  6
Continuous
100
AcDbCircle
 10
165.7427999999986
 20
278.7116027918787
 30
0.0
 40
2.702164262227505
100
AcDbArc
 50
213.6264291359714
 51
326.3735708640286
  0
ARC
  5
6814
330
19
100
AcDbEntity
  8
OUTLINE
  6
Continuous
100
AcDbCircle
 10
158.9927999999986
 20
277.0094385296513
 30
0.0
 40
8.999999999999923
100
AcDbArc
 50
59.99999999999986
 51
120.0000000000001
  0
LINE
  5
6815
330
19
100
AcDbEntity
  8
OUTLINE
  6
Continuous
100
AcDbLine
 10
154.4927999999986
 20
282.0094385296512
 30
0.0
 11
154.4927999999986
 21
284.8036671637111
 31
0.0
  0
LINE
  5
6816
330
19
100
AcDbEntity
  8
OUTLINE
  6
Continuous
100
AcDbLine
 10
167.9927999999986
 20
284.8036671637112
 30
0.0
 11
167.9927999999986
 21
282.0094385296512
 31
0.0
  0
LINE
  5
6817
330
19
100
AcDbEntity
  8
OUTLINE
  6
Continuous
100
AcDbLine
 10
163.4927999999986
 20
282.0094385296512
 30
0.0
 11
163.4927999999986
 21
284.8036671637112
 31
0.0
  0
LINE
  5
6818
330
19
100
AcDbEntity
  8
OUTLINE
  6
Continuous
100
AcDbLine
 10
167.9927999999986
 20
280.0094385296512
 30
0.0
 11
166.9927999999986
 21
281.0094385296512
 31
0.0
  0
LINE
  5
6819
330
19
100
AcDbEntity
  8
OUTLINE
  6
Continuous
100
AcDbLine
 10
166.9927999999986
 20
281.0094385296512
 30
0.0
 11
167.9927999999986
 21
282.0094385296512
 31
0.0
  0
ARC
  5
681A
330
19
100
AcDbEntity
  8
OUTLINE
  6
Continuous
100
AcDbCircle
 10
165.7427999999986
 20
283.3072742674237
 30
0.0
 40
2.702164262227505
100
AcDbArc
 50
33.62642913597142
 51
146.3735708640285
  0
ARC
  5
681B
330
19
100
AcDbEntity
  8
OUTLINE
  6
Continuous
100
AcDbCircle
 10
158.9928
 20
318.8796614568545
 30
0.0
 40
57.42893206270741
100
AcDbArc
 50
262.0116489535629
 51
277.9883510464371
  0
ARC
  5
681C
330
19
100
AcDbEntity
  8
OUTLINE
  6
Continuous
100
AcDbCircle
 10
125.2427999999986
 20
278.7116027918787
 30
0.0
 40
2.702164262227505
100
AcDbArc
 50
213.6264291359714
 51
326.3735708640286
  0
ARC
  5
681D
330
19
100
AcDbEntity
  8
OUTLINE
  6
Continuous
100
AcDbCircle
 10
125.2427999999986
 20
283.3072742674237
 30
0.0
 40
2.702164262227505
100
AcDbArc
 50
33.62642913597142
 51
146.3735708640285
  0
LINE
  5
681E
330
19
100
AcDbEntity
  8
OUTLINE
100
AcDbLine
 10
124.0118000000001
 20
270.8594385296517
 30
0.0
 11
139.9738000000002
 21
270.8594385296515
 31
0.0
  0
LINE
  5
681F
330
19
100
AcDbEntity
  8
OUTLINE
100
AcDbLine
 10
124.8427999999987
 20
272.5594385296527
 30
0.0
 11
139.1427999999987
 21
272.5594385296503
 31
0.0
  0
LINE
  5
6820
330
19
100
AcDbEntity
  8
OUTLINE
  6
Continuous
100
AcDbLine
 10
122.9928000000016
 20
280.0094385296512
 30
0.0
 11
140.9927999999986
 21
280.0094385296512
 31
0.0
  0
LINE
  5
6821
330
19
100
AcDbEntity
  8
OUTLINE
  6
Continuous
100
AcDbLine
 10
123.9928000000016
 20
281.0094385296512
 30
0.0
 11
139.9927999999986
 21
281.0094385296512
 31
0.0
  0
LINE
  5
6822
330
19
100
AcDbEntity
  8
OUTLINE
  6
Continuous
100
AcDbLine
 10
140.9927999999986
 20
282.0094385296512
 30
0.0
 11
122.9928000000016
 21
282.0094385296512
 31
0.0
  0
LINE
  5
6823
330
19
100
AcDbEntity
  8
OUTLINE
100
AcDbLine
 10
125.6928000000001
 20
271.3094385296513
 30
0.0
 11
138.2927999999999
 21
271.3094385296513
 31
0.0
  0
LINE
  5
6824
330
19
100
AcDbEntity
  8
OUTLINE
100
AcDbLine
 10
125.6928
 20
271.7094385296514
 30
0.0
 11
138.2927999999998
 21
271.7094385296514
 31
0.0
  0
LINE
  5
6825
330
19
100
AcDbEntity
  8
OUTLINE
  6
Continuous
100
AcDbLine
 10
125.2427999999986
 20
276.0094385296512
 30
0.0
 11
138.7427999999986
 21
276.0094385296512
 31
0.0
  0
LINE
  5
6826
330
19
100
AcDbEntity
  8
OUTLINE
  6
Continuous
100
AcDbLine
 10
125.2427999999986
 20
286.0094385296512
 30
0.0
 11
138.7427999999986
 21
286.0094385296512
 31
0.0
  0
LINE
  5
6827
330
19
100
AcDbEntity
  8
OUTLINE
100
AcDbLine
 10
124.0118000000001
 20
270.8594385296517
 30
0.0
 11
124.0118000000001
 21
262.0080000000001
 31
0.0
  0
LINE
  5
6828
330
19
100
AcDbEntity
  8
OUTLINE
  6
Continuous
100
AcDbLine
 10
122.9927999999986
 20
277.2152098955913
 30
0.0
 11
122.9927999999986
 21
280.0094385296512
 31
0.0
  0
LINE
  5
6829
330
19
100
AcDbEntity
  8
OUTLINE
100
AcDbLine
 10
124.8427999999987
 20
272.5594385296527
 30
0.0
 11
124.8427999999986
 21
276.0392084160316
 31
0.0
  0
LINE
  5
682A
330
19
100
AcDbEntity
  8
OUTLINE
100
AcDbLine
 10
124.8427999999987
 20
272.5594385296527
 30
0.0
 11
125.6928
 21
271.7094385296514
 31
0.0
  0
LINE
  5
682B
330
19
100
AcDbEntity
  8
OUTLINE
100
AcDbLine
 10
125.2428000000002
 20
270.8594385296517
 30
0.0
 11
125.6927999999998
 21
271.3094385296513
 31
0.0
  0
LINE
  5
682C
330
19
100
AcDbEntity
  8
OUTLINE
100
AcDbLine
 10
125.6928000000001
 20
271.3094385296513
 30
0.0
 11
125.6928
 21
271.7094385296514
 31
0.0
  0
LINE
  5
682D
330
19
100
AcDbEntity
  8
OUTLINE
  6
Continuous
100
AcDbLine
 10
122.9927999999986
 20
282.0094385296512
 30
0.0
 11
122.9927999999986
 21
284.8036671637112
 31
0.0
  0
LINE
  5
682E
330
19
100
AcDbEntity
  8
OUTLINE
  6
Continuous
100
AcDbLine
 10
123.9928000000016
 20
281.0094385296512
 30
0.0
 11
122.9928000000016
 21
282.0094385296512
 31
0.0
  0
LINE
  5
682F
330
19
100
AcDbEntity
  8
OUTLINE
  6
Continuous
100
AcDbLine
 10
122.9928000000016
 20
280.0094385296512
 30
0.0
 11
123.9928000000016
 21
281.0094385296512
 31
0.0
  0
LINE
  5
6830
330
19
100
AcDbEntity
  8
OUTLINE
100
AcDbLine
 10
139.9738000000002
 20
270.8594385296515
 30
0.0
 11
139.9738000000002
 21
262.0080000000001
 31
0.0
  0
LINE
  5
6831
330
19
100
AcDbEntity
  8
OUTLINE
  6
Continuous
100
AcDbLine
 10
140.9927999999986
 20
280.0094385296512
 30
0.0
 11
140.9927999999986
 21
277.2152098955913
 31
0.0
  0
LINE
  5
6832
330
19
100
AcDbEntity
  8
OUTLINE
  6
Continuous
100
AcDbLine
 10
136.4927999999986
 20
277.2152098955913
 30
0.0
 11
136.4927999999986
 21
280.0094385296512
 31
0.0
  0
LINE
  5
6833
330
19
100
AcDbEntity
  8
OUTLINE
  6
Continuous
100
AcDbLine
 10
127.4927999999986
 20
277.2152098955913
 30
0.0
 11
127.4927999999986
 21
280.0094385296512
 31
0.0
  0
ARC
  5
6834
330
19
100
AcDbEntity
  8
OUTLINE
  6
Continuous
100
AcDbCircle
 10
131.9927999999987
 20
285.0094385296511
 30
0.0
 40
8.999999999999923
100
AcDbArc
 50
239.9999999999998
 51
300.0000000000001
  0
LINE
  5
6835
330
19
100
AcDbEntity
  8
OUTLINE
100
AcDbLine
 10
139.1427999999987
 20
272.5594385296503
 30
0.0
 11
139.1427999999987
 21
276.0392084160316
 31
0.0
  0
LINE
  5
6836
330
19
100
AcDbEntity
  8
OUTLINE
100
AcDbLine
 10
138.7427999999997
 20
270.8594385296515
 30
0.0
 11
138.2927999999999
 21
271.3094385296513
 31
0.0
  0
LINE
  5
6837
330
19
100
AcDbEntity
  8
OUTLINE
100
AcDbLine
 10
139.1427999999987
 20
272.5594385296503
 30
0.0
 11
138.2927999999998
 21
271.7094385296514
 31
0.0
  0
LINE
  5
6838
330
19
100
AcDbEntity
  8
OUTLINE
100
AcDbLine
 10
138.2927999999999
 20
271.3094385296513
 30
0.0
 11
138.2928000000001
 21
271.7094385296514
 31
0.0
  0
ARC
  5
6839
330
19
100
AcDbEntity
  8
OUTLINE
  6
Continuous
100
AcDbCircle
 10
138.7427999999986
 20
278.7116027918787
 30
0.0
 40
2.702164262227505
100
AcDbArc
 50
213.6264291359714
 51
326.3735708640286
  0
ARC
  5
683A
330
19
100
AcDbEntity
  8
OUTLINE
  6
Continuous
100
AcDbCircle
 10
131.9927999999987
 20
277.0094385296513
 30
0.0
 40
8.999999999999923
100
AcDbArc
 50
59.99999999999986
 51
120.0000000000001
  0
LINE
  5
683B
330
19
100
AcDbEntity
  8
OUTLINE
  6
Continuous
100
AcDbLine
 10
127.4927999999986
 20
282.0094385296512
 30
0.0
 11
127.4927999999986
 21
284.8036671637111
 31
0.0
  0
LINE
  5
683C
330
19
100
AcDbEntity
  8
OUTLINE
  6
Continuous
100
AcDbLine
 10
140.9927999999986
 20
284.8036671637112
 30
0.0
 11
140.9927999999986
 21
282.0094385296512
 31
0.0
  0
LINE
  5
683D
330
19
100
AcDbEntity
  8
OUTLINE
  6
Continuous
100
AcDbLine
 10
136.4927999999986
 20
282.0094385296512
 30
0.0
 11
136.4927999999986
 21
284.8036671637112
 31
0.0
  0
LINE
  5
683E
330
19
100
AcDbEntity
  8
OUTLINE
  6
Continuous
100
AcDbLine
 10
140.9927999999986
 20
280.0094385296512
 30
0.0
 11
139.9927999999986
 21
281.0094385296512
 31
0.0
  0
LINE
  5
683F
330
19
100
AcDbEntity
  8
OUTLINE
  6
Continuous
100
AcDbLine
 10
139.9927999999986
 20
281.0094385296512
 30
0.0
 11
140.9927999999986
 21
282.0094385296512
 31
0.0
  0
ARC
  5
6840
330
19
100
AcDbEntity
  8
OUTLINE
  6
Continuous
100
AcDbCircle
 10
138.7427999999986
 20
283.3072742674237
 30
0.0
 40
2.702164262227505
100
AcDbArc
 50
33.62642913597142
 51
146.3735708640285
  0
ARC
  5
6841
330
19
100
AcDbEntity
  8
OUTLINE
  6
Continuous
100
AcDbCircle
 10
131.9928000000001
 20
318.8796614568545
 30
0.0
 40
57.42893206270741
100
AcDbArc
 50
262.0116489535629
 51
277.9883510464371
  0
ARC
  5
6842
330
19
100
AcDbEntity
  8
OUTLINE
  6
Continuous
100
AcDbCircle
 10
98.24279999999863
 20
278.7116027918788
 30
0.0
 40
2.702164262227505
100
AcDbArc
 50
213.6264291359714
 51
326.3735708640286
  0
ARC
  5
6843
330
19
100
AcDbEntity
  8
OUTLINE
  6
Continuous
100
AcDbCircle
 10
98.24279999999863
 20
283.3072742674238
 30
0.0
 40
2.702164262227505
100
AcDbArc
 50
33.62642913597142
 51
146.3735708640285
  0
LINE
  5
6844
330
19
100
AcDbEntity
  8
OUTLINE
100
AcDbLine
 10
97.01180000000011
 20
270.8594385296517
 30
0.0
 11
112.9738000000002
 21
270.8594385296515
 31
0.0
  0
LINE
  5
6845
330
19
100
AcDbEntity
  8
OUTLINE
100
AcDbLine
 10
97.84279999999876
 20
272.5594385296528
 30
0.0
 11
112.1427999999987
 21
272.5594385296503
 31
0.0
  0
LINE
  5
6846
330
19
100
AcDbEntity
  8
OUTLINE
  6
Continuous
100
AcDbLine
 10
95.99280000000158
 20
280.0094385296513
 30
0.0
 11
113.9927999999986
 21
280.0094385296513
 31
0.0
  0
LINE
  5
6847
330
19
100
AcDbEntity
  8
OUTLINE
  6
Continuous
100
AcDbLine
 10
96.99280000000157
 20
281.0094385296513
 30
0.0
 11
112.9927999999986
 21
281.0094385296513
 31
0.0
  0
LINE
  5
6848
330
19
100
AcDbEntity
  8
OUTLINE
  6
Continuous
100
AcDbLine
 10
113.9927999999986
 20
282.0094385296513
 30
0.0
 11
95.99280000000158
 21
282.0094385296513
 31
0.0
  0
LINE
  5
6849
330
19
100
AcDbEntity
  8
OUTLINE
100
AcDbLine
 10
98.69280000000015
 20
271.3094385296514
 30
0.0
 11
111.2927999999999
 21
271.3094385296514
 31
0.0
  0
LINE
  5
684A
330
19
100
AcDbEntity
  8
OUTLINE
100
AcDbLine
 10
98.69280000000003
 20
271.7094385296515
 30
0.0
 11
111.2927999999998
 21
271.7094385296515
 31
0.0
  0
LINE
  5
684B
330
19
100
AcDbEntity
  8
OUTLINE
  6
Continuous
100
AcDbLine
 10
98.24279999999863
 20
276.0094385296513
 30
0.0
 11
111.7427999999986
 21
276.0094385296513
 31
0.0
  0
LINE
  5
684C
330
19
100
AcDbEntity
  8
OUTLINE
  6
Continuous
100
AcDbLine
 10
98.24279999999863
 20
286.0094385296513
 30
0.0
 11
111.7427999999986
 21
286.0094385296513
 31
0.0
  0
LINE
  5
684D
330
19
100
AcDbEntity
  8
OUTLINE
100
AcDbLine
 10
97.01180000000011
 20
270.8594385296517
 30
0.0
 11
97.01180000000011
 21
262.0080000000001
 31
0.0
  0
LINE
  5
684E
330
19
100
AcDbEntity
  8
OUTLINE
  6
Continuous
100
AcDbLine
 10
95.99279999999863
 20
277.2152098955913
 30
0.0
 11
95.99279999999863
 21
280.0094385296513
 31
0.0
  0
LINE
  5
684F
330
19
100
AcDbEntity
  8
OUTLINE
100
AcDbLine
 10
97.84279999999876
 20
272.5594385296528
 30
0.0
 11
97.84279999999865
 21
276.0392084160316
 31
0.0
  0
LINE
  5
6850
330
19
100
AcDbEntity
  8
OUTLINE
100
AcDbLine
 10
97.84279999999876
 20
272.5594385296528
 30
0.0
 11
98.69280000000003
 21
271.7094385296515
 31
0.0
  0
LINE
  5
6851
330
19
100
AcDbEntity
  8
OUTLINE
100
AcDbLine
 10
98.24280000000022
 20
270.8594385296517
 30
0.0
 11
98.69279999999982
 21
271.3094385296514
 31
0.0
  0
LINE
  5
6852
330
19
100
AcDbEntity
  8
OUTLINE
100
AcDbLine
 10
98.69280000000015
 20
271.3094385296514
 30
0.0
 11
98.69280000000003
 21
271.7094385296515
 31
0.0
  0
LINE
  5
6853
330
19
100
AcDbEntity
  8
OUTLINE
  6
Continuous
100
AcDbLine
 10
95.99279999999863
 20
282.0094385296513
 30
0.0
 11
95.99279999999863
 21
284.8036671637112
 31
0.0
  0
LINE
  5
6854
330
19
100
AcDbEntity
  8
OUTLINE
  6
Continuous
100
AcDbLine
 10
96.99280000000157
 20
281.0094385296513
 30
0.0
 11
95.99280000000158
 21
282.0094385296513
 31
0.0
  0
LINE
  5
6855
330
19
100
AcDbEntity
  8
OUTLINE
  6
Continuous
100
AcDbLine
 10
95.99280000000158
 20
280.0094385296513
 30
0.0
 11
96.99280000000157
 21
281.0094385296513
 31
0.0
  0
LINE
  5
6856
330
19
100
AcDbEntity
  8
OUTLINE
100
AcDbLine
 10
112.9738000000002
 20
270.8594385296515
 30
0.0
 11
112.9738000000002
 21
262.0080000000001
 31
0.0
  0
LINE
  5
6857
330
19
100
AcDbEntity
  8
OUTLINE
  6
Continuous
100
AcDbLine
 10
113.9927999999986
 20
280.0094385296513
 30
0.0
 11
113.9927999999986
 21
277.2152098955913
 31
0.0
  0
LINE
  5
6858
330
19
100
AcDbEntity
  8
OUTLINE
  6
Continuous
100
AcDbLine
 10
109.4927999999986
 20
277.2152098955913
 30
0.0
 11
109.4927999999986
 21
280.0094385296513
 31
0.0
  0
LINE
  5
6859
330
19
100
AcDbEntity
  8
OUTLINE
  6
Continuous
100
AcDbLine
 10
100.4927999999986
 20
277.2152098955913
 30
0.0
 11
100.4927999999986
 21
280.0094385296513
 31
0.0
  0
ARC
  5
685A
330
19
100
AcDbEntity
  8
OUTLINE
  6
Continuous
100
AcDbCircle
 10
104.9927999999987
 20
285.0094385296512
 30
0.0
 40
8.999999999999923
100
AcDbArc
 50
239.9999999999998
 51
300.0000000000001
  0
LINE
  5
685B
330
19
100
AcDbEntity
  8
OUTLINE
100
AcDbLine
 10
112.1427999999987
 20
272.5594385296503
 30
0.0
 11
112.1427999999987
 21
276.0392084160316
 31
0.0
  0
LINE
  5
685C
330
19
100
AcDbEntity
  8
OUTLINE
100
AcDbLine
 10
111.7427999999997
 20
270.8594385296515
 30
0.0
 11
111.2927999999999
 21
271.3094385296514
 31
0.0
  0
LINE
  5
685D
330
19
100
AcDbEntity
  8
OUTLINE
100
AcDbLine
 10
112.1427999999987
 20
272.5594385296503
 30
0.0
 11
111.2927999999998
 21
271.7094385296515
 31
0.0
  0
LINE
  5
685E
330
19
100
AcDbEntity
  8
OUTLINE
100
AcDbLine
 10
111.2927999999999
 20
271.3094385296514
 30
0.0
 11
111.2928000000001
 21
271.7094385296515
 31
0.0
  0
ARC
  5
685F
330
19
100
AcDbEntity
  8
OUTLINE
  6
Continuous
100
AcDbCircle
 10
111.7427999999986
 20
278.7116027918788
 30
0.0
 40
2.702164262227505
100
AcDbArc
 50
213.6264291359714
 51
326.3735708640286
  0
ARC
  5
6860
330
19
100
AcDbEntity
  8
OUTLINE
  6
Continuous
100
AcDbCircle
 10
104.9927999999987
 20
277.0094385296513
 30
0.0
 40
8.999999999999923
100
AcDbArc
 50
59.99999999999986
 51
120.0000000000001
  0
LINE
  5
6861
330
19
100
AcDbEntity
  8
OUTLINE
  6
Continuous
100
AcDbLine
 10
100.4927999999986
 20
282.0094385296513
 30
0.0
 11
100.4927999999986
 21
284.8036671637112
 31
0.0
  0
LINE
  5
6862
330
19
100
AcDbEntity
  8
OUTLINE
  6
Continuous
100
AcDbLine
 10
113.9927999999986
 20
284.8036671637112
 30
0.0
 11
113.9927999999986
 21
282.0094385296513
 31
0.0
  0
LINE
  5
6863
330
19
100
AcDbEntity
  8
OUTLINE
  6
Continuous
100
AcDbLine
 10
109.4927999999986
 20
282.0094385296513
 30
0.0
 11
109.4927999999986
 21
284.8036671637112
 31
0.0
  0
LINE
  5
6864
330
19
100
AcDbEntity
  8
OUTLINE
  6
Continuous
100
AcDbLine
 10
113.9927999999986
 20
280.0094385296513
 30
0.0
 11
112.9927999999986
 21
281.0094385296513
 31
0.0
  0
LINE
  5
6865
330
19
100
AcDbEntity
  8
OUTLINE
  6
Continuous
100
AcDbLine
 10
112.9927999999986
 20
281.0094385296513
 30
0.0
 11
113.9927999999986
 21
282.0094385296513
 31
0.0
  0
ARC
  5
6866
330
19
100
AcDbEntity
  8
OUTLINE
  6
Continuous
100
AcDbCircle
 10
111.7427999999986
 20
283.3072742674238
 30
0.0
 40
2.702164262227505
100
AcDbArc
 50
33.62642913597142
 51
146.3735708640285
  0
ARC
  5
6867
330
19
100
AcDbEntity
  8
OUTLINE
  6
Continuous
100
AcDbCircle
 10
104.9928000000001
 20
318.8796614568545
 30
0.0
 40
57.42893206270741
100
AcDbArc
 50
262.0116489535629
 51
277.9883510464371
  0
ARC
  5
6868
330
19
100
AcDbEntity
  8
OUTLINE
  6
Continuous
100
AcDbCircle
 10
71.24279999999862
 20
278.7116027918788
 30
0.0
 40
2.702164262227505
100
AcDbArc
 50
213.6264291359714
 51
326.3735708640286
  0
ARC
  5
6869
330
19
100
AcDbEntity
  8
OUTLINE
  6
Continuous
100
AcDbCircle
 10
71.24279999999862
 20
283.3072742674238
 30
0.0
 40
2.702164262227505
100
AcDbArc
 50
33.62642913597142
 51
146.3735708640285
  0
LINE
  5
686A
330
19
100
AcDbEntity
  8
OUTLINE
100
AcDbLine
 10
70.01180000000011
 20
270.8594385296517
 30
0.0
 11
85.9738000000002
 21
270.8594385296515
 31
0.0
  0
LINE
  5
686B
330
19
100
AcDbEntity
  8
OUTLINE
100
AcDbLine
 10
70.84279999999876
 20
272.5594385296528
 30
0.0
 11
85.14279999999871
 21
272.5594385296503
 31
0.0
  0
LINE
  5
686C
330
19
100
AcDbEntity
  8
OUTLINE
  6
Continuous
100
AcDbLine
 10
68.99280000000158
 20
280.0094385296513
 30
0.0
 11
86.99279999999863
 21
280.0094385296513
 31
0.0
  0
LINE
  5
686D
330
19
100
AcDbEntity
  8
OUTLINE
  6
Continuous
100
AcDbLine
 10
69.99280000000158
 20
281.0094385296513
 30
0.0
 11
85.99279999999863
 21
281.0094385296513
 31
0.0
  0
LINE
  5
686E
330
19
100
AcDbEntity
  8
OUTLINE
  6
Continuous
100
AcDbLine
 10
86.99279999999863
 20
282.0094385296513
 30
0.0
 11
68.99280000000158
 21
282.0094385296513
 31
0.0
  0
LINE
  5
686F
330
19
100
AcDbEntity
  8
OUTLINE
100
AcDbLine
 10
71.69280000000014
 20
271.3094385296514
 30
0.0
 11
84.29279999999994
 21
271.3094385296514
 31
0.0
  0
LINE
  5
6870
330
19
100
AcDbEntity
  8
OUTLINE
100
AcDbLine
 10
71.69280000000004
 20
271.7094385296515
 30
0.0
 11
84.29279999999982
 21
271.7094385296515
 31
0.0
  0
LINE
  5
6871
330
19
100
AcDbEntity
  8
OUTLINE
  6
Continuous
100
AcDbLine
 10
71.24279999999862
 20
276.0094385296513
 30
0.0
 11
84.74279999999863
 21
276.0094385296513
 31
0.0
  0
LINE
  5
6872
330
19
100
AcDbEntity
  8
OUTLINE
  6
Continuous
100
AcDbLine
 10
71.24279999999862
 20
286.0094385296513
 30
0.0
 11
84.74279999999863
 21
286.0094385296513
 31
0.0
  0
LINE
  5
6873
330
19
100
AcDbEntity
  8
OUTLINE
100
AcDbLine
 10
70.01180000000011
 20
270.8594385296517
 30
0.0
 11
70.01180000000011
 21
262.0080000000001
 31
0.0
  0
LINE
  5
6874
330
19
100
AcDbEntity
  8
OUTLINE
  6
Continuous
100
AcDbLine
 10
68.99279999999862
 20
277.2152098955913
 30
0.0
 11
68.99279999999862
 21
280.0094385296513
 31
0.0
  0
LINE
  5
6875
330
19
100
AcDbEntity
  8
OUTLINE
100
AcDbLine
 10
70.84279999999876
 20
272.5594385296528
 30
0.0
 11
70.84279999999864
 21
276.0392084160316
 31
0.0
  0
LINE
  5
6876
330
19
100
AcDbEntity
  8
OUTLINE
100
AcDbLine
 10
70.84279999999876
 20
272.5594385296528
 30
0.0
 11
71.69280000000004
 21
271.7094385296515
 31
0.0
  0
LINE
  5
6877
330
19
100
AcDbEntity
  8
OUTLINE
100
AcDbLine
 10
71.24280000000021
 20
270.8594385296517
 30
0.0
 11
71.69279999999981
 21
271.3094385296514
 31
0.0
  0
LINE
  5
6878
330
19
100
AcDbEntity
  8
OUTLINE
100
AcDbLine
 10
71.69280000000014
 20
271.3094385296514
 30
0.0
 11
71.69280000000004
 21
271.7094385296515
 31
0.0
  0
LINE
  5
6879
330
19
100
AcDbEntity
  8
OUTLINE
  6
Continuous
100
AcDbLine
 10
68.99279999999862
 20
282.0094385296513
 30
0.0
 11
68.99279999999862
 21
284.8036671637112
 31
0.0
  0
LINE
  5
687A
330
19
100
AcDbEntity
  8
OUTLINE
  6
Continuous
100
AcDbLine
 10
69.99280000000158
 20
281.0094385296513
 30
0.0
 11
68.99280000000158
 21
282.0094385296513
 31
0.0
  0
LINE
  5
687B
330
19
100
AcDbEntity
  8
OUTLINE
  6
Continuous
100
AcDbLine
 10
68.99280000000158
 20
280.0094385296513
 30
0.0
 11
69.99280000000158
 21
281.0094385296513
 31
0.0
  0
LINE
  5
687C
330
19
100
AcDbEntity
  8
OUTLINE
100
AcDbLine
 10
85.9738000000002
 20
270.8594385296515
 30
0.0
 11
85.9738000000002
 21
262.0080000000001
 31
0.0
  0
LINE
  5
687D
330
19
100
AcDbEntity
  8
OUTLINE
  6
Continuous
100
AcDbLine
 10
86.99279999999863
 20
280.0094385296513
 30
0.0
 11
86.99279999999863
 21
277.2152098955913
 31
0.0
  0
LINE
  5
687E
330
19
100
AcDbEntity
  8
OUTLINE
  6
Continuous
100
AcDbLine
 10
82.49279999999862
 20
277.2152098955913
 30
0.0
 11
82.49279999999862
 21
280.0094385296513
 31
0.0
  0
LINE
  5
687F
330
19
100
AcDbEntity
  8
OUTLINE
  6
Continuous
100
AcDbLine
 10
73.49279999999862
 20
277.2152098955913
 30
0.0
 11
73.49279999999862
 21
280.0094385296513
 31
0.0
  0
ARC
  5
6880
330
19
100
AcDbEntity
  8
OUTLINE
  6
Continuous
100
AcDbCircle
 10
77.99279999999874
 20
285.0094385296512
 30
0.0
 40
8.999999999999923
100
AcDbArc
 50
239.9999999999998
 51
300.0000000000001
  0
LINE
  5
6881
330
19
100
AcDbEntity
  8
OUTLINE
100
AcDbLine
 10
85.14279999999871
 20
272.5594385296503
 30
0.0
 11
85.14279999999871
 21
276.0392084160316
 31
0.0
  0
LINE
  5
6882
330
19
100
AcDbEntity
  8
OUTLINE
100
AcDbLine
 10
84.74279999999977
 20
270.8594385296515
 30
0.0
 11
84.29279999999994
 21
271.3094385296514
 31
0.0
  0
LINE
  5
6883
330
19
100
AcDbEntity
  8
OUTLINE
100
AcDbLine
 10
85.14279999999871
 20
272.5594385296503
 30
0.0
 11
84.29279999999982
 21
271.7094385296515
 31
0.0
  0
LINE
  5
6884
330
19
100
AcDbEntity
  8
OUTLINE
100
AcDbLine
 10
84.29279999999994
 20
271.3094385296514
 30
0.0
 11
84.29280000000018
 21
271.7094385296515
 31
0.0
  0
ARC
  5
6885
330
19
100
AcDbEntity
  8
OUTLINE
  6
Continuous
100
AcDbCircle
 10
84.74279999999863
 20
278.7116027918788
 30
0.0
 40
2.702164262227505
100
AcDbArc
 50
213.6264291359714
 51
326.3735708640286
  0
ARC
  5
6886
330
19
100
AcDbEntity
  8
OUTLINE
  6
Continuous
100
AcDbCircle
 10
77.99279999999874
 20
277.0094385296513
 30
0.0
 40
8.999999999999923
100
AcDbArc
 50
59.99999999999986
 51
120.0000000000001
  0
LINE
  5
6887
330
19
100
AcDbEntity
  8
OUTLINE
  6
Continuous
100
AcDbLine
 10
73.49279999999862
 20
282.0094385296513
 30
0.0
 11
73.49279999999862
 21
284.8036671637112
 31
0.0
  0
LINE
  5
6888
330
19
100
AcDbEntity
  8
OUTLINE
  6
Continuous
100
AcDbLine
 10
86.99279999999863
 20
284.8036671637112
 30
0.0
 11
86.99279999999863
 21
282.0094385296513
 31
0.0
  0
LINE
  5
6889
330
19
100
AcDbEntity
  8
OUTLINE
  6
Continuous
100
AcDbLine
 10
82.49279999999862
 20
282.0094385296513
 30
0.0
 11
82.49279999999862
 21
284.8036671637112
 31
0.0
  0
LINE
  5
688A
330
19
100
AcDbEntity
  8
OUTLINE
  6
Continuous
100
AcDbLine
 10
86.99279999999863
 20
280.0094385296513
 30
0.0
 11
85.99279999999863
 21
281.0094385296513
 31
0.0
  0
LINE
  5
688B
330
19
100
AcDbEntity
  8
OUTLINE
  6
Continuous
100
AcDbLine
 10
85.99279999999863
 20
281.0094385296513
 30
0.0
 11
86.99279999999863
 21
282.0094385296513
 31
0.0
  0
ARC
  5
688C
330
19
100
AcDbEntity
  8
OUTLINE
  6
Continuous
100
AcDbCircle
 10
84.74279999999863
 20
283.3072742674238
 30
0.0
 40
2.702164262227505
100
AcDbArc
 50
33.62642913597142
 51
146.3735708640285
  0
ARC
  5
688D
330
19
100
AcDbEntity
  8
OUTLINE
  6
Continuous
100
AcDbCircle
 10
77.9928000000001
 20
318.8796614568545
 30
0.0
 40
57.42893206270741
100
AcDbArc
 50
262.0116489535629
 51
277.9883510464371
  0
LWPOLYLINE
  5
6894
330
19
100
AcDbEntity
  8
OUTLINE
100
AcDbPolyline
 90
        2
 70
     0
 43
0.0
 10
212.9928
 20
262.0080000000001
 10
226.0117999999999
 20
262.0080000000001
  0
LWPOLYLINE
  5
6895
330
19
100
AcDbEntity
  8
OUTLINE
100
AcDbPolyline
 90
        2
 70
     0
 43
0.0
 10
241.9738
 20
262.008
 10
253.0118
 20
262.0080000000001
  0
ARC
  5
6896
330
19
100
AcDbEntity
  8
OUTLINE
  6
Continuous
100
AcDbCircle
 10
240.7428000000015
 20
278.7116027918786
 30
0.0
 40
2.702164262227505
100
AcDbArc
 50
213.6264291359711
 51
326.3735708640289
  0
ARC
  5
6897
330
19
100
AcDbEntity
  8
OUTLINE
  6
Continuous
100
AcDbCircle
 10
240.7428000000015
 20
283.3072742674237
 30
0.0
 40
2.702164262227505
100
AcDbArc
 50
33.62642913597105
 51
146.3735708640289
  0
LINE
  5
6898
330
19
100
AcDbEntity
  8
OUTLINE
100
AcDbLine
 10
241.9738
 20
270.8594385296516
 30
0.0
 11
226.0117999999999
 21
270.8594385296514
 31
0.0
  0
LINE
  5
6899
330
19
100
AcDbEntity
  8
OUTLINE
100
AcDbLine
 10
241.1428000000013
 20
272.5594385296527
 30
0.0
 11
226.8428000000014
 21
272.5594385296502
 31
0.0
  0
LINE
  5
689A
330
19
100
AcDbEntity
  8
OUTLINE
  6
Continuous
100
AcDbLine
 10
242.9927999999985
 20
280.0094385296512
 30
0.0
 11
224.9928000000015
 21
280.0094385296512
 31
0.0
  0
LINE
  5
689B
330
19
100
AcDbEntity
  8
OUTLINE
  6
Continuous
100
AcDbLine
 10
241.9927999999985
 20
281.0094385296512
 30
0.0
 11
225.9928000000015
 21
281.0094385296512
 31
0.0
  0
LINE
  5
689C
330
19
100
AcDbEntity
  8
OUTLINE
  6
Continuous
100
AcDbLine
 10
224.9928000000015
 20
282.0094385296512
 30
0.0
 11
242.9927999999985
 21
282.0094385296512
 31
0.0
  0
LINE
  5
689D
330
19
100
AcDbEntity
  8
OUTLINE
100
AcDbLine
 10
240.2927999999999
 20
271.3094385296512
 30
0.0
 11
227.6928000000002
 21
271.3094385296512
 31
0.0
  0
LINE
  5
689E
330
19
100
AcDbEntity
  8
OUTLINE
100
AcDbLine
 10
240.2928000000001
 20
271.7094385296513
 30
0.0
 11
227.6928000000002
 21
271.7094385296513
 31
0.0
  0
LINE
  5
689F
330
19
100
AcDbEntity
  8
OUTLINE
  6
Continuous
100
AcDbLine
 10
240.7428000000015
 20
276.0094385296512
 30
0.0
 11
227.2428000000015
 21
276.0094385296512
 31
0.0
  0
LINE
  5
68A0
330
19
100
AcDbEntity
  8
OUTLINE
  6
Continuous
100
AcDbLine
 10
240.7428000000015
 20
286.0094385296512
 30
0.0
 11
227.2428000000015
 21
286.0094385296512
 31
0.0
  0
LINE
  5
68A1
330
19
100
AcDbEntity
  8
OUTLINE
100
AcDbLine
 10
241.9738
 20
270.8594385296516
 30
0.0
 11
241.9738
 21
262.008
 31
0.0
  0
LINE
  5
68A2
330
19
100
AcDbEntity
  8
OUTLINE
  6
Continuous
100
AcDbLine
 10
242.9928000000014
 20
277.2152098955912
 30
0.0
 11
242.9928000000014
 21
280.0094385296512
 31
0.0
  0
LINE
  5
68A3
330
19
100
AcDbEntity
  8
OUTLINE
100
AcDbLine
 10
241.1428000000013
 20
272.5594385296527
 30
0.0
 11
241.1428000000015
 21
276.0392084160315
 31
0.0
  0
LINE
  5
68A4
330
19
100
AcDbEntity
  8
OUTLINE
100
AcDbLine
 10
241.1428000000013
 20
272.5594385296527
 30
0.0
 11
240.2928000000001
 21
271.7094385296513
 31
0.0
  0
LINE
  5
68A5
330
19
100
AcDbEntity
  8
OUTLINE
100
AcDbLine
 10
240.7427999999999
 20
270.8594385296516
 30
0.0
 11
240.2928000000003
 21
271.3094385296512
 31
0.0
  0
LINE
  5
68A6
330
19
100
AcDbEntity
  8
OUTLINE
100
AcDbLine
 10
240.2927999999999
 20
271.3094385296512
 30
0.0
 11
240.2928000000001
 21
271.7094385296513
 31
0.0
  0
LINE
  5
68A7
330
19
100
AcDbEntity
  8
OUTLINE
  6
Continuous
100
AcDbLine
 10
242.9928000000014
 20
282.0094385296512
 30
0.0
 11
242.9928000000014
 21
284.8036671637111
 31
0.0
  0
LINE
  5
68A8
330
19
100
AcDbEntity
  8
OUTLINE
  6
Continuous
100
AcDbLine
 10
241.9927999999985
 20
281.0094385296512
 30
0.0
 11
242.9927999999985
 21
282.0094385296512
 31
0.0
  0
LINE
  5
68A9
330
19
100
AcDbEntity
  8
OUTLINE
  6
Continuous
100
AcDbLine
 10
242.9927999999985
 20
280.0094385296512
 30
0.0
 11
241.9927999999985
 21
281.0094385296512
 31
0.0
  0
LINE
  5
68AA
330
19
100
AcDbEntity
  8
OUTLINE
100
AcDbLine
 10
226.0117999999999
 20
270.8594385296514
 30
0.0
 11
226.0118
 21
262.008
 31
0.0
  0
LINE
  5
68AB
330
19
100
AcDbEntity
  8
OUTLINE
  6
Continuous
100
AcDbLine
 10
224.9928000000015
 20
280.0094385296512
 30
0.0
 11
224.9928000000015
 21
277.2152098955912
 31
0.0
  0
LINE
  5
68AC
330
19
100
AcDbEntity
  8
OUTLINE
  6
Continuous
100
AcDbLine
 10
229.4928000000015
 20
277.2152098955912
 30
0.0
 11
229.4928000000015
 21
280.0094385296512
 31
0.0
  0
LINE
  5
68AD
330
19
100
AcDbEntity
  8
OUTLINE
  6
Continuous
100
AcDbLine
 10
238.4928000000015
 20
277.2152098955912
 30
0.0
 11
238.4928000000015
 21
280.0094385296512
 31
0.0
  0
ARC
  5
68AE
330
19
100
AcDbEntity
  8
OUTLINE
  6
Continuous
100
AcDbCircle
 10
233.9928000000014
 20
285.0094385296511
 30
0.0
 40
8.999999999999923
100
AcDbArc
 50
239.9999999999999
 51
300.0
  0
LINE
  5
68AF
330
19
100
AcDbEntity
  8
OUTLINE
100
AcDbLine
 10
226.8428000000014
 20
272.5594385296502
 30
0.0
 11
226.8428000000014
 21
276.0392084160315
 31
0.0
  0
LINE
  5
68B0
330
19
100
AcDbEntity
  8
OUTLINE
100
AcDbLine
 10
227.2428000000003
 20
270.8594385296514
 30
0.0
 11
227.6928000000002
 21
271.3094385296512
 31
0.0
  0
LINE
  5
68B1
330
19
100
AcDbEntity
  8
OUTLINE
100
AcDbLine
 10
226.8428000000014
 20
272.5594385296502
 30
0.0
 11
227.6928000000002
 21
271.7094385296513
 31
0.0
  0
LINE
  5
68B2
330
19
100
AcDbEntity
  8
OUTLINE
100
AcDbLine
 10
227.6928000000002
 20
271.3094385296512
 30
0.0
 11
227.6927999999999
 21
271.7094385296513
 31
0.0
  0
ARC
  5
68B3
330
19
100
AcDbEntity
  8
OUTLINE
  6
Continuous
100
AcDbCircle
 10
227.2428000000015
 20
278.7116027918786
 30
0.0
 40
2.702164262227505
100
AcDbArc
 50
213.6264291359711
 51
326.3735708640289
  0
ARC
  5
68B4
330
19
100
AcDbEntity
  8
OUTLINE
  6
Continuous
100
AcDbCircle
 10
233.9928000000014
 20
277.0094385296512
 30
0.0
 40
8.999999999999923
100
AcDbArc
 50
59.99999999999997
 51
120.0
  0
LINE
  5
68B5
330
19
100
AcDbEntity
  8
OUTLINE
  6
Continuous
100
AcDbLine
 10
238.4928000000015
 20
282.0094385296512
 30
0.0
 11
238.4928000000015
 21
284.803667163711
 31
0.0
  0
LINE
  5
68B6
330
19
100
AcDbEntity
  8
OUTLINE
  6
Continuous
100
AcDbLine
 10
224.9928000000015
 20
284.8036671637111
 30
0.0
 11
224.9928000000015
 21
282.0094385296512
 31
0.0
  0
LINE
  5
68B7
330
19
100
AcDbEntity
  8
OUTLINE
  6
Continuous
100
AcDbLine
 10
229.4928000000015
 20
282.0094385296512
 30
0.0
 11
229.4928000000015
 21
284.8036671637111
 31
0.0
  0
LINE
  5
68B8
330
19
100
AcDbEntity
  8
OUTLINE
  6
Continuous
100
AcDbLine
 10
224.9928000000015
 20
280.0094385296512
 30
0.0
 11
225.9928000000015
 21
281.0094385296512
 31
0.0
  0
LINE
  5
68B9
330
19
100
AcDbEntity
  8
OUTLINE
  6
Continuous
100
AcDbLine
 10
225.9928000000015
 20
281.0094385296512
 30
0.0
 11
224.9928000000015
 21
282.0094385296512
 31
0.0
  0
ARC
  5
68BA
330
19
100
AcDbEntity
  8
OUTLINE
  6
Continuous
100
AcDbCircle
 10
227.2428000000015
 20
283.3072742674237
 30
0.0
 40
2.702164262227505
100
AcDbArc
 50
33.62642913597105
 51
146.3735708640289
  0
ARC
  5
68BB
330
19
100
AcDbEntity
  8
OUTLINE
  6
Continuous
100
AcDbCircle
 10
233.9928
 20
318.8796614568544
 30
0.0
 40
57.42893206270741
100
AcDbArc
 50
262.0116489535629
 51
277.9883510464371
  0
LINE
  5
68BC
330
19
100
AcDbEntity
  8
OUTLINE
100
AcDbLine
 10
241.9738
 20
262.0080000000001
 30
0.0
 11
253.0118
 21
262.0080000000001
 31
0.0
  0
LINE
  5
68BD
330
19
100
AcDbEntity
  8
OUTLINE
100
AcDbLine
 10
268.9738
 20
262.1705000000001
 30
0.0
 11
280.0117999999998
 21
262.1705000000001
 31
0.0
  0
LINE
  5
68BE
330
19
100
AcDbEntity
  8
OUTLINE
100
AcDbLine
 10
295.9737999999999
 20
262.1705000000001
 30
0.0
 11
307.0117999999998
 21
262.1705000000001
 31
0.0
  0
LINE
  5
68BF
330
19
100
AcDbEntity
  8
OUTLINE
100
AcDbLine
 10
322.9737999999999
 20
262.1705000000001
 30
0.0
 11
334.0117999999998
 21
262.1705000000001
 31
0.0
  0
LINE
  5
68C0
330
19
100
AcDbEntity
  8
OUTLINE
100
AcDbLine
 10
349.9738
 20
262.008
 30
0.0
 11
365.9928
 21
262.0080000000001
 31
0.0
  0
ARC
  5
68C1
330
19
100
AcDbEntity
  8
OUTLINE
  6
Continuous
100
AcDbCircle
 10
267.7428000000014
 20
278.7116027918787
 30
0.0
 40
2.702164262227505
100
AcDbArc
 50
213.6264291359711
 51
326.3735708640289
  0
ARC
  5
68C2
330
19
100
AcDbEntity
  8
OUTLINE
  6
Continuous
100
AcDbCircle
 10
267.7428000000014
 20
283.3072742674237
 30
0.0
 40
2.702164262227505
100
AcDbArc
 50
33.62642913597105
 51
146.3735708640289
  0
LINE
  5
68C3
330
19
100
AcDbEntity
  8
OUTLINE
100
AcDbLine
 10
268.9737999999999
 20
270.8594385296517
 30
0.0
 11
253.0117999999998
 21
270.8594385296515
 31
0.0
  0
LINE
  5
68C4
330
19
100
AcDbEntity
  8
OUTLINE
100
AcDbLine
 10
268.1428000000012
 20
272.5594385296527
 30
0.0
 11
253.8428000000013
 21
272.5594385296503
 31
0.0
  0
LINE
  5
68C5
330
19
100
AcDbEntity
  8
OUTLINE
  6
Continuous
100
AcDbLine
 10
269.9927999999984
 20
280.0094385296512
 30
0.0
 11
251.9928000000013
 21
280.0094385296512
 31
0.0
  0
LINE
  5
68C6
330
19
100
AcDbEntity
  8
OUTLINE
  6
Continuous
100
AcDbLine
 10
268.9927999999984
 20
281.0094385296512
 30
0.0
 11
252.9928000000014
 21
281.0094385296512
 31
0.0
  0
LINE
  5
68C7
330
19
100
AcDbEntity
  8
OUTLINE
  6
Continuous
100
AcDbLine
 10
251.9928000000013
 20
282.0094385296512
 30
0.0
 11
269.9927999999984
 21
282.0094385296512
 31
0.0
  0
LINE
  5
68C8
330
19
100
AcDbEntity
  8
OUTLINE
100
AcDbLine
 10
267.2927999999998
 20
271.3094385296513
 30
0.0
 11
254.6928
 21
271.3094385296513
 31
0.0
  0
LINE
  5
68C9
330
19
100
AcDbEntity
  8
OUTLINE
100
AcDbLine
 10
267.2927999999999
 20
271.7094385296514
 30
0.0
 11
254.6928000000002
 21
271.7094385296514
 31
0.0
  0
LINE
  5
68CA
330
19
100
AcDbEntity
  8
OUTLINE
  6
Continuous
100
AcDbLine
 10
267.7428000000014
 20
276.0094385296512
 30
0.0
 11
254.2428000000013
 21
276.0094385296512
 31
0.0
  0
LINE
  5
68CB
330
19
100
AcDbEntity
  8
OUTLINE
  6
Continuous
100
AcDbLine
 10
267.7428000000014
 20
286.0094385296512
 30
0.0
 11
254.2428000000013
 21
286.0094385296512
 31
0.0
  0
LINE
  5
68CC
330
19
100
AcDbEntity
  8
OUTLINE
100
AcDbLine
 10
268.9737999999999
 20
270.8594385296517
 30
0.0
 11
268.9737999999999
 21
262.0080000000001
 31
0.0
  0
LINE
  5
68CD
330
19
100
AcDbEntity
  8
OUTLINE
  6
Continuous
100
AcDbLine
 10
269.9928000000014
 20
277.2152098955913
 30
0.0
 11
269.9928000000014
 21
280.0094385296512
 31
0.0
  0
LINE
  5
68CE
330
19
100
AcDbEntity
  8
OUTLINE
100
AcDbLine
 10
268.1428000000012
 20
272.5594385296527
 30
0.0
 11
268.1428000000013
 21
276.0392084160316
 31
0.0
  0
LINE
  5
68CF
330
19
100
AcDbEntity
  8
OUTLINE
100
AcDbLine
 10
268.1428000000012
 20
272.5594385296527
 30
0.0
 11
267.2927999999999
 21
271.7094385296514
 31
0.0
  0
LINE
  5
68D0
330
19
100
AcDbEntity
  8
OUTLINE
100
AcDbLine
 10
267.7427999999998
 20
270.8594385296517
 30
0.0
 11
267.2928000000002
 21
271.3094385296513
 31
0.0
  0
LINE
  5
68D1
330
19
100
AcDbEntity
  8
OUTLINE
100
AcDbLine
 10
267.2927999999998
 20
271.3094385296513
 30
0.0
 11
267.2927999999999
 21
271.7094385296514
 31
0.0
  0
LINE
  5
68D2
330
19
100
AcDbEntity
  8
OUTLINE
  6
Continuous
100
AcDbLine
 10
269.9928000000014
 20
282.0094385296512
 30
0.0
 11
269.9928000000014
 21
284.8036671637112
 31
0.0
  0
LINE
  5
68D3
330
19
100
AcDbEntity
  8
OUTLINE
  6
Continuous
100
AcDbLine
 10
268.9927999999984
 20
281.0094385296512
 30
0.0
 11
269.9927999999984
 21
282.0094385296512
 31
0.0
  0
LINE
  5
68D4
330
19
100
AcDbEntity
  8
OUTLINE
  6
Continuous
100
AcDbLine
 10
269.9927999999984
 20
280.0094385296512
 30
0.0
 11
268.9927999999984
 21
281.0094385296512
 31
0.0
  0
LINE
  5
68D5
330
19
100
AcDbEntity
  8
OUTLINE
100
AcDbLine
 10
253.0117999999998
 20
270.8594385296515
 30
0.0
 11
253.0117999999999
 21
262.0080000000001
 31
0.0
  0
LINE
  5
68D6
330
19
100
AcDbEntity
  8
OUTLINE
  6
Continuous
100
AcDbLine
 10
251.9928000000013
 20
280.0094385296512
 30
0.0
 11
251.9928000000013
 21
277.2152098955913
 31
0.0
  0
LINE
  5
68D7
330
19
100
AcDbEntity
  8
OUTLINE
  6
Continuous
100
AcDbLine
 10
256.4928000000013
 20
277.2152098955913
 30
0.0
 11
256.4928000000013
 21
280.0094385296512
 31
0.0
  0
LINE
  5
68D8
330
19
100
AcDbEntity
  8
OUTLINE
  6
Continuous
100
AcDbLine
 10
265.4928000000014
 20
277.2152098955913
 30
0.0
 11
265.4928000000014
 21
280.0094385296512
 31
0.0
  0
ARC
  5
68D9
330
19
100
AcDbEntity
  8
OUTLINE
  6
Continuous
100
AcDbCircle
 10
260.9928000000014
 20
285.0094385296511
 30
0.0
 40
8.999999999999923
100
AcDbArc
 50
239.9999999999999
 51
300.0
  0
LINE
  5
68DA
330
19
100
AcDbEntity
  8
OUTLINE
100
AcDbLine
 10
253.8428000000013
 20
272.5594385296503
 30
0.0
 11
253.8428000000013
 21
276.0392084160316
 31
0.0
  0
LINE
  5
68DB
330
19
100
AcDbEntity
  8
OUTLINE
100
AcDbLine
 10
254.2428000000002
 20
270.8594385296515
 30
0.0
 11
254.6928
 21
271.3094385296513
 31
0.0
  0
LINE
  5
68DC
330
19
100
AcDbEntity
  8
OUTLINE
100
AcDbLine
 10
253.8428000000013
 20
272.5594385296503
 30
0.0
 11
254.6928000000002
 21
271.7094385296514
 31
0.0
  0
LINE
  5
68DD
330
19
100
AcDbEntity
  8
OUTLINE
100
AcDbLine
 10
254.6928
 20
271.3094385296513
 30
0.0
 11
254.6927999999998
 21
271.7094385296514
 31
0.0
  0
ARC
  5
68DE
330
19
100
AcDbEntity
  8
OUTLINE
  6
Continuous
100
AcDbCircle
 10
254.2428000000013
 20
278.7116027918787
 30
0.0
 40
2.702164262227505
100
AcDbArc
 50
213.6264291359711
 51
326.3735708640289
  0
ARC
  5
68DF
330
19
100
AcDbEntity
  8
OUTLINE
  6
Continuous
100
AcDbCircle
 10
260.9928000000014
 20
277.0094385296513
 30
0.0
 40
8.999999999999923
100
AcDbArc
 50
59.99999999999997
 51
120.0
  0
LINE
  5
68E0
330
19
100
AcDbEntity
  8
OUTLINE
  6
Continuous
100
AcDbLine
 10
265.4928000000014
 20
282.0094385296512
 30
0.0
 11
265.4928000000014
 21
284.8036671637111
 31
0.0
  0
LINE
  5
68E1
330
19
100
AcDbEntity
  8
OUTLINE
  6
Continuous
100
AcDbLine
 10
251.9928000000013
 20
284.8036671637112
 30
0.0
 11
251.9928000000013
 21
282.0094385296512
 31
0.0
  0
LINE
  5
68E2
330
19
100
AcDbEntity
  8
OUTLINE
  6
Continuous
100
AcDbLine
 10
256.4928000000013
 20
282.0094385296512
 30
0.0
 11
256.4928000000013
 21
284.8036671637112
 31
0.0
  0
LINE
  5
68E3
330
19
100
AcDbEntity
  8
OUTLINE
  6
Continuous
100
AcDbLine
 10
251.9928000000013
 20
280.0094385296512
 30
0.0
 11
252.9928000000014
 21
281.0094385296512
 31
0.0
  0
LINE
  5
68E4
330
19
100
AcDbEntity
  8
OUTLINE
  6
Continuous
100
AcDbLine
 10
252.9928000000014
 20
281.0094385296512
 30
0.0
 11
251.9928000000013
 21
282.0094385296512
 31
0.0
  0
ARC
  5
68E5
330
19
100
AcDbEntity
  8
OUTLINE
  6
Continuous
100
AcDbCircle
 10
254.2428000000013
 20
283.3072742674237
 30
0.0
 40
2.702164262227505
100
AcDbArc
 50
33.62642913597105
 51
146.3735708640289
  0
ARC
  5
68E6
330
19
100
AcDbEntity
  8
OUTLINE
  6
Continuous
100
AcDbCircle
 10
260.9928
 20
318.8796614568545
 30
0.0
 40
57.42893206270741
100
AcDbArc
 50
262.0116489535629
 51
277.9883510464371
  0
ARC
  5
68E7
330
19
100
AcDbEntity
  8
OUTLINE
  6
Continuous
100
AcDbCircle
 10
294.7428000000014
 20
278.7116027918787
 30
0.0
 40
2.702164262227505
100
AcDbArc
 50
213.6264291359711
 51
326.3735708640289
  0
ARC
  5
68E8
330
19
100
AcDbEntity
  8
OUTLINE
  6
Continuous
100
AcDbCircle
 10
294.7428000000014
 20
283.3072742674237
 30
0.0
 40
2.702164262227505
100
AcDbArc
 50
33.62642913597105
 51
146.3735708640289
  0
LINE
  5
68E9
330
19
100
AcDbEntity
  8
OUTLINE
100
AcDbLine
 10
295.9737999999999
 20
270.8594385296517
 30
0.0
 11
280.0117999999998
 21
270.8594385296515
 31
0.0
  0
LINE
  5
68EA
330
19
100
AcDbEntity
  8
OUTLINE
100
AcDbLine
 10
295.1428000000012
 20
272.5594385296527
 30
0.0
 11
280.8428000000013
 21
272.5594385296503
 31
0.0
  0
LINE
  5
68EB
330
19
100
AcDbEntity
  8
OUTLINE
  6
Continuous
100
AcDbLine
 10
296.9927999999984
 20
280.0094385296512
 30
0.0
 11
278.9928000000013
 21
280.0094385296512
 31
0.0
  0
LINE
  5
68EC
330
19
100
AcDbEntity
  8
OUTLINE
  6
Continuous
100
AcDbLine
 10
295.9927999999984
 20
281.0094385296512
 30
0.0
 11
279.9928000000014
 21
281.0094385296512
 31
0.0
  0
LINE
  5
68ED
330
19
100
AcDbEntity
  8
OUTLINE
  6
Continuous
100
AcDbLine
 10
278.9928000000013
 20
282.0094385296512
 30
0.0
 11
296.9927999999984
 21
282.0094385296512
 31
0.0
  0
LINE
  5
68EE
330
19
100
AcDbEntity
  8
OUTLINE
100
AcDbLine
 10
294.2927999999998
 20
271.3094385296513
 30
0.0
 11
281.6928
 21
271.3094385296513
 31
0.0
  0
LINE
  5
68EF
330
19
100
AcDbEntity
  8
OUTLINE
100
AcDbLine
 10
294.2927999999999
 20
271.7094385296514
 30
0.0
 11
281.6928000000002
 21
271.7094385296514
 31
0.0
  0
LINE
  5
68F0
330
19
100
AcDbEntity
  8
OUTLINE
  6
Continuous
100
AcDbLine
 10
294.7428000000014
 20
276.0094385296512
 30
0.0
 11
281.2428000000013
 21
276.0094385296512
 31
0.0
  0
LINE
  5
68F1
330
19
100
AcDbEntity
  8
OUTLINE
  6
Continuous
100
AcDbLine
 10
294.7428000000014
 20
286.0094385296512
 30
0.0
 11
281.2428000000013
 21
286.0094385296512
 31
0.0
  0
LINE
  5
68F2
330
19
100
AcDbEntity
  8
OUTLINE
100
AcDbLine
 10
295.9737999999999
 20
270.8594385296517
 30
0.0
 11
295.9737999999999
 21
262.0080000000001
 31
0.0
  0
LINE
  5
68F3
330
19
100
AcDbEntity
  8
OUTLINE
  6
Continuous
100
AcDbLine
 10
296.9928000000014
 20
277.2152098955913
 30
0.0
 11
296.9928000000014
 21
280.0094385296512
 31
0.0
  0
LINE
  5
68F4
330
19
100
AcDbEntity
  8
OUTLINE
100
AcDbLine
 10
295.1428000000012
 20
272.5594385296527
 30
0.0
 11
295.1428000000013
 21
276.0392084160316
 31
0.0
  0
LINE
  5
68F5
330
19
100
AcDbEntity
  8
OUTLINE
100
AcDbLine
 10
295.1428000000012
 20
272.5594385296527
 30
0.0
 11
294.2927999999999
 21
271.7094385296514
 31
0.0
  0
LINE
  5
68F6
330
19
100
AcDbEntity
  8
OUTLINE
100
AcDbLine
 10
294.7427999999998
 20
270.8594385296517
 30
0.0
 11
294.2928000000001
 21
271.3094385296513
 31
0.0
  0
LINE
  5
68F7
330
19
100
AcDbEntity
  8
OUTLINE
100
AcDbLine
 10
294.2927999999998
 20
271.3094385296513
 30
0.0
 11
294.2927999999999
 21
271.7094385296514
 31
0.0
  0
LINE
  5
68F8
330
19
100
AcDbEntity
  8
OUTLINE
  6
Continuous
100
AcDbLine
 10
296.9928000000014
 20
282.0094385296512
 30
0.0
 11
296.9928000000014
 21
284.8036671637112
 31
0.0
  0
LINE
  5
68F9
330
19
100
AcDbEntity
  8
OUTLINE
  6
Continuous
100
AcDbLine
 10
295.9927999999984
 20
281.0094385296512
 30
0.0
 11
296.9927999999984
 21
282.0094385296512
 31
0.0
  0
LINE
  5
68FA
330
19
100
AcDbEntity
  8
OUTLINE
  6
Continuous
100
AcDbLine
 10
296.9927999999984
 20
280.0094385296512
 30
0.0
 11
295.9927999999984
 21
281.0094385296512
 31
0.0
  0
LINE
  5
68FB
330
19
100
AcDbEntity
  8
OUTLINE
100
AcDbLine
 10
280.0117999999998
 20
270.8594385296515
 30
0.0
 11
280.0117999999998
 21
262.0080000000001
 31
0.0
  0
LINE
  5
68FC
330
19
100
AcDbEntity
  8
OUTLINE
  6
Continuous
100
AcDbLine
 10
278.9928000000013
 20
280.0094385296512
 30
0.0
 11
278.9928000000013
 21
277.2152098955913
 31
0.0
  0
LINE
  5
68FD
330
19
100
AcDbEntity
  8
OUTLINE
  6
Continuous
100
AcDbLine
 10
283.4928000000013
 20
277.2152098955913
 30
0.0
 11
283.4928000000013
 21
280.0094385296512
 31
0.0
  0
LINE
  5
68FE
330
19
100
AcDbEntity
  8
OUTLINE
  6
Continuous
100
AcDbLine
 10
292.4928000000014
 20
277.2152098955913
 30
0.0
 11
292.4928000000014
 21
280.0094385296512
 31
0.0
  0
ARC
  5
68FF
330
19
100
AcDbEntity
  8
OUTLINE
  6
Continuous
100
AcDbCircle
 10
287.9928000000012
 20
285.0094385296511
 30
0.0
 40
8.999999999999923
100
AcDbArc
 50
239.9999999999999
 51
300.0
  0
LINE
  5
6900
330
19
100
AcDbEntity
  8
OUTLINE
100
AcDbLine
 10
280.8428000000013
 20
272.5594385296503
 30
0.0
 11
280.8428000000013
 21
276.0392084160316
 31
0.0
  0
LINE
  5
6901
330
19
100
AcDbEntity
  8
OUTLINE
100
AcDbLine
 10
281.2428000000002
 20
270.8594385296515
 30
0.0
 11
281.6928
 21
271.3094385296513
 31
0.0
  0
LINE
  5
6902
330
19
100
AcDbEntity
  8
OUTLINE
100
AcDbLine
 10
280.8428000000013
 20
272.5594385296503
 30
0.0
 11
281.6928000000002
 21
271.7094385296514
 31
0.0
  0
LINE
  5
6903
330
19
100
AcDbEntity
  8
OUTLINE
100
AcDbLine
 10
281.6928
 20
271.3094385296513
 30
0.0
 11
281.6927999999998
 21
271.7094385296514
 31
0.0
  0
ARC
  5
6904
330
19
100
AcDbEntity
  8
OUTLINE
  6
Continuous
100
AcDbCircle
 10
281.2428000000013
 20
278.7116027918787
 30
0.0
 40
2.702164262227505
100
AcDbArc
 50
213.6264291359711
 51
326.3735708640289
  0
ARC
  5
6905
330
19
100
AcDbEntity
  8
OUTLINE
  6
Continuous
100
AcDbCircle
 10
287.9928000000012
 20
277.0094385296513
 30
0.0
 40
8.999999999999923
100
AcDbArc
 50
59.99999999999997
 51
120.0
  0
LINE
  5
6906
330
19
100
AcDbEntity
  8
OUTLINE
  6
Continuous
100
AcDbLine
 10
292.4928000000014
 20
282.0094385296512
 30
0.0
 11
292.4928000000014
 21
284.8036671637111
 31
0.0
  0
LINE
  5
6907
330
19
100
AcDbEntity
  8
OUTLINE
  6
Continuous
100
AcDbLine
 10
278.9928000000013
 20
284.8036671637112
 30
0.0
 11
278.9928000000013
 21
282.0094385296512
 31
0.0
  0
LINE
  5
6908
330
19
100
AcDbEntity
  8
OUTLINE
  6
Continuous
100
AcDbLine
 10
283.4928000000013
 20
282.0094385296512
 30
0.0
 11
283.4928000000013
 21
284.8036671637112
 31
0.0
  0
LINE
  5
6909
330
19
100
AcDbEntity
  8
OUTLINE
  6
Continuous
100
AcDbLine
 10
278.9928000000013
 20
280.0094385296512
 30
0.0
 11
279.9928000000014
 21
281.0094385296512
 31
0.0
  0
LINE
  5
690A
330
19
100
AcDbEntity
  8
OUTLINE
  6
Continuous
100
AcDbLine
 10
279.9928000000014
 20
281.0094385296512
 30
0.0
 11
278.9928000000013
 21
282.0094385296512
 31
0.0
  0
ARC
  5
690B
330
19
100
AcDbEntity
  8
OUTLINE
  6
Continuous
100
AcDbCircle
 10
281.2428000000013
 20
283.3072742674237
 30
0.0
 40
2.702164262227505
100
AcDbArc
 50
33.62642913597105
 51
146.3735708640289
  0
ARC
  5
690C
330
19
100
AcDbEntity
  8
OUTLINE
  6
Continuous
100
AcDbCircle
 10
287.9927999999999
 20
318.8796614568545
 30
0.0
 40
57.42893206270741
100
AcDbArc
 50
262.0116489535629
 51
277.9883510464371
  0
ARC
  5
690D
330
19
100
AcDbEntity
  8
OUTLINE
  6
Continuous
100
AcDbCircle
 10
321.7428000000014
 20
278.7116027918788
 30
0.0
 40
2.702164262227505
100
AcDbArc
 50
213.6264291359711
 51
326.3735708640289
  0
ARC
  5
690E
330
19
100
AcDbEntity
  8
OUTLINE
  6
Continuous
100
AcDbCircle
 10
321.7428000000014
 20
283.3072742674238
 30
0.0
 40
2.702164262227505
100
AcDbArc
 50
33.62642913597105
 51
146.3735708640289
  0
LINE
  5
690F
330
19
100
AcDbEntity
  8
OUTLINE
100
AcDbLine
 10
322.9737999999999
 20
270.8594385296517
 30
0.0
 11
307.0117999999998
 21
270.8594385296515
 31
0.0
  0
LINE
  5
6910
330
19
100
AcDbEntity
  8
OUTLINE
100
AcDbLine
 10
322.1428000000012
 20
272.5594385296528
 30
0.0
 11
307.8428000000013
 21
272.5594385296503
 31
0.0
  0
LINE
  5
6911
330
19
100
AcDbEntity
  8
OUTLINE
  6
Continuous
100
AcDbLine
 10
323.9927999999984
 20
280.0094385296513
 30
0.0
 11
305.9928000000013
 21
280.0094385296513
 31
0.0
  0
LINE
  5
6912
330
19
100
AcDbEntity
  8
OUTLINE
  6
Continuous
100
AcDbLine
 10
322.9927999999984
 20
281.0094385296513
 30
0.0
 11
306.9928000000014
 21
281.0094385296513
 31
0.0
  0
LINE
  5
6913
330
19
100
AcDbEntity
  8
OUTLINE
  6
Continuous
100
AcDbLine
 10
305.9928000000013
 20
282.0094385296513
 30
0.0
 11
323.9927999999984
 21
282.0094385296513
 31
0.0
  0
LINE
  5
6914
330
19
100
AcDbEntity
  8
OUTLINE
100
AcDbLine
 10
321.2927999999998
 20
271.3094385296514
 30
0.0
 11
308.6928
 21
271.3094385296514
 31
0.0
  0
LINE
  5
6915
330
19
100
AcDbEntity
  8
OUTLINE
100
AcDbLine
 10
321.2927999999999
 20
271.7094385296515
 30
0.0
 11
308.6928000000002
 21
271.7094385296515
 31
0.0
  0
LINE
  5
6916
330
19
100
AcDbEntity
  8
OUTLINE
  6
Continuous
100
AcDbLine
 10
321.7428000000014
 20
276.0094385296513
 30
0.0
 11
308.2428000000013
 21
276.0094385296513
 31
0.0
  0
LINE
  5
6917
330
19
100
AcDbEntity
  8
OUTLINE
  6
Continuous
100
AcDbLine
 10
321.7428000000014
 20
286.0094385296513
 30
0.0
 11
308.2428000000013
 21
286.0094385296513
 31
0.0
  0
LINE
  5
6918
330
19
100
AcDbEntity
  8
OUTLINE
100
AcDbLine
 10
322.9737999999999
 20
270.8594385296517
 30
0.0
 11
322.9737999999999
 21
262.0080000000001
 31
0.0
  0
LINE
  5
6919
330
19
100
AcDbEntity
  8
OUTLINE
  6
Continuous
100
AcDbLine
 10
323.9928000000014
 20
277.2152098955913
 30
0.0
 11
323.9928000000014
 21
280.0094385296513
 31
0.0
  0
LINE
  5
691A
330
19
100
AcDbEntity
  8
OUTLINE
100
AcDbLine
 10
322.1428000000012
 20
272.5594385296528
 30
0.0
 11
322.1428000000013
 21
276.0392084160316
 31
0.0
  0
LINE
  5
691B
330
19
100
AcDbEntity
  8
OUTLINE
100
AcDbLine
 10
322.1428000000012
 20
272.5594385296528
 30
0.0
 11
321.2927999999999
 21
271.7094385296515
 31
0.0
  0
LINE
  5
691C
330
19
100
AcDbEntity
  8
OUTLINE
100
AcDbLine
 10
321.7427999999998
 20
270.8594385296517
 30
0.0
 11
321.2928000000002
 21
271.3094385296514
 31
0.0
  0
LINE
  5
691D
330
19
100
AcDbEntity
  8
OUTLINE
100
AcDbLine
 10
321.2927999999998
 20
271.3094385296514
 30
0.0
 11
321.2927999999999
 21
271.7094385296515
 31
0.0
  0
LINE
  5
691E
330
19
100
AcDbEntity
  8
OUTLINE
  6
Continuous
100
AcDbLine
 10
323.9928000000014
 20
282.0094385296513
 30
0.0
 11
323.9928000000014
 21
284.8036671637112
 31
0.0
  0
LINE
  5
691F
330
19
100
AcDbEntity
  8
OUTLINE
  6
Continuous
100
AcDbLine
 10
322.9927999999984
 20
281.0094385296513
 30
0.0
 11
323.9927999999984
 21
282.0094385296513
 31
0.0
  0
LINE
  5
6920
330
19
100
AcDbEntity
  8
OUTLINE
  6
Continuous
100
AcDbLine
 10
323.9927999999984
 20
280.0094385296513
 30
0.0
 11
322.9927999999984
 21
281.0094385296513
 31
0.0
  0
LINE
  5
6921
330
19
100
AcDbEntity
  8
OUTLINE
100
AcDbLine
 10
307.0117999999998
 20
270.8594385296515
 30
0.0
 11
307.0117999999998
 21
262.0080000000001
 31
0.0
  0
LINE
  5
6922
330
19
100
AcDbEntity
  8
OUTLINE
  6
Continuous
100
AcDbLine
 10
305.9928000000013
 20
280.0094385296513
 30
0.0
 11
305.9928000000013
 21
277.2152098955913
 31
0.0
  0
LINE
  5
6923
330
19
100
AcDbEntity
  8
OUTLINE
  6
Continuous
100
AcDbLine
 10
310.4928000000013
 20
277.2152098955913
 30
0.0
 11
310.4928000000013
 21
280.0094385296513
 31
0.0
  0
LINE
  5
6924
330
19
100
AcDbEntity
  8
OUTLINE
  6
Continuous
100
AcDbLine
 10
319.4928000000014
 20
277.2152098955913
 30
0.0
 11
319.4928000000014
 21
280.0094385296513
 31
0.0
  0
ARC
  5
6925
330
19
100
AcDbEntity
  8
OUTLINE
  6
Continuous
100
AcDbCircle
 10
314.9928000000012
 20
285.0094385296512
 30
0.0
 40
8.999999999999923
100
AcDbArc
 50
239.9999999999999
 51
300.0
  0
LINE
  5
6926
330
19
100
AcDbEntity
  8
OUTLINE
100
AcDbLine
 10
307.8428000000013
 20
272.5594385296503
 30
0.0
 11
307.8428000000013
 21
276.0392084160316
 31
0.0
  0
LINE
  5
6927
330
19
100
AcDbEntity
  8
OUTLINE
100
AcDbLine
 10
308.2428000000002
 20
270.8594385296515
 30
0.0
 11
308.6928
 21
271.3094385296514
 31
0.0
  0
LINE
  5
6928
330
19
100
AcDbEntity
  8
OUTLINE
100
AcDbLine
 10
307.8428000000013
 20
272.5594385296503
 30
0.0
 11
308.6928000000002
 21
271.7094385296515
 31
0.0
  0
LINE
  5
6929
330
19
100
AcDbEntity
  8
OUTLINE
100
AcDbLine
 10
308.6928
 20
271.3094385296514
 30
0.0
 11
308.6927999999998
 21
271.7094385296515
 31
0.0
  0
ARC
  5
692A
330
19
100
AcDbEntity
  8
OUTLINE
  6
Continuous
100
AcDbCircle
 10
308.2428000000013
 20
278.7116027918788
 30
0.0
 40
2.702164262227505
100
AcDbArc
 50
213.6264291359711
 51
326.3735708640289
  0
ARC
  5
692B
330
19
100
AcDbEntity
  8
OUTLINE
  6
Continuous
100
AcDbCircle
 10
314.9928000000012
 20
277.0094385296513
 30
0.0
 40
8.999999999999923
100
AcDbArc
 50
59.99999999999997
 51
120.0
  0
LINE
  5
692C
330
19
100
AcDbEntity
  8
OUTLINE
  6
Continuous
100
AcDbLine
 10
319.4928000000014
 20
282.0094385296513
 30
0.0
 11
319.4928000000014
 21
284.8036671637112
 31
0.0
  0
LINE
  5
692D
330
19
100
AcDbEntity
  8
OUTLINE
  6
Continuous
100
AcDbLine
 10
305.9928000000013
 20
284.8036671637112
 30
0.0
 11
305.9928000000013
 21
282.0094385296513
 31
0.0
  0
LINE
  5
692E
330
19
100
AcDbEntity
  8
OUTLINE
  6
Continuous
100
AcDbLine
 10
310.4928000000013
 20
282.0094385296513
 30
0.0
 11
310.4928000000013
 21
284.8036671637112
 31
0.0
  0
LINE
  5
692F
330
19
100
AcDbEntity
  8
OUTLINE
  6
Continuous
100
AcDbLine
 10
305.9928000000013
 20
280.0094385296513
 30
0.0
 11
306.9928000000014
 21
281.0094385296513
 31
0.0
  0
LINE
  5
6930
330
19
100
AcDbEntity
  8
OUTLINE
  6
Continuous
100
AcDbLine
 10
306.9928000000014
 20
281.0094385296513
 30
0.0
 11
305.9928000000013
 21
282.0094385296513
 31
0.0
  0
ARC
  5
6931
330
19
100
AcDbEntity
  8
OUTLINE
  6
Continuous
100
AcDbCircle
 10
308.2428000000013
 20
283.3072742674238
 30
0.0
 40
2.702164262227505
100
AcDbArc
 50
33.62642913597105
 51
146.3735708640289
  0
ARC
  5
6932
330
19
100
AcDbEntity
  8
OUTLINE
  6
Continuous
100
AcDbCircle
 10
314.9927999999999
 20
318.8796614568545
 30
0.0
 40
57.42893206270741
100
AcDbArc
 50
262.0116489535629
 51
277.9883510464371
  0
ARC
  5
6933
330
19
100
AcDbEntity
  8
OUTLINE
  6
Continuous
100
AcDbCircle
 10
348.7428000000014
 20
278.7116027918788
 30
0.0
 40
2.702164262227505
100
AcDbArc
 50
213.6264291359711
 51
326.3735708640289
  0
ARC
  5
6934
330
19
100
AcDbEntity
  8
OUTLINE
  6
Continuous
100
AcDbCircle
 10
348.7428000000014
 20
283.3072742674238
 30
0.0
 40
2.702164262227505
100
AcDbArc
 50
33.62642913597105
 51
146.3735708640289
  0
LINE
  5
6935
330
19
100
AcDbEntity
  8
OUTLINE
100
AcDbLine
 10
349.9737999999999
 20
270.8594385296517
 30
0.0
 11
334.0117999999998
 21
270.8594385296515
 31
0.0
  0
LINE
  5
6936
330
19
100
AcDbEntity
  8
OUTLINE
100
AcDbLine
 10
349.1428000000012
 20
272.5594385296528
 30
0.0
 11
334.8428000000013
 21
272.5594385296503
 31
0.0
  0
LINE
  5
6937
330
19
100
AcDbEntity
  8
OUTLINE
  6
Continuous
100
AcDbLine
 10
350.9927999999984
 20
280.0094385296513
 30
0.0
 11
332.9928000000013
 21
280.0094385296513
 31
0.0
  0
LINE
  5
6938
330
19
100
AcDbEntity
  8
OUTLINE
  6
Continuous
100
AcDbLine
 10
349.9927999999984
 20
281.0094385296513
 30
0.0
 11
333.9928000000014
 21
281.0094385296513
 31
0.0
  0
LINE
  5
6939
330
19
100
AcDbEntity
  8
OUTLINE
  6
Continuous
100
AcDbLine
 10
332.9928000000013
 20
282.0094385296513
 30
0.0
 11
350.9927999999984
 21
282.0094385296513
 31
0.0
  0
LINE
  5
693A
330
19
100
AcDbEntity
  8
OUTLINE
100
AcDbLine
 10
348.2927999999998
 20
271.3094385296514
 30
0.0
 11
335.6928
 21
271.3094385296514
 31
0.0
  0
LINE
  5
693B
330
19
100
AcDbEntity
  8
OUTLINE
100
AcDbLine
 10
348.2927999999999
 20
271.7094385296515
 30
0.0
 11
335.6928000000002
 21
271.7094385296515
 31
0.0
  0
LINE
  5
693C
330
19
100
AcDbEntity
  8
OUTLINE
  6
Continuous
100
AcDbLine
 10
348.7428000000014
 20
276.0094385296513
 30
0.0
 11
335.2428000000013
 21
276.0094385296513
 31
0.0
  0
LINE
  5
693D
330
19
100
AcDbEntity
  8
OUTLINE
  6
Continuous
100
AcDbLine
 10
348.7428000000014
 20
286.0094385296513
 30
0.0
 11
335.2428000000013
 21
286.0094385296513
 31
0.0
  0
LINE
  5
693E
330
19
100
AcDbEntity
  8
OUTLINE
100
AcDbLine
 10
349.9737999999999
 20
270.8594385296517
 30
0.0
 11
349.9737999999999
 21
262.0080000000001
 31
0.0
  0
LINE
  5
693F
330
19
100
AcDbEntity
  8
OUTLINE
  6
Continuous
100
AcDbLine
 10
350.9928000000014
 20
277.2152098955913
 30
0.0
 11
350.9928000000014
 21
280.0094385296513
 31
0.0
  0
LINE
  5
6940
330
19
100
AcDbEntity
  8
OUTLINE
100
AcDbLine
 10
349.1428000000012
 20
272.5594385296528
 30
0.0
 11
349.1428000000013
 21
276.0392084160316
 31
0.0
  0
LINE
  5
6941
330
19
100
AcDbEntity
  8
OUTLINE
100
AcDbLine
 10
349.1428000000012
 20
272.5594385296528
 30
0.0
 11
348.2927999999999
 21
271.7094385296515
 31
0.0
  0
LINE
  5
6942
330
19
100
AcDbEntity
  8
OUTLINE
100
AcDbLine
 10
348.7427999999998
 20
270.8594385296517
 30
0.0
 11
348.2928000000002
 21
271.3094385296514
 31
0.0
  0
LINE
  5
6943
330
19
100
AcDbEntity
  8
OUTLINE
100
AcDbLine
 10
348.2927999999998
 20
271.3094385296514
 30
0.0
 11
348.2927999999999
 21
271.7094385296515
 31
0.0
  0
LINE
  5
6944
330
19
100
AcDbEntity
  8
OUTLINE
  6
Continuous
100
AcDbLine
 10
350.9928000000014
 20
282.0094385296513
 30
0.0
 11
350.9928000000014
 21
284.8036671637112
 31
0.0
  0
LINE
  5
6945
330
19
100
AcDbEntity
  8
OUTLINE
  6
Continuous
100
AcDbLine
 10
349.9927999999984
 20
281.0094385296513
 30
0.0
 11
350.9927999999984
 21
282.0094385296513
 31
0.0
  0
LINE
  5
6946
330
19
100
AcDbEntity
  8
OUTLINE
  6
Continuous
100
AcDbLine
 10
350.9927999999984
 20
280.0094385296513
 30
0.0
 11
349.9927999999984
 21
281.0094385296513
 31
0.0
  0
LINE
  5
6947
330
19
100
AcDbEntity
  8
OUTLINE
100
AcDbLine
 10
334.0117999999998
 20
270.8594385296515
 30
0.0
 11
334.0117999999998
 21
262.0080000000001
 31
0.0
  0
LINE
  5
6948
330
19
100
AcDbEntity
  8
OUTLINE
  6
Continuous
100
AcDbLine
 10
332.9928000000013
 20
280.0094385296513
 30
0.0
 11
332.9928000000013
 21
277.2152098955913
 31
0.0
  0
LINE
  5
6949
330
19
100
AcDbEntity
  8
OUTLINE
  6
Continuous
100
AcDbLine
 10
337.4928000000013
 20
277.2152098955913
 30
0.0
 11
337.4928000000013
 21
280.0094385296513
 31
0.0
  0
LINE
  5
694A
330
19
100
AcDbEntity
  8
OUTLINE
  6
Continuous
100
AcDbLine
 10
346.4928000000014
 20
277.2152098955913
 30
0.0
 11
346.4928000000014
 21
280.0094385296513
 31
0.0
  0
ARC
  5
694B
330
19
100
AcDbEntity
  8
OUTLINE
  6
Continuous
100
AcDbCircle
 10
341.9928000000012
 20
285.0094385296512
 30
0.0
 40
8.999999999999923
100
AcDbArc
 50
239.9999999999999
 51
300.0
  0
LINE
  5
694C
330
19
100
AcDbEntity
  8
OUTLINE
100
AcDbLine
 10
334.8428000000013
 20
272.5594385296503
 30
0.0
 11
334.8428000000013
 21
276.0392084160316
 31
0.0
  0
LINE
  5
694D
330
19
100
AcDbEntity
  8
OUTLINE
100
AcDbLine
 10
335.2428000000002
 20
270.8594385296515
 30
0.0
 11
335.6928
 21
271.3094385296514
 31
0.0
  0
LINE
  5
694E
330
19
100
AcDbEntity
  8
OUTLINE
100
AcDbLine
 10
334.8428000000013
 20
272.5594385296503
 30
0.0
 11
335.6928000000002
 21
271.7094385296515
 31
0.0
  0
LINE
  5
694F
330
19
100
AcDbEntity
  8
OUTLINE
100
AcDbLine
 10
335.6928
 20
271.3094385296514
 30
0.0
 11
335.6927999999998
 21
271.7094385296515
 31
0.0
  0
ARC
  5
6950
330
19
100
AcDbEntity
  8
OUTLINE
  6
Continuous
100
AcDbCircle
 10
335.2428000000013
 20
278.7116027918788
 30
0.0
 40
2.702164262227505
100
AcDbArc
 50
213.6264291359711
 51
326.3735708640289
  0
ARC
  5
6951
330
19
100
AcDbEntity
  8
OUTLINE
  6
Continuous
100
AcDbCircle
 10
341.9928000000012
 20
277.0094385296513
 30
0.0
 40
8.999999999999923
100
AcDbArc
 50
59.99999999999997
 51
120.0
  0
LINE
  5
6952
330
19
100
AcDbEntity
  8
OUTLINE
  6
Continuous
100
AcDbLine
 10
346.4928000000014
 20
282.0094385296513
 30
0.0
 11
346.4928000000014
 21
284.8036671637112
 31
0.0
  0
LINE
  5
6953
330
19
100
AcDbEntity
  8
OUTLINE
  6
Continuous
100
AcDbLine
 10
332.9928000000013
 20
284.8036671637112
 30
0.0
 11
332.9928000000013
 21
282.0094385296513
 31
0.0
  0
LINE
  5
6954
330
19
100
AcDbEntity
  8
OUTLINE
  6
Continuous
100
AcDbLine
 10
337.4928000000013
 20
282.0094385296513
 30
0.0
 11
337.4928000000013
 21
284.8036671637112
 31
0.0
  0
LINE
  5
6955
330
19
100
AcDbEntity
  8
OUTLINE
  6
Continuous
100
AcDbLine
 10
332.9928000000013
 20
280.0094385296513
 30
0.0
 11
333.9928000000014
 21
281.0094385296513
 31
0.0
  0
LINE
  5
6956
330
19
100
AcDbEntity
  8
OUTLINE
  6
Continuous
100
AcDbLine
 10
333.9928000000014
 20
281.0094385296513
 30
0.0
 11
332.9928000000013
 21
282.0094385296513
 31
0.0
  0
ARC
  5
6957
330
19
100
AcDbEntity
  8
OUTLINE
  6
Continuous
100
AcDbCircle
 10
335.2428000000013
 20
283.3072742674238
 30
0.0
 40
2.702164262227505
100
AcDbArc
 50
33.62642913597105
 51
146.3735708640289
  0
ARC
  5
6958
330
19
100
AcDbEntity
  8
OUTLINE
  6
Continuous
100
AcDbCircle
 10
341.9927999999999
 20
318.8796614568545
 30
0.0
 40
57.42893206270741
100
AcDbArc
 50
262.0116489535629
 51
277.9883510464371
  0
LINE
  5
6959
330
19
100
AcDbEntity
  8
DIMENSIONS
100
AcDbLine
 10
253.4149950209032
 20
309.0224603564355
 30
0.0
 11
240.4943639668843
 21
309.0224603564356
 31
0.0
  0
LINE
  5
695A
330
19
100
AcDbEntity
  8
DIMENSIONS
100
AcDbLine
 10
240.4943639668843
 20
309.0224603564356
 30
0.0
 11
234.9715501443227
 21
289.4738351272044
 31
0.0
  0
MTEXT
  5
695B
330
19
100
AcDbEntity
  8
DIMENSIONS
100
AcDbMText
 10
351.6002659712706
 20
307.2824603564356
 30
0.0
 40
3.599999999999999
 41
0.0
 46
0.0
 71
     6
 72
     5
  1
\A1;{\H1.66667x;10 off\PM16A LOCK SHEAR BOLTS\P\H0.7x;\S5/8;\H1.42857x;" A/F\H0.6x; }
 73
     1
 44
1.0
  0
TRACE
  5
695C
330
19
100
AcDbEntity
  8
DIMENSIONS
  6
Continuous
100
AcDbTrace
 10
234.3941506648711
 20
289.636960775059
 30
0.0
 11
235.5489497312682
 21
289.3107107103413
 31
0.0
 12
233.9928000000015
 22
286.0094385296512
 32
0.0
 13
233.9928000000015
 23
286.0094385296512
 33
0.0
  0
LINE
  5
695D
330
19
100
AcDbEntity
  8
OUTLINE
  6
HIDDEN2
 48
3.5
100
AcDbLine
 10
53.99279999999997
 20
248.808
 30
0.0
 11
365.9928
 21
248.8080000000001
 31
0.0
  0
LWPOLYLINE
  5
6960
330
19
100
AcDbEntity
  8
OUTLINE
100
AcDbPolyline
 90
        6
 70
     1
 43
0.0
 10
68.99279999999851
 20
379.6283213988425
 10
73.4927999999993
 20
371.8340927647813
 10
82.49280000000068
 20
371.8340927647813
 10
86.99280000000147
 20
379.6283213988425
 10
82.49280000000078
 20
387.4225500329036
 10
73.4927999999993
 20
387.4225500329036
  0
CIRCLE
  5
6961
330
19
100
AcDbEntity
  8
OUTLINE
100
AcDbCircle
 10
77.99279999999999
 20
379.6283213988425
 30
0.0
 40
7.79422863406121
  0
LWPOLYLINE
  5
6962
330
19
100
AcDbEntity
  8
OUTLINE
100
AcDbPolyline
 90
        6
 70
     1
 43
0.0
 10
95.99279999999851
 20
379.6283213988425
 10
100.4927999999993
 20
371.8340927647813
 10
109.4928000000007
 20
371.8340927647813
 10
113.9928000000014
 20
379.6283213988425
 10
109.4928000000008
 20
387.4225500329036
 10
100.4927999999993
 20
387.4225500329036
  0
CIRCLE
  5
6963
330
19
100
AcDbEntity
  8
OUTLINE
100
AcDbCircle
 10
104.9928
 20
379.6283213988425
 30
0.0
 40
7.79422863406121
  0
LWPOLYLINE
  5
6964
330
19
100
AcDbEntity
  8
OUTLINE
100
AcDbPolyline
 90
        6
 70
     1
 43
0.0
 10
122.9927999999985
 20
379.6283213988425
 10
127.4927999999993
 20
371.8340927647813
 10
136.4928000000007
 20
371.8340927647813
 10
140.9928000000014
 20
379.6283213988425
 10
136.4928000000008
 20
387.4225500329036
 10
127.4927999999993
 20
387.4225500329036
  0
CIRCLE
  5
6965
330
19
100
AcDbEntity
  8
OUTLINE
100
AcDbCircle
 10
131.9928
 20
379.6283213988425
 30
0.0
 40
7.79422863406121
  0
LWPOLYLINE
  5
6966
330
19
100
AcDbEntity
  8
OUTLINE
100
AcDbPolyline
 90
        6
 70
     1
 43
0.0
 10
149.9927999999985
 20
379.6283213988425
 10
154.4927999999993
 20
371.8340927647813
 10
163.4928000000007
 20
371.8340927647813
 10
167.9928000000014
 20
379.6283213988425
 10
163.4928000000008
 20
387.4225500329036
 10
154.4927999999993
 20
387.4225500329036
  0
CIRCLE
  5
6967
330
19
100
AcDbEntity
  8
OUTLINE
100
AcDbCircle
 10
158.9928
 20
379.6283213988425
 30
0.0
 40
7.79422863406121
  0
LWPOLYLINE
  5
6968
330
19
100
AcDbEntity
  8
OUTLINE
100
AcDbPolyline
 90
        6
 70
     1
 43
0.0
 10
176.9927999999985
 20
379.6283213988425
 10
181.4927999999993
 20
371.8340927647813
 10
190.4928000000007
 20
371.8340927647813
 10
194.9928000000014
 20
379.6283213988425
 10
190.4928000000008
 20
387.4225500329036
 10
181.4927999999993
 20
387.4225500329036
  0
CIRCLE
  5
6969
330
19
100
AcDbEntity
  8
OUTLINE
100
AcDbCircle
 10
185.9928
 20
379.6283213988425
 30
0.0
 40
7.79422863406121
  0
LWPOLYLINE
  5
696A
330
19
100
AcDbEntity
  8
OUTLINE
100
AcDbPolyline
 90
        6
 70
     1
 43
0.0
 10
224.9927999999985
 20
379.6283213988425
 10
229.4927999999993
 20
371.8340927647813
 10
238.4928000000007
 20
371.8340927647813
 10
242.9928000000014
 20
379.6283213988425
 10
238.4928000000008
 20
387.4225500329036
 10
229.4927999999993
 20
387.4225500329036
  0
CIRCLE
  5
696B
330
19
100
AcDbEntity
  8
OUTLINE
100
AcDbCircle
 10
233.9928
 20
379.6283213988425
 30
0.0
 40
7.79422863406121
  0
LWPOLYLINE
  5
696C
330
19
100
AcDbEntity
  8
OUTLINE
100
AcDbPolyline
 90
        6
 70
     1
 43
0.0
 10
251.9927999999985
 20
379.6283213988425
 10
256.4927999999993
 20
371.8340927647813
 10
265.4928000000007
 20
371.8340927647813
 10
269.9928000000014
 20
379.6283213988425
 10
265.4928000000008
 20
387.4225500329036
 10
256.4927999999993
 20
387.4225500329036
  0
CIRCLE
  5
696D
330
19
100
AcDbEntity
  8
OUTLINE
100
AcDbCircle
 10
260.9928
 20
379.6283213988425
 30
0.0
 40
7.79422863406121
  0
LWPOLYLINE
  5
696E
330
19
100
AcDbEntity
  8
OUTLINE
100
AcDbPolyline
 90
        6
 70
     1
 43
0.0
 10
278.9927999999985
 20
379.6283213988425
 10
283.4927999999993
 20
371.8340927647813
 10
292.4928000000006
 20
371.8340927647813
 10
296.9928000000015
 20
379.6283213988425
 10
292.4928000000008
 20
387.4225500329036
 10
283.4927999999993
 20
387.4225500329036
  0
CIRCLE
  5
696F
330
19
100
AcDbEntity
  8
OUTLINE
100
AcDbCircle
 10
287.9928
 20
379.6283213988425
 30
0.0
 40
7.79422863406121
  0
LWPOLYLINE
  5
6970
330
19
100
AcDbEntity
  8
OUTLINE
100
AcDbPolyline
 90
        6
 70
     1
 43
0.0
 10
305.9927999999985
 20
379.6283213988425
 10
310.4927999999993
 20
371.8340927647813
 10
319.4928000000007
 20
371.8340927647813
 10
323.9928000000015
 20
379.6283213988425
 10
319.4928000000008
 20
387.4225500329036
 10
310.4927999999993
 20
387.4225500329036
  0
CIRCLE
  5
6971
330
19
100
AcDbEntity
  8
OUTLINE
100
AcDbCircle
 10
314.9928
 20
379.6283213988425
 30
0.0
 40
7.79422863406121
  0
LWPOLYLINE
  5
6972
330
19
100
AcDbEntity
  8
OUTLINE
100
AcDbPolyline
 90
        6
 70
     1
 43
0.0
 10
332.9927999999985
 20
379.6283213988425
 10
337.4927999999993
 20
371.8340927647813
 10
346.4928000000007
 20
371.8340927647813
 10
350.9928000000015
 20
379.6283213988425
 10
346.4928000000008
 20
387.4225500329036
 10
337.4927999999993
 20
387.4225500329036
  0
CIRCLE
  5
6973
330
19
100
AcDbEntity
  8
OUTLINE
100
AcDbCircle
 10
341.9928
 20
379.6283213988425
 30
0.0
 40
7.79422863406121
  0
VIEWPORT
  5
6A07
102
{ACAD_XDICTIONARY
360
6A08
102
}
330
6A00
100
AcDbEntity
 67
     1
  8
0
100
AcDbViewport
 10
5.647083793099471
 20
3.935416570798618
 30
0.0
 40
17.35786934783277
 41
8.746133096049151
 68
     1
 69
     1
 12
5.647083793099471
 22
3.935416570798618
 13
0.0
 23
0.0
 14
10.0
 24
10.0
 15
10.0
 25
10.0
 16
0.0
 26
0.0
 36
1.0
 17
0.0
 27
0.0
 37
0.0
 42
50.0
 43
0.0
 44
0.0
 45
8.746133096049151
 50
0.0
 51
0.0
 72
  1000
 90
   819232
  1

281
     0
 71
     1
 74
     0
110
0.0
120
0.0
130
0.0
111
1.0
121
0.0
131
0.0
112
0.0
122
1.0
132
0.0
 79
     0
146
0.0
170
     0
 61
     5
348
5980
292
     1
282
     1
141
0.0
142
0.0
 63
   250
421
  3355443
  0
ENDSEC
  0
SECTION
  2
OBJECTS
  0
DICTIONARY
  5
C
330
0
100
AcDbDictionary
281
     1
  3
ACAD_CIP_PREVIOUS_PRODUCT_INFO
350
6074
  3
ACAD_COLOR
350
598E
  3
ACAD_DETAILVIEWSTYLE
350
6050
  3
ACAD_FIELDLIST
350
60E2
  3
ACAD_GROUP
350
D
  3
ACAD_LAYOUT
350
59B5
  3
ACAD_MATERIAL
350
5961
  3
ACAD_MLEADERSTYLE
350
59B3
  3
ACAD_MLINESTYLE
350
E
  3
ACAD_PLOTSETTINGS
350
59B6
  3
ACAD_PLOTSTYLENAME
350
595F
  3
ACAD_SCALELIST
350
5991
  3
ACAD_SECTIONVIEWSTYLE
350
604E
  3
ACAD_TABLESTYLE
350
598F
  3
ACAD_VISUALSTYLE
350
597A
  3
ACDB_RECOMPOSE_DATA
350
6A5E
  3
ACDBVARIABLEDICTIONARY
350
369C
  3
AcDsDecomposeData
350
6A64
  3
AcmDictionary
350
60A0
  3
AEC_PROPERTY_SET_DEFS
350
5A5E
  3
AMG
350
6075
  3
AMGSNAPSETTINGS
350
6136
  0
DICTIONARY
  5
59C3
330
2
100
AcDbDictionary
280
     1
281
     1
  3
ACAD_LAYERSTATES
360
59C4
  3
AMLAYER_GROUPCOLORS
360
6A12
  3
AMLAYER_GROUPLINETYPES
360
6A13
  3
AMLAYER_GROUPLINEWEIGHTS
360
6A14
  0
DICTIONARY
  5
59ED
330
F
100
AcDbDictionary
280
     1
281
     1
  3
ADSK_XREC_LAYER_RECONCILED
360
59EE
  0
DICTIONARY
  5
59F7
330
3C4
100
AcDbDictionary
280
     1
281
     1
  3
ADSK_XREC_LAYER_RECONCILED
360
59F8
  0
DICTIONARY
  5
59F9
330
3C5
100
AcDbDictionary
280
     1
281
     1
  3
ADSK_XREC_LAYER_RECONCILED
360
59FA
  0
DICTIONARY
  5
59FB
330
3C6
100
AcDbDictionary
280
     1
281
     1
  3
ADSK_XREC_LAYER_RECONCILED
360
59FC
  0
DICTIONARY
  5
59FF
330
3C8
100
AcDbDictionary
280
     1
281
     1
  3
ADSK_XREC_LAYER_RECONCILED
360
5A00
  0
DICTIONARY
  5
61E7
330
61E6
100
AcDbDictionary
280
     1
281
     1
  0
DICTIONARY
  5
6A08
330
6A07
100
AcDbDictionary
280
     1
281
     1
  3
ASDK_XREC_ANNOTATION_SCALE_INFO
360
6A09
  0
XRECORD
  5
6074
102
{ACAD_REACTORS
330
C
102
}
330
C
100
AcDbXrecord
280
     1
300
AMECH_PP
300
2017
300
PDSU_F_S
  0
DICTIONARY
  5
598E
102
{ACAD_REACTORS
330
C
102
}
330
C
100
AcDbDictionary
281
     1
  0
DICTIONARY
  5
6050
102
{ACAD_REACTORS
330
C
102
}
330
C
100
AcDbDictionary
281
     1
  3
Imperial24
350
6051
  0
FIELDLIST
  5
60E2
102
{ACAD_REACTORS
330
C
102
}
330
C
100
AcDbIdSet
 90
        4
330
60E0
330
60E1
330
60E3
330
60E4
100
AcDbFieldList
  0
DICTIONARY
  5
D
102
{ACAD_REACTORS
330
C
102
}
330
C
100
AcDbDictionary
281
     1
  0
DICTIONARY
  5
59B5
102
{ACAD_REACTORS
330
C
102
}
330
C
100
AcDbDictionary
281
     1
  3
Layout1
350
6A01
  3
Model
350
59B7
  0
DICTIONARY
  5
5961
102
{ACAD_REACTORS
330
C
102
}
330
C
100
AcDbDictionary
281
     1
  3
ByBlock
350
596A
  3
ByLayer
350
5962
  3
Global
350
5972
  0
DICTIONARY
  5
59B3
102
{ACAD_REACTORS
330
C
102
}
330
C
100
AcDbDictionary
281
     1
  3
Standard
350
59B4
  0
DICTIONARY
  5
E
102
{ACAD_REACTORS
330
C
102
}
330
C
100
AcDbDictionary
281
     1
  3
STANDARD
350
1C
  0
DICTIONARY
  5
59B6
102
{ACAD_REACTORS
330
C
102
}
330
C
100
AcDbDictionary
281
     1
  0
ACDBDICTIONARYWDFLT
  5
595F
102
{ACAD_REACTORS
330
C
102
}
330
C
100
AcDbDictionary
281
     1
  3
Normal
350
5960
100
AcDbDictionaryWithDefault
340
5960
  0
DICTIONARY
  5
5991
102
{ACAD_REACTORS
330
C
102
}
330
C
100
AcDbDictionary
281
     1
  3
A0
350
5992
  3
A1
350
5993
  3
A2
350
5994
  3
A3
350
5995
  3
A4
350
5996
  3
A5
350
5997
  3
A6
350
5998
  3
A7
350
5999
  3
A8
350
599A
  3
A9
350
599B
  3
B0
350
599C
  3
B1
350
599D
  3
B2
350
599E
  3
B3
350
599F
  3
B4
350
59A0
  3
B5
350
59A1
  3
B6
350
59A2
  3
B7
350
59A3
  3
B8
350
59A4
  3
B9
350
59A5
  3
C0
350
59A6
  3
C1
350
59A7
  3
C2
350
59A8
  3
C3
350
59A9
  3
C4
350
59AA
  3
C5
350
59AB
  3
C6
350
59AC
  3
C7
350
59AD
  3
C8
350
59AE
  3
C9
350
59AF
  3
D0
350
59B0
  3
D1
350
59B1
  3
D2
350
59B2
  0
DICTIONARY
  5
604E
102
{ACAD_REACTORS
330
C
102
}
330
C
100
AcDbDictionary
281
     1
  3
Imperial24
350
604F
  0
DICTIONARY
  5
598F
102
{ACAD_REACTORS
330
C
102
}
330
C
100
AcDbDictionary
281
     1
  3
Standard
350
5990
  0
DICTIONARY
  5
597A
102
{ACAD_REACTORS
330
C
102
}
330
C
100
AcDbDictionary
281
     1
  3
2dWireframe
350
5980
  3
3D Hidden
350
5982
  3
3dWireframe
350
5981
  3
Basic
350
597F
  3
Brighten
350
5986
  3
ColorChange
350
598A
  3
Conceptual
350
5983
  3
Dim
350
5985
  3
EdgeColorOff
350
598D
  3
Facepattern
350
5989
  3
Flat
350
597B
  3
FlatWithEdges
350
597C
  3
Gouraud
350
597D
  3
GouraudWithEdges
350
597E
  3
Hidden
350
6048
  3
JitterOff
350
598B
  3
Linepattern
350
5988
  3
OverhangOff
350
598C
  3
Realistic
350
5984
  3
Shaded
350
604D
  3
Shaded with edges
350
604C
  3
Shades of Gray
350
6049
  3
Sketchy
350
604A
  3
Thicken
350
5987
  3
Wireframe
350
6047
  3
X-Ray
350
604B
  0
XRECORD
  5
6A5E
102
{ACAD_REACTORS
330
C
102
}
330
C
100
AcDbXrecord
280
     1
 90
        1
330
5990
330
6607
330
6608
  0
DICTIONARY
  5
369C
102
{ACAD_REACTORS
330
C
102
}
330
C
100
AcDbDictionary
281
     1
  3
CANNOSCALE
350
5EA6
  3
CMLEADERSTYLE
350
5EA4
  3
CTABLESTYLE
350
5EA3
  3
CVIEWDETAILSTYLE
350
6A5A
  3
CVIEWSECTIONSTYLE
350
6A5B
  3
LAYEREVAL
350
5EA8
  3
LAYERNOTIFY
350
5EA9
  3
LIGHTINGUNITS
350
5EA7
  3
MSLTSCALE
350
5EA5
  3
SORTENTS
350
369D
  0
DICTIONARY
  5
6A64
102
{ACAD_REACTORS
330
C
102
}
330
C
100
AcDbDictionary
281
     1
  3
AcDsRecords
350
6A66
  3
AcDsSchemas
350
6A65
1001
ACAD
1070
     2
  0
DICTIONARY
  5
60A0
102
{ACAD_REACTORS
330
C
102
}
330
C
100
AcDbDictionary
281
     1
  3
AcmStdDictionary
350
60A8
  0
DICTIONARY
  5
5A5E
102
{ACAD_REACTORS
330
C
102
}
330
C
100
AcDbDictionary
281
     1
  0
DICTIONARY
  5
6075
102
{ACAD_REACTORS
330
C
102
}
330
C
100
AcDbDictionary
281
     1
  0
DICTIONARY
  5
6136
102
{ACAD_REACTORS
330
C
102
}
330
C
100
AcDbDictionary
281
     1
  0
DICTIONARY
  5
59C4
102
{ACAD_REACTORS
330
59C3
102
}
330
59C3
100
AcDbDictionary
281
     1
  0
DICTIONARY
  5
6A12
102
{ACAD_REACTORS
330
59C3
102
}
330
59C3
100
AcDbDictionary
280
     1
281
     1
  0
DICTIONARY
  5
6A13
102
{ACAD_REACTORS
330
59C3
102
}
330
59C3
100
AcDbDictionary
280
     1
281
     1
  0
DICTIONARY
  5
6A14
102
{ACAD_REACTORS
330
59C3
102
}
330
59C3
100
AcDbDictionary
280
     1
281
     1
  0
XRECORD
  5
59EE
102
{ACAD_REACTORS
330
59ED
102
}
330
59ED
100
AcDbXrecord
280
     1
290
     1
  0
XRECORD
  5
59F8
102
{ACAD_REACTORS
330
59F7
102
}
330
59F7
100
AcDbXrecord
280
     1
290
     1
  0
XRECORD
  5
59FA
102
{ACAD_REACTORS
330
59F9
102
}
330
59F9
100
AcDbXrecord
280
     1
290
     1
  0
XRECORD
  5
59FC
102
{ACAD_REACTORS
330
59FB
102
}
330
59FB
100
AcDbXrecord
280
     1
290
     1
  0
XRECORD
  5
5A00
102
{ACAD_REACTORS
330
59FF
102
}
330
59FF
100
AcDbXrecord
280
     1
290
     1
  0
XRECORD
  5
6A09
102
{ACAD_REACTORS
330
6A08
102
}
330
6A08
100
AcDbXrecord
280
     1
 90
        1
340
5992
  0
ACDBDETAILVIEWSTYLE
  5
6051
102
{ACAD_XDICTIONARY
360
6A9D
102
}
102
{ACAD_REACTORS
330
6050
330
60D2
102
}
330
6050
100
AcDbModelDocViewStyle
 70
     0
  3
Imperial24
290
     0
100
AcDbDetailViewStyle
 70
     0
 71
     0
 90
        3
 71
     1
340
10
 62
   256
 40
0.24
340
0
 62
   256
 40
0.24
300

 40
0.36
280
     3
 71
     2
340
15
 90
       25
 62
   256
 71
     3
340
10
 62
   256
 40
0.24
 90
        1
 40
0.75
 90
        1
300
%<\AcVar ViewType \f "%tc1">% %<\AcVar ViewDetailId>%\PSCALE %<\AcVar ViewScale \f "%sn">%
 71
     4
340
15
 90
       25
 62
   256
340
15
 90
       25
 62
   256
280
     0
  0
LAYOUT
  5
6A01
102
{ACAD_REACTORS
330
59B5
102
}
330
59B5
100
AcDbPlotSettings
  1

  2
\\PRT001\Sharp Printers
  4
A4
  6

 40
5.027082920074462
 41
5.027099609375
 42
5.027069091796875
 43
5.027069091796875
 44
209.9733276367187
 45
296.9259948730469
 46
0.0
 47
0.0
 48
0.0
 49
0.0
140
0.0
141
0.0
142
1.0
143
1.0
 70
   688
 72
     0
 73
     1
 74
     5
  7

 75
    16
147
1.0
 76
     0
 77
     2
 78
   300
148
0.0
149
0.0
100
AcDbLayout
  1
Layout1
 70
     1
 71
     1
 10
-0.1979161059762549
 20
-0.1979166503966324
 11
11.4920836921752
 21
8.068749791993869
 12
0.0
 22
0.0
 32
0.0
 14
1.000000000000000E+20
 24
1.000000000000000E+20
 34
1.000000000000000E+20
 15
-1.000000000000000E+20
 25
-1.000000000000000E+20
 35
-1.000000000000000E+20
146
0.0
 13
0.0
 23
0.0
 33
0.0
 16
1.0
 26
0.0
 36
0.0
 17
0.0
 27
1.0
 37
0.0
 76
     0
330
6A00
331
6A07
1001
ACAD_PSEXT
1000
\\PRT001\Sharp Printers
1000
SHARP MX-5141N PCL6
1000
\\PRT001
1000
PAPERCUT_10.134.241.68
1070
     0
  0
LAYOUT
  5
59B7
102
{ACAD_XDICTIONARY
360
59C9
102
}
102
{ACAD_REACTORS
330
59B5
102
}
330
59B5
100
AcDbPlotSettings
  1

  2
CutePDF Writer
  4

  6

 40
0.0
 41
0.0
 42
0.0
 43
0.0
 44
0.0
 45
0.0
 46
0.0
 47
0.0
 48
0.0
 49
0.0
140
0.0
141
0.0
142
1.0
143
1.0
 70
  1712
 72
     0
 73
     0
 74
     0
  7
Ancon pen settings.ctb
 75
     0
147
1.0
 76
     0
 77
     2
 78
   300
148
0.0
149
0.0
100
AcDbLayout
  1
Model
 70
     1
 71
     0
 10
0.0
 20
0.0
 11
12.0
 21
9.0
 12
0.0
 22
0.0
 32
0.0
 14
0.0
 24
0.0
 34
0.0
 15
0.0
 25
0.0
 35
0.0
146
0.0
 13
0.0
 23
0.0
 33
0.0
 16
1.0
 26
0.0
 36
0.0
 17
0.0
 27
1.0
 37
0.0
 76
     0
330
19
331
595D
  0
MATERIAL
  5
596A
102
{ACAD_XDICTIONARY
360
596B
102
}
102
{ACAD_REACTORS
330
5961
102
}
330
5961
100
AcDbMaterial
  1
ByBlock
 72
     0
 43
0.0208333333333333
 43
0.0
 43
0.0
 43
0.0
 43
0.0
 43
0.0208333333333333
 43
0.0
 43
0.0
 43
0.0
 43
0.0
 43
1.0
 43
0.0
 43
0.0
 43
0.0
 43
0.0
 43
1.0
 77
     0
 47
0.0208333333333333
 47
0.0
 47
0.0
 47
0.0
 47
0.0
 47
0.0208333333333333
 47
0.0
 47
0.0
 47
0.0
 47
0.0
 47
1.0
 47
0.0
 47
0.0
 47
0.0
 47
0.0
 47
1.0
171
     0
 49
0.0208333333333333
 49
0.0
 49
0.0
 49
0.0
 49
0.0
 49
0.0208333333333333
 49
0.0
 49
0.0
 49
0.0
 49
0.0
 49
1.0
 49
0.0
 49
0.0
 49
0.0
 49
0.0
 49
1.0
175
     0
142
0.0208333333333333
142
0.0
142
0.0
142
0.0
142
0.0
142
0.0208333333333333
142
0.0
142
0.0
142
0.0
142
0.0
142
1.0
142
0.0
142
0.0
142
0.0
142
0.0
142
1.0
179
     0
144
0.0208333333333333
144
0.0
144
0.0
144
0.0
144
0.0
144
0.0208333333333333
144
0.0
144
0.0
144
0.0
144
0.0
144
1.0
144
0.0
144
0.0
144
0.0
144
0.0
144
1.0
147
0.0208333333333333
147
0.0
147
0.0
147
0.0
147
0.0
147
0.0208333333333333
147
0.0
147
0.0
147
0.0
147
0.0
147
1.0
147
0.0
147
0.0
147
0.0
147
0.0
147
1.0
  0
MATERIAL
  5
5962
102
{ACAD_XDICTIONARY
360
5963
102
}
102
{ACAD_REACTORS
330
5961
102
}
330
5961
100
AcDbMaterial
  1
ByLayer
 72
     0
 43
0.0208333333333333
 43
0.0
 43
0.0
 43
0.0
 43
0.0
 43
0.0208333333333333
 43
0.0
 43
0.0
 43
0.0
 43
0.0
 43
1.0
 43
0.0
 43
0.0
 43
0.0
 43
0.0
 43
1.0
 77
     0
 47
0.0208333333333333
 47
0.0
 47
0.0
 47
0.0
 47
0.0
 47
0.0208333333333333
 47
0.0
 47
0.0
 47
0.0
 47
0.0
 47
1.0
 47
0.0
 47
0.0
 47
0.0
 47
0.0
 47
1.0
171
     0
 49
0.0208333333333333
 49
0.0
 49
0.0
 49
0.0
 49
0.0
 49
0.0208333333333333
 49
0.0
 49
0.0
 49
0.0
 49
0.0
 49
1.0
 49
0.0
 49
0.0
 49
0.0
 49
0.0
 49
1.0
175
     0
142
0.0208333333333333
142
0.0
142
0.0
142
0.0
142
0.0
142
0.0208333333333333
142
0.0
142
0.0
142
0.0
142
0.0
142
1.0
142
0.0
142
0.0
142
0.0
142
0.0
142
1.0
179
     0
144
0.0208333333333333
144
0.0
144
0.0
144
0.0
144
0.0
144
0.0208333333333333
144
0.0
144
0.0
144
0.0
144
0.0
144
1.0
144
0.0
144
0.0
144
0.0
144
0.0
144
1.0
147
0.0208333333333333
147
0.0
147
0.0
147
0.0
147
0.0
147
0.0208333333333333
147
0.0
147
0.0
147
0.0
147
0.0
147
1.0
147
0.0
147
0.0
147
0.0
147
0.0
147
1.0
  0
MATERIAL
  5
5972
102
{ACAD_XDICTIONARY
360
5973
102
}
102
{ACAD_REACTORS
330
5961
102
}
330
5961
100
AcDbMaterial
  1
Global
 72
     0
 43
0.0208333333333333
 43
0.0
 43
0.0
 43
0.0
 43
0.0
 43
0.0208333333333333
 43
0.0
 43
0.0
 43
0.0
 43
0.0
 43
1.0
 43
0.0
 43
0.0
 43
0.0
 43
0.0
 43
1.0
 77
     0
 47
0.0208333333333333
 47
0.0
 47
0.0
 47
0.0
 47
0.0
 47
0.0208333333333333
 47
0.0
 47
0.0
 47
0.0
 47
0.0
 47
1.0
 47
0.0
 47
0.0
 47
0.0
 47
0.0
 47
1.0
171
     0
 49
0.0208333333333333
 49
0.0
 49
0.0
 49
0.0
 49
0.0
 49
0.0208333333333333
 49
0.0
 49
0.0
 49
0.0
 49
0.0
 49
1.0
 49
0.0
 49
0.0
 49
0.0
 49
0.0
 49
1.0
175
     0
142
0.0208333333333333
142
0.0
142
0.0
142
0.0
142
0.0
142
0.0208333333333333
142
0.0
142
0.0
142
0.0
142
0.0
142
1.0
142
0.0
142
0.0
142
0.0
142
0.0
142
1.0
179
     0
144
0.0208333333333333
144
0.0
144
0.0
144
0.0
144
0.0
144
0.0208333333333333
144
0.0
144
0.0
144
0.0
144
0.0
144
1.0
144
0.0
144
0.0
144
0.0
144
0.0
144
1.0
147
0.0208333333333333
147
0.0
147
0.0
147
0.0
147
0.0
147
0.0208333333333333
147
0.0
147
0.0
147
0.0
147
0.0
147
1.0
147
0.0
147
0.0
147
0.0
147
0.0
147
1.0
  0
MLEADERSTYLE
  5
59B4
102
{ACAD_REACTORS
330
59B3
102
}
330
59B3
100
AcDbMLeaderStyle
179
     2
170
     2
171
     1
172
     0
 90
        2
 40
0.0
 41
0.0
173
     1
 91
-1056964608
340
13
 92
       -2
290
     1
 42
0.09
291
     1
 43
0.36
  3
Standard
 44
0.18
300

342
10
174
     1
178
     6
175
     1
176
     0
 93
-1056964608
 45
0.18
292
     0
297
     0
 46
0.18
 94
-1056964608
 47
1.0
 49
1.0
140
1.0
293
     1
141
0.0
294
     1
177
     0
142
1.0
295
     0
296
     0
143
0.125
271
     0
272
     9
273
     9
  0
MLINESTYLE
  5
1C
102
{ACAD_REACTORS
330
E
102
}
330
E
100
AcDbMlineStyle
  2
STANDARD
 70
     0
  3

 62
     0
 51
90.0
 52
90.0
 71
     2
 49
0.5
 62
   256
  6
BYLAYER
 49
-0.5
 62
   256
  6
BYLAYER
  0
ACDBPLACEHOLDER
  5
5960
102
{ACAD_REACTORS
330
595F
102
}
330
595F
  0
SCALE
  5
5992
102
{ACAD_REACTORS
330
5991
102
}
330
5991
100
AcDbScale
 70
     0
300
1:1
140
1.0
141
1.0
290
     1
  0
SCALE
  5
5993
102
{ACAD_REACTORS
330
5991
102
}
330
5991
100
AcDbScale
 70
     0
300
1:2
140
1.0
141
2.0
290
     0
  0
SCALE
  5
5994
102
{ACAD_REACTORS
330
5991
102
}
330
5991
100
AcDbScale
 70
     0
300
1:4
140
1.0
141
4.0
290
     0
  0
SCALE
  5
5995
102
{ACAD_REACTORS
330
5991
102
}
330
5991
100
AcDbScale
 70
     0
300
1:5
140
1.0
141
5.0
290
     0
  0
SCALE
  5
5996
102
{ACAD_REACTORS
330
5991
102
}
330
5991
100
AcDbScale
 70
     0
300
1:8
140
1.0
141
8.0
290
     0
  0
SCALE
  5
5997
102
{ACAD_REACTORS
330
5991
102
}
330
5991
100
AcDbScale
 70
     0
300
1:10
140
1.0
141
10.0
290
     0
  0
SCALE
  5
5998
102
{ACAD_REACTORS
330
5991
102
}
330
5991
100
AcDbScale
 70
     0
300
1:16
140
1.0
141
16.0
290
     0
  0
SCALE
  5
5999
102
{ACAD_REACTORS
330
5991
102
}
330
5991
100
AcDbScale
 70
     0
300
1:20
140
1.0
141
20.0
290
     0
  0
SCALE
  5
599A
102
{ACAD_REACTORS
330
5991
102
}
330
5991
100
AcDbScale
 70
     0
300
1:30
140
1.0
141
30.0
290
     0
  0
SCALE
  5
599B
102
{ACAD_REACTORS
330
5991
102
}
330
5991
100
AcDbScale
 70
     0
300
1:40
140
1.0
141
40.0
290
     0
  0
SCALE
  5
599C
102
{ACAD_REACTORS
330
5991
102
}
330
5991
100
AcDbScale
 70
     0
300
1:50
140
1.0
141
50.0
290
     0
  0
SCALE
  5
599D
102
{ACAD_REACTORS
330
5991
102
}
330
5991
100
AcDbScale
 70
     0
300
1:100
140
1.0
141
100.0
290
     0
  0
SCALE
  5
599E
102
{ACAD_REACTORS
330
5991
102
}
330
5991
100
AcDbScale
 70
     0
300
2:1
140
2.0
141
1.0
290
     0
  0
SCALE
  5
599F
102
{ACAD_REACTORS
330
5991
102
}
330
5991
100
AcDbScale
 70
     0
300
4:1
140
4.0
141
1.0
290
     0
  0
SCALE
  5
59A0
102
{ACAD_REACTORS
330
5991
102
}
330
5991
100
AcDbScale
 70
     0
300
8:1
140
8.0
141
1.0
290
     0
  0
SCALE
  5
59A1
102
{ACAD_REACTORS
330
5991
102
}
330
5991
100
AcDbScale
 70
     0
300
10:1
140
10.0
141
1.0
290
     0
  0
SCALE
  5
59A2
102
{ACAD_REACTORS
330
5991
102
}
330
5991
100
AcDbScale
 70
     0
300
100:1
140
100.0
141
1.0
290
     0
  0
SCALE
  5
59A3
102
{ACAD_REACTORS
330
5991
102
}
330
5991
100
AcDbScale
 70
     0
300
1/128" = 1'-0"
140
0.0078125
141
12.0
290
     0
  0
SCALE
  5
59A4
102
{ACAD_REACTORS
330
5991
102
}
330
5991
100
AcDbScale
 70
     0
300
1/64" = 1'-0"
140
0.015625
141
12.0
290
     0
  0
SCALE
  5
59A5
102
{ACAD_REACTORS
330
5991
102
}
330
5991
100
AcDbScale
 70
     0
300
1/32" = 1'-0"
140
0.03125
141
12.0
290
     0
  0
SCALE
  5
59A6
102
{ACAD_REACTORS
330
5991
102
}
330
5991
100
AcDbScale
 70
     0
300
1/16" = 1'-0"
140
0.0625
141
12.0
290
     0
  0
SCALE
  5
59A7
102
{ACAD_REACTORS
330
5991
102
}
330
5991
100
AcDbScale
 70
     0
300
3/32" = 1'-0"
140
0.09375
141
12.0
290
     0
  0
SCALE
  5
59A8
102
{ACAD_REACTORS
330
5991
102
}
330
5991
100
AcDbScale
 70
     0
300
1/8" = 1'-0"
140
0.125
141
12.0
290
     0
  0
SCALE
  5
59A9
102
{ACAD_REACTORS
330
5991
102
}
330
5991
100
AcDbScale
 70
     0
300
3/16" = 1'-0"
140
0.1875
141
12.0
290
     0
  0
SCALE
  5
59AA
102
{ACAD_REACTORS
330
5991
102
}
330
5991
100
AcDbScale
 70
     0
300
1/4" = 1'-0"
140
0.25
141
12.0
290
     0
  0
SCALE
  5
59AB
102
{ACAD_REACTORS
330
5991
102
}
330
5991
100
AcDbScale
 70
     0
300
3/8" = 1'-0"
140
0.375
141
12.0
290
     0
  0
SCALE
  5
59AC
102
{ACAD_REACTORS
330
5991
102
}
330
5991
100
AcDbScale
 70
     0
300
1/2" = 1'-0"
140
0.5
141
12.0
290
     0
  0
SCALE
  5
59AD
102
{ACAD_REACTORS
330
5991
102
}
330
5991
100
AcDbScale
 70
     0
300
3/4" = 1'-0"
140
0.75
141
12.0
290
     0
  0
SCALE
  5
59AE
102
{ACAD_REACTORS
330
5991
102
}
330
5991
100
AcDbScale
 70
     0
300
1" = 1'-0"
140
1.0
141
12.0
290
     0
  0
SCALE
  5
59AF
102
{ACAD_REACTORS
330
5991
102
}
330
5991
100
AcDbScale
 70
     0
300
1-1/2" = 1'-0"
140
1.5
141
12.0
290
     0
  0
SCALE
  5
59B0
102
{ACAD_REACTORS
330
5991
102
}
330
5991
100
AcDbScale
 70
     0
300
3" = 1'-0"
140
3.0
141
12.0
290
     0
  0
SCALE
  5
59B1
102
{ACAD_REACTORS
330
5991
102
}
330
5991
100
AcDbScale
 70
     0
300
6" = 1'-0"
140
6.0
141
12.0
290
     0
  0
SCALE
  5
59B2
102
{ACAD_REACTORS
330
5991
102
}
330
5991
100
AcDbScale
 70
     0
300
1'-0" = 1'-0"
140
12.0
141
12.0
290
     0
  0
ACDBSECTIONVIEWSTYLE
  5
604F
102
{ACAD_XDICTIONARY
360
6A9B
102
}
102
{ACAD_REACTORS
330
604E
330
60D1
102
}
330
604E
100
AcDbModelDocViewStyle
 70
     0
  3
Imperial24
290
     0
100
AcDbSectionViewStyle
 70
     0
 71
     0
 90
       78
 71
     1
340
10
 62
   256
 40
0.24
340
0
340
0
 62
   256
 40
0.24
300
I, O, Q, S, X, Z
 40
0.48
 90
        3
 40
0.18
 90
        1
 71
     2
340
15
 90
       25
 62
   256
340
15
 90
       50
 62
   256
 40
0.24
 40
0.0
 40
0.24
 71
     3
340
10
 62
   256
 40
0.24
 90
        1
 40
0.75
 90
        1
300
%<\AcVar ViewType \f "%tc1">% %<\AcVar ViewSectionStartId>%-%<\AcVar ViewSectionEndId>%\PSCALE %<\AcVar ViewScale \f "%sn">%
 71
     4
 62
   256
 62
   257
300
ANSI31
 40
1.0
 90
        0
290
     0
290
     0
 90
        6
 40
0.0
 40
1.570796326794896
 40
0.2617993877991494
 40
1.308996938995747
 40
-0.2617993877991494
 40
1.832595714594046
  0
TABLESTYLE
  5
5990
102
{ACAD_XDICTIONARY
360
6A5C
102
}
102
{ACAD_REACTORS
330
598F
102
}
330
598F
100
AcDbTableStyle
280
     0
  3
Standard
 70
     0
 71
     0
 40
0.06
 41
0.06
280
     0
281
     0
  7
STANDARD
140
0.18
170
     2
 62
     0
 63
     7
283
     0
 90
      512
 91
        0
  1

274
    -2
284
     1
 64
     0
275
    -2
285
     1
 65
     0
276
    -2
286
     1
 66
     0
277
    -2
287
     1
 67
     0
278
    -2
288
     1
 68
     0
279
    -2
289
     1
 69
     0
  7
STANDARD
140
0.25
170
     5
 62
     0
 63
     7
283
     0
 90
      512
 91
        0
  1

274
    -2
284
     1
 64
     0
275
    -2
285
     1
 65
     0
276
    -2
286
     1
 66
     0
277
    -2
287
     1
 67
     0
278
    -2
288
     1
 68
     0
279
    -2
289
     1
 69
     0
  7
STANDARD
140
0.18
170
     5
 62
     0
 63
     7
283
     0
 90
      512
 91
        0
  1

274
    -2
284
     1
 64
     0
275
    -2
285
     1
 65
     0
276
    -2
286
     1
 66
     0
277
    -2
287
     1
 67
     0
278
    -2
288
     1
 68
     0
279
    -2
289
     1
 69
     0
  0
VISUALSTYLE
  5
5980
102
{ACAD_XDICTIONARY
360
6A71
102
}
102
{ACAD_REACTORS
330
597A
102
}
330
597A
100
AcDbVisualStyle
  2
2dWireframe
 70
     4
177
     2
291
     0
 71
     0
176
     1
 72
     2
176
     1
 73
     0
176
     1
 90
        0
176
     1
 40
0.6
176
     1
 41
30.0
176
     1
 63
     7
421
 16777215
176
     1
 74
     1
176
     1
 91
        4
176
     1
 64
     7
176
     1
 65
   257
176
     1
 75
     1
176
     1
175
     1
176
     1
 42
1.0
176
     1
 92
        0
176
     1
 66
   257
176
     1
 43
1.0
176
     1
 76
     1
176
     1
 77
     6
176
     1
 78
     2
176
     1
 67
     7
176
     1
 79
     5
176
     1
170
     0
176
     1
171
     0
176
     1
290
     0
176
     1
 93
        1
176
     1
 44
0.0
176
     1
173
     0
176
     1
1001
ACAD
1000
AcDbSavedByObjectVersion
1070
     0
  0
VISUALSTYLE
  5
5982
102
{ACAD_XDICTIONARY
360
6A75
102
}
102
{ACAD_REACTORS
330
597A
102
}
330
597A
100
AcDbVisualStyle
  2
3D Hidden
 70
     6
177
     2
291
     0
 71
     1
176
     1
 72
     2
176
     1
 73
     2
176
     1
 90
        0
176
     1
 40
0.6
176
     1
 41
30.0
176
     1
 63
     7
421
 16777215
176
     1
 74
     2
176
     1
 91
        2
176
     1
 64
     7
176
     1
 65
   257
176
     1
 75
     2
176
     1
175
     1
176
     1
 42
179.0
176
     1
 92
        0
176
     1
 66
   257
176
     1
 43
1.0
176
     1
 76
     1
176
     1
 77
     6
176
     1
 78
     2
176
     1
 67
     7
176
     1
 79
     3
176
     1
170
     0
176
     1
171
     0
176
     1
290
     0
176
     1
 93
        1
176
     1
 44
0.0
176
     1
173
     0
176
     1
1001
ACAD
1000
AcDbSavedByObjectVersion
1070
     0
  0
VISUALSTYLE
  5
5981
102
{ACAD_XDICTIONARY
360
6A73
102
}
102
{ACAD_REACTORS
330
597A
102
}
330
597A
100
AcDbVisualStyle
  2
3dWireframe
 70
     5
177
     2
291
     0
 71
     0
176
     1
 72
     2
176
     1
 73
     0
176
     1
 90
        0
176
     1
 40
0.6
176
     1
 41
30.0
176
     1
 63
     7
421
 16777215
176
     1
 74
     1
176
     1
 91
        4
176
     1
 64
     7
176
     1
 65
   257
176
     1
 75
     1
176
     1
175
     1
176
     1
 42
1.0
176
     1
 92
        0
176
     1
 66
   257
176
     1
 43
1.0
176
     1
 76
     1
176
     1
 77
     6
176
     1
 78
     2
176
     1
 67
     7
176
     1
 79
     5
176
     1
170
     0
176
     1
171
     0
176
     1
290
     0
176
     1
 93
        1
176
     1
 44
0.0
176
     1
173
     0
176
     1
1001
ACAD
1000
AcDbSavedByObjectVersion
1070
     0
  0
VISUALSTYLE
  5
597F
102
{ACAD_XDICTIONARY
360
6A6F
102
}
102
{ACAD_REACTORS
330
597A
102
}
330
597A
100
AcDbVisualStyle
  2
Basic
 70
     7
177
     2
291
     1
 71
     1
176
     1
 72
     0
176
     1
 73
     1
176
     1
 90
        0
176
     1
 40
0.6
176
     1
 41
30.0
176
     1
 63
     7
421
 16777215
176
     1
 74
     0
176
     1
 91
        4
176
     1
 64
     7
176
     1
 65
   257
176
     1
 75
     1
176
     1
175
     1
176
     1
 42
1.0
176
     1
 92
        8
176
     1
 66
     7
176
     1
 43
1.0
176
     1
 76
     1
176
     1
 77
     6
176
     1
 78
     2
176
     1
 67
     7
176
     1
 79
     5
176
     1
170
     0
176
     1
171
     0
176
     1
290
     0
176
     1
 93
        1
176
     1
 44
0.0
176
     1
173
     0
176
     1
1001
ACAD
1000
AcDbSavedByObjectVersion
1070
     0
  0
VISUALSTYLE
  5
5986
102
{ACAD_XDICTIONARY
360
6A7D
102
}
102
{ACAD_REACTORS
330
597A
102
}
330
597A
100
AcDbVisualStyle
  2
Brighten
 70
    12
177
     2
291
     1
 71
     2
176
     1
 72
     2
176
     1
 73
     0
176
     1
 90
        0
176
     1
 40
0.6
176
     1
 41
30.0
176
     1
 63
     7
421
 16777215
176
     1
 74
     1
176
     1
 91
        4
176
     1
 64
     7
176
     1
 65
   257
176
     1
 75
     1
176
     1
175
     1
176
     1
 42
1.0
176
     1
 92
        8
176
     1
 66
     7
176
     1
 43
1.0
176
     1
 76
     1
176
     1
 77
     6
176
     1
 78
     2
176
     1
 67
     7
176
     1
 79
     5
176
     1
170
     0
176
     1
171
     0
176
     1
290
     0
176
     1
 93
        1
176
     1
 44
50.0
176
     1
173
     0
176
     1
1001
ACAD
1000
AcDbSavedByObjectVersion
1070
     0
  0
VISUALSTYLE
  5
598A
102
{ACAD_XDICTIONARY
360
6A85
102
}
102
{ACAD_REACTORS
330
597A
102
}
330
597A
100
AcDbVisualStyle
  2
ColorChange
 70
    16
177
     2
291
     1
 71
     2
176
     1
 72
     2
176
     1
 73
     3
176
     1
 90
        0
176
     1
 40
0.6
176
     1
 41
30.0
176
     1
 63
     8
421
  8421504
176
     1
 74
     1
176
     1
 91
        4
176
     1
 64
     7
176
     1
 65
   257
176
     1
 75
     1
176
     1
175
     1
176
     1
 42
1.0
176
     1
 92
        8
176
     1
 66
     8
424
  8421504
176
     1
 43
1.0
176
     1
 76
     1
176
     1
 77
     6
176
     1
 78
     2
176
     1
 67
     7
176
     1
 79
     5
176
     1
170
     0
176
     1
171
     0
176
     1
290
     0
176
     1
 93
        1
176
     1
 44
0.0
176
     1
173
     0
176
     1
1001
ACAD
1000
AcDbSavedByObjectVersion
1070
     0
  0
VISUALSTYLE
  5
5983
102
{ACAD_XDICTIONARY
360
6A77
102
}
102
{ACAD_REACTORS
330
597A
102
}
330
597A
100
AcDbVisualStyle
  2
Conceptual
 70
     9
177
     2
291
     0
 71
     3
176
     1
 72
     2
176
     1
 73
     0
176
     1
 90
        0
176
     1
 40
0.6
176
     1
 41
30.0
176
     1
 63
     7
421
 16777215
176
     1
 74
     2
176
     1
 91
        2
176
     1
 64
     7
176
     1
 65
   257
176
     1
 75
     1
176
     1
175
     1
176
     1
 42
179.0
176
     1
 92
        8
176
     1
 66
     7
176
     1
 43
1.0
176
     1
 76
     1
176
     1
 77
     6
176
     1
 78
     2
176
     1
 67
     7
176
     1
 79
     3
176
     1
170
     0
176
     1
171
     0
176
     1
290
     0
176
     1
 93
        1
176
     1
 44
0.0
176
     1
173
     0
176
     1
1001
ACAD
1000
AcDbSavedByObjectVersion
1070
     0
  0
VISUALSTYLE
  5
5985
102
{ACAD_XDICTIONARY
360
6A7B
102
}
102
{ACAD_REACTORS
330
597A
102
}
330
597A
100
AcDbVisualStyle
  2
Dim
 70
    11
177
     2
291
     1
 71
     2
176
     1
 72
     2
176
     1
 73
     0
176
     1
 90
        0
176
     1
 40
0.6
176
     1
 41
30.0
176
     1
 63
     7
421
 16777215
176
     1
 74
     1
176
     1
 91
        4
176
     1
 64
     7
176
     1
 65
   257
176
     1
 75
     1
176
     1
175
     1
176
     1
 42
1.0
176
     1
 92
        8
176
     1
 66
     7
176
     1
 43
1.0
176
     1
 76
     1
176
     1
 77
     6
176
     1
 78
     2
176
     1
 67
     7
176
     1
 79
     5
176
     1
170
     0
176
     1
171
     0
176
     1
290
     0
176
     1
 93
        1
176
     1
 44
-50.0
176
     1
173
     0
176
     1
1001
ACAD
1000
AcDbSavedByObjectVersion
1070
     0
  0
VISUALSTYLE
  5
598D
102
{ACAD_XDICTIONARY
360
6A8B
102
}
102
{ACAD_REACTORS
330
597A
102
}
330
597A
100
AcDbVisualStyle
  2
EdgeColorOff
 70
    22
177
     2
291
     1
 71
     2
176
     0
 72
     2
176
     0
 73
     0
176
     0
 90
        0
176
     0
 40
0.6
176
     0
 41
30.0
176
     0
 63
     7
421
 16777215
176
     0
 74
     1
176
     0
 91
        4
176
     0
 64
     7
176
     0
 65
   257
176
     0
 75
     1
176
     0
175
     1
176
     0
 42
1.0
176
     0
 92
        8
176
     2
 66
     7
176
     0
 43
1.0
176
     0
 76
     1
176
     0
 77
     6
176
     0
 78
     2
176
     0
 67
     7
176
     0
 79
     5
176
     0
170
     0
176
     0
171
     0
176
     0
290
     0
176
     0
 93
        1
176
     0
 44
0.0
176
     0
173
     0
176
     0
1001
ACAD
1000
AcDbSavedByObjectVersion
1070
     0
  0
VISUALSTYLE
  5
5989
102
{ACAD_XDICTIONARY
360
6A83
102
}
102
{ACAD_REACTORS
330
597A
102
}
330
597A
100
AcDbVisualStyle
  2
Facepattern
 70
    15
177
     2
291
     1
 71
     2
176
     1
 72
     2
176
     1
 73
     0
176
     1
 90
        0
176
     1
 40
0.6
176
     1
 41
30.0
176
     1
 63
     7
421
 16777215
176
     1
 74
     1
176
     1
 91
        4
176
     1
 64
     7
176
     1
 65
   257
176
     1
 75
     1
176
     1
175
     1
176
     1
 42
1.0
176
     1
 92
        8
176
     1
 66
     7
176
     1
 43
1.0
176
     1
 76
     1
176
     1
 77
     6
176
     1
 78
     2
176
     1
 67
     7
176
     1
 79
     5
176
     1
170
     0
176
     1
171
     0
176
     1
290
     0
176
     1
 93
        1
176
     1
 44
0.0
176
     1
173
     0
176
     1
1001
ACAD
1000
AcDbSavedByObjectVersion
1070
     0
  0
VISUALSTYLE
  5
597B
102
{ACAD_XDICTIONARY
360
6A67
102
}
102
{ACAD_REACTORS
330
597A
102
}
330
597A
100
AcDbVisualStyle
  2
Flat
 70
     0
177
     2
291
     1
 71
     2
176
     1
 72
     1
176
     1
 73
     1
176
     1
 90
        2
176
     1
 40
0.6
176
     1
 41
30.0
176
     1
 63
     7
421
 16777215
176
     1
 74
     0
176
     1
 91
        4
176
     1
 64
     7
176
     1
 65
   257
176
     1
 75
     1
176
     1
175
     1
176
     1
 42
1.0
176
     1
 92
        8
176
     1
 66
     7
176
     1
 43
1.0
176
     1
 76
     1
176
     1
 77
     6
176
     1
 78
     2
176
     1
 67
     7
176
     1
 79
     5
176
     1
170
     0
176
     1
171
     0
176
     1
290
     0
176
     1
 93
       13
176
     1
 44
0.0
176
     1
173
     0
176
     1
1001
ACAD
1000
AcDbSavedByObjectVersion
1070
     0
  0
VISUALSTYLE
  5
597C
102
{ACAD_XDICTIONARY
360
6A69
102
}
102
{ACAD_REACTORS
330
597A
102
}
330
597A
100
AcDbVisualStyle
  2
FlatWithEdges
 70
     1
177
     2
291
     1
 71
     2
176
     1
 72
     1
176
     1
 73
     1
176
     1
 90
        2
176
     1
 40
0.6
176
     1
 41
30.0
176
     1
 63
     7
421
 16777215
176
     1
 74
     1
176
     1
 91
        4
176
     1
 64
     7
176
     1
 65
   257
176
     1
 75
     1
176
     1
175
     1
176
     1
 42
1.0
176
     1
 92
        0
176
     1
 66
   257
176
     1
 43
1.0
176
     1
 76
     1
176
     1
 77
     6
176
     1
 78
     2
176
     1
 67
     7
176
     1
 79
     5
176
     1
170
     0
176
     1
171
     0
176
     1
290
     0
176
     1
 93
       13
176
     1
 44
0.0
176
     1
173
     0
176
     1
1001
ACAD
1000
AcDbSavedByObjectVersion
1070
     0
  0
VISUALSTYLE
  5
597D
102
{ACAD_XDICTIONARY
360
6A6B
102
}
102
{ACAD_REACTORS
330
597A
102
}
330
597A
100
AcDbVisualStyle
  2
Gouraud
 70
     2
177
     2
291
     1
 71
     2
176
     1
 72
     2
176
     1
 73
     1
176
     1
 90
        2
176
     1
 40
0.6
176
     1
 41
30.0
176
     1
 63
     7
421
 16777215
176
     1
 74
     0
176
     1
 91
        4
176
     1
 64
     7
176
     1
 65
   257
176
     1
 75
     1
176
     1
175
     1
176
     1
 42
1.0
176
     1
 92
        0
176
     1
 66
     7
176
     1
 43
1.0
176
     1
 76
     1
176
     1
 77
     6
176
     1
 78
     2
176
     1
 67
     7
176
     1
 79
     5
176
     1
170
     0
176
     1
171
     0
176
     1
290
     0
176
     1
 93
       13
176
     1
 44
0.0
176
     1
173
     0
176
     1
1001
ACAD
1000
AcDbSavedByObjectVersion
1070
     0
  0
VISUALSTYLE
  5
597E
102
{ACAD_XDICTIONARY
360
6A6D
102
}
102
{ACAD_REACTORS
330
597A
102
}
330
597A
100
AcDbVisualStyle
  2
GouraudWithEdges
 70
     3
177
     2
291
     1
 71
     2
176
     1
 72
     2
176
     1
 73
     1
176
     1
 90
        2
176
     1
 40
0.6
176
     1
 41
30.0
176
     1
 63
     7
421
 16777215
176
     1
 74
     1
176
     1
 91
        4
176
     1
 64
     7
176
     1
 65
   257
176
     1
 75
     1
176
     1
175
     1
176
     1
 42
1.0
176
     1
 92
        0
176
     1
 66
   257
176
     1
 43
1.0
176
     1
 76
     1
176
     1
 77
     6
176
     1
 78
     2
176
     1
 67
     7
176
     1
 79
     5
176
     1
170
     0
176
     1
171
     0
176
     1
290
     0
176
     1
 93
       13
176
     1
 44
0.0
176
     1
173
     0
176
     1
1001
ACAD
1000
AcDbSavedByObjectVersion
1070
     0
  0
VISUALSTYLE
  5
6048
102
{ACAD_XDICTIONARY
360
6A8F
102
}
102
{ACAD_REACTORS
330
597A
102
}
330
597A
100
AcDbVisualStyle
  2
Hidden
 70
     6
177
     2
291
     0
 71
     1
176
     1
 72
     2
176
     1
 73
     2
176
     1
 90
        0
176
     1
 40
0.6
176
     1
 41
30.0
176
     1
 63
     7
421
 16777215
176
     1
 74
     2
176
     1
 91
        2
176
     1
 64
     7
176
     1
 65
   257
176
     1
 75
     2
176
     1
175
     1
176
     1
 42
40.0
176
     1
 92
        0
176
     1
 66
   257
176
     1
 43
1.0
176
     1
 76
     1
176
     1
 77
     6
176
     1
 78
     2
176
     1
 67
     7
176
     1
 79
     3
176
     1
170
     0
176
     1
171
     0
176
     1
290
     0
176
     1
 93
        1
176
     1
 44
0.0
176
     1
173
     0
176
     1
1001
ACAD
1000
AcDbSavedByObjectVersion
1070
     0
  0
VISUALSTYLE
  5
598B
102
{ACAD_XDICTIONARY
360
6A87
102
}
102
{ACAD_REACTORS
330
597A
102
}
330
597A
100
AcDbVisualStyle
  2
JitterOff
 70
    20
177
     2
291
     1
 71
     2
176
     0
 72
     2
176
     0
 73
     0
176
     0
 90
        0
176
     0
 40
0.6
176
     0
 41
30.0
176
     0
 63
     7
421
 16777215
176
     0
 74
     1
176
     0
 91
        4
176
     0
 64
     7
176
     0
 65
   257
176
     0
 75
     1
176
     0
175
     1
176
     0
 42
1.0
176
     0
 92
       10
176
     2
 66
     7
176
     0
 43
1.0
176
     0
 76
     1
176
     0
 77
     6
176
     0
 78
     2
176
     0
 67
     7
176
     0
 79
     5
176
     0
170
     0
176
     0
171
     0
176
     0
290
     0
176
     0
 93
        1
176
     0
 44
0.0
176
     0
173
     0
176
     0
1001
ACAD
1000
AcDbSavedByObjectVersion
1070
     0
  0
VISUALSTYLE
  5
5988
102
{ACAD_XDICTIONARY
360
6A81
102
}
102
{ACAD_REACTORS
330
597A
102
}
330
597A
100
AcDbVisualStyle
  2
Linepattern
 70
    14
177
     2
291
     1
 71
     2
176
     1
 72
     2
176
     1
 73
     0
176
     1
 90
        0
176
     1
 40
0.6
176
     1
 41
30.0
176
     1
 63
     7
421
 16777215
176
     1
 74
     1
176
     1
 91
        4
176
     1
 64
     7
176
     1
 65
   257
176
     1
 75
     7
176
     1
175
     7
176
     1
 42
1.0
176
     1
 92
        8
176
     1
 66
     7
176
     1
 43
1.0
176
     1
 76
     1
176
     1
 77
     6
176
     1
 78
     2
176
     1
 67
     7
176
     1
 79
     5
176
     1
170
     0
176
     1
171
     0
176
     1
290
     0
176
     1
 93
        1
176
     1
 44
0.0
176
     1
173
     0
176
     1
1001
ACAD
1000
AcDbSavedByObjectVersion
1070
     0
  0
VISUALSTYLE
  5
598C
102
{ACAD_XDICTIONARY
360
6A89
102
}
102
{ACAD_REACTORS
330
597A
102
}
330
597A
100
AcDbVisualStyle
  2
OverhangOff
 70
    21
177
     2
291
     1
 71
     2
176
     0
 72
     2
176
     0
 73
     0
176
     0
 90
        0
176
     0
 40
0.6
176
     0
 41
30.0
176
     0
 63
     7
421
 16777215
176
     0
 74
     1
176
     0
 91
        4
176
     0
 64
     7
176
     0
 65
   257
176
     0
 75
     1
176
     0
175
     1
176
     0
 42
1.0
176
     0
 92
        9
176
     2
 66
     7
176
     0
 43
1.0
176
     0
 76
     1
176
     0
 77
     6
176
     0
 78
     2
176
     0
 67
     7
176
     0
 79
     5
176
     0
170
     0
176
     0
171
     0
176
     0
290
     0
176
     0
 93
        1
176
     0
 44
0.0
176
     0
173
     0
176
     0
1001
ACAD
1000
AcDbSavedByObjectVersion
1070
     0
  0
VISUALSTYLE
  5
5984
102
{ACAD_XDICTIONARY
360
6A79
102
}
102
{ACAD_REACTORS
330
597A
102
}
330
597A
100
AcDbVisualStyle
  2
Realistic
 70
     8
177
     2
291
     0
 71
     2
176
     1
 72
     2
176
     1
 73
     0
176
     1
 90
        0
176
     1
 40
0.6
176
     1
 41
30.0
176
     1
 63
     7
421
 16777215
176
     1
 74
     1
176
     1
 91
        0
176
     1
 64
     7
176
     1
 65
   257
176
     1
 75
     1
176
     1
175
     1
176
     1
 42
1.0
176
     1
 92
        8
176
     1
 66
     8
424
  7895160
176
     1
 43
1.0
176
     1
 76
     1
176
     1
 77
     6
176
     1
 78
     2
176
     1
 67
     7
176
     1
 79
     5
176
     1
170
     0
176
     1
171
     0
176
     1
290
     0
176
     1
 93
       13
176
     1
 44
0.0
176
     1
173
     0
176
     1
1001
ACAD
1000
AcDbSavedByObjectVersion
1070
     0
  0
VISUALSTYLE
  5
604D
102
{ACAD_XDICTIONARY
360
6A99
102
}
102
{ACAD_REACTORS
330
597A
102
}
330
597A
100
AcDbVisualStyle
  2
Shaded
 70
    27
177
     2
291
     0
 71
     2
176
     1
 72
     2
176
     1
 73
     1
176
     1
 90
        2
176
     1
 40
0.6
176
     1
 41
30.0
176
     1
 63
     7
421
 16777215
176
     1
 74
     0
176
     1
 91
        4
176
     1
 64
     7
176
     1
 65
   257
176
     1
 75
     1
176
     1
175
     1
176
     1
 42
1.0
176
     1
 92
        8
176
     1
 66
   257
176
     1
 43
1.0
176
     1
 76
     1
176
     1
 77
     6
176
     1
 78
     2
176
     1
 67
     8
425
  7895160
176
     1
 79
     3
176
     1
170
     0
176
     1
171
     0
176
     1
290
     0
176
     1
 93
        5
176
     1
 44
0.0
176
     1
173
     0
176
     1
1001
ACAD
1000
AcDbSavedByObjectVersion
1070
     0
  0
VISUALSTYLE
  5
604C
102
{ACAD_XDICTIONARY
360
6A97
102
}
102
{ACAD_REACTORS
330
597A
102
}
330
597A
100
AcDbVisualStyle
  2
Shaded with edges
 70
    26
177
     2
291
     0
 71
     2
176
     1
 72
     2
176
     1
 73
     1
176
     1
 90
        2
176
     1
 40
0.6
176
     1
 41
30.0
176
     1
 63
     7
421
 16777215
176
     1
 74
     1
176
     1
 91
        2
176
     1
 64
     7
176
     1
 65
   257
176
     1
 75
     2
176
     1
175
     1
176
     1
 42
1.0
176
     1
 92
        8
176
     1
 66
   257
176
     1
 43
1.0
176
     1
 76
     1
176
     1
 77
     6
176
     1
 78
     2
176
     1
 67
     7
176
     1
 79
     3
176
     1
170
     0
176
     1
171
     0
176
     1
290
     0
176
     1
 93
        5
176
     1
 44
0.0
176
     1
173
     0
176
     1
1001
ACAD
1000
AcDbSavedByObjectVersion
1070
     0
  0
VISUALSTYLE
  5
6049
102
{ACAD_XDICTIONARY
360
6A91
102
}
102
{ACAD_REACTORS
330
597A
102
}
330
597A
100
AcDbVisualStyle
  2
Shades of Gray
 70
    23
177
     2
291
     0
 71
     2
176
     1
 72
     2
176
     1
 73
     3
176
     1
 90
        0
176
     1
 40
0.6
176
     1
 41
30.0
176
     1
 63
     7
421
 16777215
176
     1
 74
     2
176
     1
 91
        2
176
     1
 64
     7
176
     1
 65
     7
176
     1
 75
     1
176
     1
175
     1
176
     1
 42
40.0
176
     1
 92
        8
176
     1
 66
     7
176
     1
 43
1.0
176
     1
 76
     1
176
     1
 77
     6
176
     1
 78
     2
176
     1
 67
     7
176
     1
 79
     3
176
     1
170
     0
176
     1
171
     0
176
     1
290
     0
176
     1
 93
        1
176
     1
 44
0.0
176
     1
173
     0
176
     1
1001
ACAD
1000
AcDbSavedByObjectVersion
1070
     0
  0
VISUALSTYLE
  5
604A
102
{ACAD_XDICTIONARY
360
6A93
102
}
102
{ACAD_REACTORS
330
597A
102
}
330
597A
100
AcDbVisualStyle
  2
Sketchy
 70
    24
177
     2
291
     0
 71
     1
176
     1
 72
     2
176
     1
 73
     2
176
     1
 90
        0
176
     1
 40
0.6
176
     1
 41
30.0
176
     1
 63
     7
421
 16777215
176
     1
 74
     2
176
     1
 91
        2
176
     1
 64
     7
176
     1
 65
     7
176
     1
 75
     1
176
     1
175
     1
176
     1
 42
40.0
176
     1
 92
       11
176
     1
 66
     7
176
     1
 43
1.0
176
     1
 76
     1
176
     1
 77
     6
176
     1
 78
     2
176
     1
 67
     7
176
     1
 79
     6
176
     1
170
     0
176
     1
171
     0
176
     1
290
     0
176
     1
 93
        1
176
     1
 44
0.0
176
     1
173
     0
176
     1
1001
ACAD
1000
AcDbSavedByObjectVersion
1070
     0
  0
VISUALSTYLE
  5
5987
102
{ACAD_XDICTIONARY
360
6A7F
102
}
102
{ACAD_REACTORS
330
597A
102
}
330
597A
100
AcDbVisualStyle
  2
Thicken
 70
    13
177
     2
291
     1
 71
     2
176
     1
 72
     2
176
     1
 73
     0
176
     1
 90
        0
176
     1
 40
0.6
176
     1
 41
30.0
176
     1
 63
     7
421
 16777215
176
     1
 74
     1
176
     1
 91
        4
176
     1
 64
     7
176
     1
 65
   257
176
     1
 75
     1
176
     1
175
     1
176
     1
 42
1.0
176
     1
 92
       12
176
     1
 66
     7
176
     1
 43
1.0
176
     1
 76
     1
176
     1
 77
     6
176
     1
 78
     2
176
     1
 67
     7
176
     1
 79
     5
176
     1
170
     0
176
     1
171
     0
176
     1
290
     0
176
     1
 93
        1
176
     1
 44
0.0
176
     1
173
     0
176
     1
1001
ACAD
1000
AcDbSavedByObjectVersion
1070
     0
  0
VISUALSTYLE
  5
6047
102
{ACAD_XDICTIONARY
360
6A8D
102
}
102
{ACAD_REACTORS
330
597A
102
}
330
597A
100
AcDbVisualStyle
  2
Wireframe
 70
     5
177
     2
291
     0
 71
     0
176
     1
 72
     2
176
     1
 73
     0
176
     1
 90
        0
176
     1
 40
0.6
176
     1
 41
30.0
176
     1
 63
     7
421
 16777215
176
     1
 74
     1
176
     1
 91
        4
176
     1
 64
     7
176
     1
 65
   257
176
     1
 75
     1
176
     1
175
     1
176
     1
 42
1.0
176
     1
 92
        0
176
     1
 66
   257
176
     1
 43
1.0
176
     1
 76
     1
176
     1
 77
     6
176
     1
 78
     2
176
     1
 67
     7
176
     1
 79
     3
176
     1
170
     0
176
     1
171
     0
176
     1
290
     0
176
     1
 93
        1
176
     1
 44
0.0
176
     1
173
     0
176
     1
1001
ACAD
1000
AcDbSavedByObjectVersion
1070
     0
  0
VISUALSTYLE
  5
604B
102
{ACAD_XDICTIONARY
360
6A95
102
}
102
{ACAD_REACTORS
330
597A
102
}
330
597A
100
AcDbVisualStyle
  2
X-Ray
 70
    25
177
     2
291
     0
 71
     2
176
     1
 72
     2
176
     1
 73
     1
176
     1
 90
        1
176
     1
 40
0.5
176
     1
 41
30.0
176
     1
 63
     7
421
 16777215
176
     1
 74
     1
176
     1
 91
        0
176
     1
 64
     7
176
     1
 65
   257
176
     1
 75
     1
176
     1
175
     1
176
     1
 42
1.0
176
     1
 92
        8
176
     1
 66
     7
176
     1
 43
1.0
176
     1
 76
     1
176
     1
 77
     6
176
     1
 78
     2
176
     1
 67
     7
176
     1
 79
     3
176
     1
170
     0
176
     1
171
     0
176
     1
290
     0
176
     1
 93
       13
176
     1
 44
0.0
176
     1
173
     0
176
     1
1001
ACAD
1000
AcDbSavedByObjectVersion
1070
     0
  0
DICTIONARYVAR
  5
5EA6
102
{ACAD_REACTORS
330
369C
102
}
330
369C
100
DictionaryVariables
280
     0
  1
1:1
  0
DICTIONARYVAR
  5
5EA4
102
{ACAD_REACTORS
330
369C
102
}
330
369C
100
DictionaryVariables
280
     0
  1
STANDARD
  0
DICTIONARYVAR
  5
5EA3
102
{ACAD_REACTORS
330
369C
102
}
330
369C
100
DictionaryVariables
280
     0
  1
STANDARD
  0
DICTIONARYVAR
  5
6A5A
102
{ACAD_REACTORS
330
369C
102
}
330
369C
100
DictionaryVariables
280
     0
  1
Imperial24
  0
DICTIONARYVAR
  5
6A5B
102
{ACAD_REACTORS
330
369C
102
}
330
369C
100
DictionaryVariables
280
     0
  1
Imperial24
  0
DICTIONARYVAR
  5
5EA8
102
{ACAD_REACTORS
330
369C
102
}
330
369C
100
DictionaryVariables
280
     0
  1
1
  0
DICTIONARYVAR
  5
5EA9
102
{ACAD_REACTORS
330
369C
102
}
330
369C
100
DictionaryVariables
280
     0
  1
15
  0
DICTIONARYVAR
  5
5EA7
102
{ACAD_REACTORS
330
369C
102
}
330
369C
100
DictionaryVariables
280
     0
  1
0
  0
DICTIONARYVAR
  5
5EA5
102
{ACAD_REACTORS
330
369C
102
}
330
369C
100
DictionaryVariables
280
     0
  1
0
  0
DICTIONARYVAR
  5
369D
102
{ACAD_REACTORS
330
369C
102
}
330
369C
100
DictionaryVariables
280
     0
  1
96
  0
DICTIONARY
  5
6A66
102
{ACAD_REACTORS
330
6A64
102
}
330
6A64
100
AcDbDictionary
281
     1
  0
DICTIONARY
  5
6A65
102
{ACAD_REACTORS
330
6A64
102
}
330
6A64
100
AcDbDictionary
281
     1
  3
961082224
350
6A5F
  3
961082240
350
6A60
  3
961082256
350
6A61
  3
961082272
350
6A62
  3
961082288
350
6A63
  0
DICTIONARY
  5
60A8
102
{ACAD_REACTORS
330
60A0
102
}
330
60A0
100
AcDbDictionary
281
     1
  0
DICTIONARY
  5
6A9D
330
6051
100
AcDbDictionary
280
     1
281
     1
  3
ACAD_XREC_ROUNDTRIP
360
6A9E
  0
DICTIONARY
  5
59C9
330
59B7
100
AcDbDictionary
280
     1
281
     1
  3
ADSK_XREC_LAYOUTTHUMBNAIL
360
59CA
  0
DICTIONARY
  5
596B
330
596A
100
AcDbDictionary
280
     1
281
     1
  3
BUMPTILE
360
596D
  3
DIFFUSETILE
360
596C
  3
OPACITYTILE
360
5970
  3
REFLECTIONTILE
360
596F
  3
REFRACTIONTILE
360
5971
  3
SPECULARTILE
360
596E
  0
DICTIONARY
  5
5963
330
5962
100
AcDbDictionary
280
     1
281
     1
  3
BUMPTILE
360
5965
  3
DIFFUSETILE
360
5964
  3
OPACITYTILE
360
5968
  3
REFLECTIONTILE
360
5967
  3
REFRACTIONTILE
360
5969
  3
SPECULARTILE
360
5966
  0
DICTIONARY
  5
5973
330
5972
100
AcDbDictionary
280
     1
281
     1
  3
BUMPTILE
360
5975
  3
DIFFUSETILE
360
5974
  3
OPACITYTILE
360
5978
  3
REFLECTIONTILE
360
5977
  3
REFRACTIONTILE
360
5979
  3
SPECULARTILE
360
5976
  0
DICTIONARY
  5
6A9B
330
604F
100
AcDbDictionary
280
     1
281
     1
  3
ACAD_XREC_ROUNDTRIP
360
6A9C
  0
DICTIONARY
  5
6A5C
330
5990
100
AcDbDictionary
280
     1
281
     1
  3
ACAD_ROUNDTRIP_2008_TABLESTYLE_CELLSTYLEMAP
360
6A5D
  0
DICTIONARY
  5
6A71
330
5980
100
AcDbDictionary
280
     1
281
     1
  3
ACAD_XREC_ROUNDTRIP
360
6A72
  0
DICTIONARY
  5
6A75
330
5982
100
AcDbDictionary
280
     1
281
     1
  3
ACAD_XREC_ROUNDTRIP
360
6A76
  0
DICTIONARY
  5
6A73
330
5981
100
AcDbDictionary
280
     1
281
     1
  3
ACAD_XREC_ROUNDTRIP
360
6A74
  0
DICTIONARY
  5
6A6F
330
597F
100
AcDbDictionary
280
     1
281
     1
  3
ACAD_XREC_ROUNDTRIP
360
6A70
  0
DICTIONARY
  5
6A7D
330
5986
100
AcDbDictionary
280
     1
281
     1
  3
ACAD_XREC_ROUNDTRIP
360
6A7E
  0
DICTIONARY
  5
6A85
330
598A
100
AcDbDictionary
280
     1
281
     1
  3
ACAD_XREC_ROUNDTRIP
360
6A86
  0
DICTIONARY
  5
6A77
330
5983
100
AcDbDictionary
280
     1
281
     1
  3
ACAD_XREC_ROUNDTRIP
360
6A78
  0
DICTIONARY
  5
6A7B
330
5985
100
AcDbDictionary
280
     1
281
     1
  3
ACAD_XREC_ROUNDTRIP
360
6A7C
  0
DICTIONARY
  5
6A8B
330
598D
100
AcDbDictionary
280
     1
281
     1
  3
ACAD_XREC_ROUNDTRIP
360
6A8C
  0
DICTIONARY
  5
6A83
330
5989
100
AcDbDictionary
280
     1
281
     1
  3
ACAD_XREC_ROUNDTRIP
360
6A84
  0
DICTIONARY
  5
6A67
330
597B
100
AcDbDictionary
280
     1
281
     1
  3
ACAD_XREC_ROUNDTRIP
360
6A68
  0
DICTIONARY
  5
6A69
330
597C
100
AcDbDictionary
280
     1
281
     1
  3
ACAD_XREC_ROUNDTRIP
360
6A6A
  0
DICTIONARY
  5
6A6B
330
597D
100
AcDbDictionary
280
     1
281
     1
  3
ACAD_XREC_ROUNDTRIP
360
6A6C
  0
DICTIONARY
  5
6A6D
330
597E
100
AcDbDictionary
280
     1
281
     1
  3
ACAD_XREC_ROUNDTRIP
360
6A6E
  0
DICTIONARY
  5
6A8F
330
6048
100
AcDbDictionary
280
     1
281
     1
  3
ACAD_XREC_ROUNDTRIP
360
6A90
  0
DICTIONARY
  5
6A87
330
598B
100
AcDbDictionary
280
     1
281
     1
  3
ACAD_XREC_ROUNDTRIP
360
6A88
  0
DICTIONARY
  5
6A81
330
5988
100
AcDbDictionary
280
     1
281
     1
  3
ACAD_XREC_ROUNDTRIP
360
6A82
  0
DICTIONARY
  5
6A89
330
598C
100
AcDbDictionary
280
     1
281
     1
  3
ACAD_XREC_ROUNDTRIP
360
6A8A
  0
DICTIONARY
  5
6A79
330
5984
100
AcDbDictionary
280
     1
281
     1
  3
ACAD_XREC_ROUNDTRIP
360
6A7A
  0
DICTIONARY
  5
6A99
330
604D
100
AcDbDictionary
280
     1
281
     1
  3
ACAD_XREC_ROUNDTRIP
360
6A9A
  0
DICTIONARY
  5
6A97
330
604C
100
AcDbDictionary
280
     1
281
     1
  3
ACAD_XREC_ROUNDTRIP
360
6A98
  0
DICTIONARY
  5
6A91
330
6049
100
AcDbDictionary
280
     1
281
     1
  3
ACAD_XREC_ROUNDTRIP
360
6A92
  0
DICTIONARY
  5
6A93
330
604A
100
AcDbDictionary
280
     1
281
     1
  3
ACAD_XREC_ROUNDTRIP
360
6A94
  0
DICTIONARY
  5
6A7F
330
5987
100
AcDbDictionary
280
     1
281
     1
  3
ACAD_XREC_ROUNDTRIP
360
6A80
  0
DICTIONARY
  5
6A8D
330
6047
100
AcDbDictionary
280
     1
281
     1
  3
ACAD_XREC_ROUNDTRIP
360
6A8E
  0
DICTIONARY
  5
6A95
330
604B
100
AcDbDictionary
280
     1
281
     1
  3
ACAD_XREC_ROUNDTRIP
360
6A96
  0
XRECORD
  5
6A5F
102
{ACAD_REACTORS
330
6A65
102
}
330
6A65
100
AcDbXrecord
280
     1
  1
AcDb_Thumbnail_Schema
102
{ATTRRECORD
341
6A60
  2
AcDbDs::TreatedAsObjectData
280
     1
291
     1
102
ATTRRECORD}
102
{ATTRRECORD
341
6A61
  2
AcDbDs::Legacy
280
     1
291
     1
102
ATTRRECORD}
  2
AcDbDs::ID
280
    10
 91
        8
102
{ATTRRECORD
341
6A62
  2
AcDs:Indexable
280
     1
291
     1
102
ATTRRECORD}
102
{ATTRRECORD
341
6A63
  2
AcDbDs::HandleAttribute
280
     7
282
     1
102
ATTRRECORD}
  2
Thumbnail_Data
280
    15
 91
        0
  0
XRECORD
  5
6A60
102
{ACAD_REACTORS
330
6A65
102
}
330
6A65
100
AcDbXrecord
280
     1
  1
AcDbDs::TreatedAsObjectDataSchema
  2
AcDbDs::TreatedAsObjectData
280
     1
 91
        0
  0
XRECORD
  5
6A61
102
{ACAD_REACTORS
330
6A65
102
}
330
6A65
100
AcDbXrecord
280
     1
  1
AcDbDs::LegacySchema
  2
AcDbDs::Legacy
280
     1
 91
        0
  0
XRECORD
  5
6A62
102
{ACAD_REACTORS
330
6A65
102
}
330
6A65
100
AcDbXrecord
280
     1
  1
AcDbDs::IndexedPropertySchema
  2
AcDs:Indexable
280
     1
 91
        0
  0
XRECORD
  5
6A63
102
{ACAD_REACTORS
330
6A65
102
}
330
6A65
100
AcDbXrecord
280
     1
  1
AcDbDs::HandleAttributeSchema
  2
AcDbDs::HandleAttribute
280
     7
 91
        1
284
     1
  0
XRECORD
  5
6A9E
102
{ACAD_REACTORS
330
6A9D
102
}
330
6A9D
100
AcDbXrecord
280
     1
102
DISPLAYNAME
  1
Imperial24
102
FLAGS
 90
        0
  0
XRECORD
  5
59CA
102
{ACAD_REACTORS
330
59C9
102
}
330
59C9
100
AcDbXrecord
280
     1
310
280000000001000088000000010008000000000000880000000000000000000000010000000000000000000000000000FFFFFF000000000000000000000000000000000000000000000000000000000000000000330000006600000099000000CC000000FF00000000330000333300006633000099330000CC330000FF3300
310
0000660000336600006666000099660000CC660000FF66000000990000339900006699000099990000CC990000FF99000000CC000033CC000066CC000099CC0000CCCC0000FFCC000000FF000033FF000066FF000099FF0000CCFF0000FFFF000000003300330033006600330099003300CC003300FF003300003333003333
310
33006633330099333300CC333300FF33330000663300336633006666330099663300CC663300FF66330000993300339933006699330099993300CC993300FF99330000CC330033CC330066CC330099CC3300CCCC3300FFCC330000FF330033FF330066FF330099FF3300CCFF3300FFFF330000006600330066006600660099
310
006600CC006600FF00660000336600333366006633660099336600CC336600FF33660000666600336666006666660099666600CC666600FF66660000996600339966006699660099996600CC996600FF99660000CC660033CC660066CC660099CC6600CCCC6600FFCC660000FF660033FF660066FF660099FF6600CCFF6600
310
FFFF660000009900330099006600990099009900CC009900FF00990000339900333399006633990099339900CC339900FF33990000669900336699006666990099669900CC669900FF66990000999900339999006699990099999900CC999900FF99990000CC990033CC990066CC990099CC9900CCCC9900FFCC990000FF99
310
0033FF990066FF990099FF9900CCFF9900FFFF99000000CC003300CC006600CC009900CC00CC00CC00FF00CC000033CC003333CC006633CC009933CC00CC33CC00FF33CC000066CC003366CC006666CC009966CC00CC66CC00FF66CC000099CC003399CC006699CC009999CC00CC99CC00FF99CC0000CCCC0033CCCC0066CC
310
CC0099CCCC00CCCCCC00FFCCCC0000FFCC0033FFCC0066FFCC0099FFCC00CCFFCC00FFFFCC000000FF003300FF006600FF009900FF00CC00FF00FF00FF000033FF003333FF006633FF009933FF00CC33FF00FF33FF000066FF003366FF006666FF009966FF00CC66FF00FF66FF000099FF003399FF006699FF009999FF00CC
310
99FF00FF99FF0000CCFF0033CCFF0066CCFF0099CCFF00CCCCFF00FFCCFF0000FFFF0033FFFF0066FFFF0099FFFF00CCFFFF00FFFFFF00000000000D0D0D001A1A1A00282828003535350043434300505050005D5D5D006B6B6B00787878008686860093939300A1A1A100AEAEAE00BBBBBB00C9C9C900D6D6D600E4E4E400
310
F1F1F100FFFFFF0000000000000000000000000000000000000000000000000000000000000000000000000000000000E2E2E2E2E2E2E2E2E2E2E2E2E2E2E2E2E2E2E2E2E2E2E2E2E2E2E2E2E2E2E2E2E2E2E2E2E2E2E2E2E2E2E2E2E2E2E2E2E2E2E2E2E2E2DCDCDCDCDCDCDCDCDCDCDCDCDCDCDCDCDCDCDCDCDCDCDCDCDC
310
DCDCDCDCDCDCDCDCDCDCDCDCDCDCDCDCDCDCDCDCDCDCDCDCDCDCDCDCDCDCDCDCE2E2E2E2E2E2E2E2E2E2E2E2E2E2E2E2E2E2E2E2E2E2E2E2E2E2E2E2E2E2E2E2E2E2E2E2E2E2E2E2E2E2E2E2E2E2E2E2E2E2E2E2E2E2E2E2E2E2E2E2E2E2E2E2E2E2E2E2E2E2E2E2E2E2E2E2E2E2E2E2E2E2E2E2E2E2E2E2E2E2E2E2E2E2E2
310
E2E2E2E2E2E2E2E2E2E2E2E2E2E2E2E2E2E2E2E2E2E2E2E2E2E2E2E2E2E2E2E2E2E2E2E2E2E2E2E2E2E2E2E2E2E2E2E2E2E2E2E2E2E2E2E2E2E2E2E2E2E2E2E2E2E2E2E2E2E2E2E2E2E2E2E2E2E2E2E2E2E2E2E2E2E2E2E2E2E2E2E2E2E2E2E2E2E2E2E2E2E2E2E2DCDCDCDCDCDCDCDCDCDCDCDCDCDCDCDCDCDCDCDCDCDCDC
310
DCDCDCDCDCDCDCDCDCDCDCDCDCDCDCDCDCDCDCDCDCDCDCDCDCDCDCDCDCDCDCDCDCDCE2E2E2E2E2E2E2E2E2E2E2E2E2E2E2E2E2E2E2E2E2E2E2E2E2E2E2E2E2E2E2E2E2E2E2E2E2E2E2E2E2E2E2E2E2E2E2E2E2E2E2E2E2E2E2E2E2E2E2E2E2E2E2E2E2E2E2E2E2E2E2E2E2E2E2E2E2E2E2E2E2E2E2E2E2E2E2E2E2E2E2E2E2
310
E2E2E2E2E2E2E2E2E2E2E2E2E2E2E2E2E2E2E2E2E2E2E2E2E2E2E2E2E2E2E2E2E2E2E2E2E2E2E2E2E2E2E2E2E2E2E2E2E2E2E2E2E2E2E2E2E2E2E2E2E2E2E2E2E2E2E2E2E2E2E2E2E2E2E2E2E2E2E2E2E2E2E2E2E2E2E2E2E2E2E2E2E2E2E2E2E2E2E2E2E2E2E2E2E2E2DCDCDCDCDCDCDCDCDCDCDCDCDCDCDCDCDCDCDCDCDC
310
DCDCDCDCDCDCDCDCDCDCDCDCDCDCDCDCDCDCDCDCDCDCDCDCDCDCDCDCDCDCDCDCDCDCDCDCE2E2E2E2E2E2E2E2E2E2E2E2E2E2E2E2E2E2E2E2E2E2E2E2E2E2E2E2E2E2E2E2E2E2E2E2E2E2E2E2E2E2E2E2E2E2E2E2E2E2E2E2E2E2E2E2E2E2E2E2E2E2E2E2E2E2E2E2E2E2E2E2E2E2E2E2E2E2E2E2E2E2E2E2E2E2E2E2E2E2E2
310
E2E2E2E2E2E2E2E2E2E2E2E2E2E2E2E2E2E2E2E2E2E2E2E2E2E2E2E2E2E2E2E2E2E2E2E2E2E2E2E2E2E2E2E2E2E2E2E2E2E2E2E2E2E2E2E2E2E2E2E2E2E2E2E2E2E2E2E2E2E2E2E2E2E2E2E2E2E2E2E2E2E2E2E2E2E2E2E2E2E2E2E2E2E2E2E2E2E2E2E2E2E2E2E2E2E2E2E2DCE2E2E2E2E2E2DCE2E2E2E2E2E2E2DCE2E2E2
310
E2E2E2DCE2E2E2E2E2E2E2DCE2E2E2E2E2E2E2E2E2E2E2E2E2E2E2E2E2E2E2E2E2E2E2E2E2DCE2E2E2E2E2E2E2E2E2E2E2E2E2E2E2E2E2E2E2E2E2E2E2E2E2E2E2E2E2E2E2E2E2E2E2E2E2E2E2E2E2E2E2E2E2E2E2E2E2E2E2E2E2E2E2E2E2E2E2E2E2E2E2E2E2E2E2E2E2E2E2E2E2E2E2E2E2E2E2E2E2E2E2E2E2E2E2E2E2
310
E2E2E2E2E2E2E2E2E2E2E2E2E2E2E2E2E2E2E2E2E2E2E2E2E2E2E2E2E2E2E2E2E2E2E2E2E2E2E2E2E2E2E2E2E2E2E2E2E2E2E2E2E2E2E2E2E2E2E2E2E2E2E2E2E2E2E2E2E2E2E2E2E2E2E2E2E2E2E2E2E2E2E2E2E2E2E2E2E2E2E2E2E2E2E2E2E2E2E2E2E2E2E2E2E2E2E2E2E2E2DCDCDCDCDCDCDCDCDCDCDCDCDCDCDCDCDC
310
DCDCDCDCDCDCDCDCDCDCDCDCDCDCDCDCDCDCDCDCDCDCDCDCDCDCDCDCDCDCDCDCDCDCDCDCDCDCDCDCE2E2E2E2E2E2E2E2E2E2E2E2E2E2E2E2E2E2E2E2E2E2E2E2E2E2E2E2E2E2E2E2E2E2E2E2E2E2E2E2E2E2E2E2E2E2E2E2E2E2E2E2E2E2E2E2E2E2E2E2E2E2E2E2E2E2E2E2E2E2E2E2E2E2E2E2E2E2E2E2E2E2E2E2E2E2E2
310
E2E2E2E2E2E2E2E2E2E2E2E2E2E2E2E2E2E2E2E2E2E2E2E2E2E2E2E2E2E2E2E2E2E2E2E2E2E2E2E2E2E2E2E2E2E2E2E2E2E2E2E2E2E2E2E2E2E2E2E2E2E2E2E2E2E2E2E2E2E2E2E2E2E2E2E2E2E2E2E2E2E2E2E2E2E2E2E2E2E2E2E2E2E2E2E2E2E2E2E2E2E2E2E2E2E2E2E2E2E2E2E2DCE2E2E2E2E2E2E2E2E2E2E2E2E2E2
310
DCE2E2E2E2E2E2E2E2E2E2E2E2E2E2DCE2E2E2E2E2E2E2E2E2E2E2E2E2E2E2E2E2E2E2E2E2E2E2E2E2DCE2E2E2E2E2E2E2E2E2E2E2E2E2E2E2E2E2E2E2E2E2E2E2E2E2E2E2E2E2E2E2E2E2E2E2E2E2E2E2E2E2E2E2E2E2E2E2E2E2E2E2E2E2E2E2E2E2E2E2E2E2E2E2E2E2E2E2E2E2E2E2E2E2E2E2E2E2E2E2E2E2E2E2E2E2
310
E2E2E2E2E2E2E2E2E2E2E2E2E2E2E2E2E2E2E2E2E2E2E2E2E2E2E2E2E2E2E2E2E2E2E2E2E2E2E2E2E2E2E2E2E2E2E2E2E2E2E2E2E2E2E2E2E2E2E2E2E2E2E2E2E2E2E2E2E2E2E2E2E2E2E2E2E2E2E2E2E2E2E2E2E2E2E2E2E2E2E2E2E2E2E2E2E2E2E2E2E2E2E2E2E2E2E2E2E2E2E2E2E2E2DCDCDCDCDCDCDCDCDCDCDCDCDC
310
DCDCDCDCDCDCDCDCDCDCDCDCDCDCDCDCDCDCDCDCDCDCDCDCDCDCDCDCDCDCDCDCDCDCDCDCDCDCDCDCDCDCDCDCE2E2E2E2E2E2E2E2E2E2E2E2E2E2E2E2E2E2E2E2E2E2E2E2E2E2E2E2E2E2E2E2E2E2E2E2E2E2E2E2E2E2E2E2E2E2E2E2E2E2E2E2E2E2E2E2E2E2E2E2E2E2E2E2E2E2E2E2E2E2E2E2E2E2E2E2E2E2E2E2E2E2E2
310
E2E2E2E2E2E2E2E2E2E2E2E2E2E2E2E2E2E2E2E2E2E2E2E2E2E2E2E2E2E2E2E2E2E2E2E2E2E2E2E2E2E2E2E2E2E2E2E2E2E2E2E2E2E2E2E2E2E2E2E2E2E2E2E2E2E2E2E2E2E2E2E2E2E2E2E2E2E2E2E2E2E2E2E2E2E2E2E2E2E2E2E2E2E2E2E2E2E2E2E2E2E2E2E2E2E2E2E2E2E2E2E2E2E2E2E2DCDCDCDCDCDCDCDCDCDCDC
310
DCDCDCDCDCDCDCDCDCDCDCDCDCDCDCDCDCDCDCDCDCDCDCDCDCDCDCDCDCDCDCDCDCDCDCDCDCDCDCDCDCDCDCDCDCDCE2E2E2E2E2E2E2E2E2E2E2E2E2E2E2E2E2E2E2E2E2E2E2E2E2E2E2E2E2E2E2E2E2E2E2E2E2E2E2E2E2E2E2E2E2E2E2E2E2E2E2E2E2E2E2E2E2E2E2E2E2E2E2E2E2E2E2E2E2E2E2E2E2E2E2E2E2E2E2E2E2
310
E2E2E2E2E2E2E2E2E2E2E2E2E2E2E2E2E2E2E2E2E2E2E2E2E2E2E2E2E2E2E2E2E2E2E2E2E2E2E2E2E2E2E2E2E2E2E2E2E2E2E2E2E2E2E2E2E2E2E2E2E2E2E2E2E2E2E2E2E2E2E2E2E2E2E2E2E2E2E2E2E2E2E2E2E2E2E2E2E2E2E2E2E2E2E2E2E2E2E2E2E2E2E2E2E2E2E2E2E2E2E2E2E2E2E2E2E2E2DCDCDCDCDCDCE2E2E2
310
E2E2E2E2E2E2E2E2E2E2E2E2E2E2E2E2E2E2E2E2E2DCDCDCDCE2E2E2E2E2E2E2E2E2E2E2E2E2E2E2E2E2E2E2E2E2E2DCE2E2E2E2E2E2E2E2E2E2E2E2E2E2E2E2E2E2E2E2E2E2E2E2E2E2E2E2E2E2E2E2E2E2E2E2E2E2E2E2E2E2E2E2E2E2E2E2E2E2E2E2E2E2E2E2E2E2E2E2E2E2E2E2E2E2E2E2E2E2E2E2E2E2E2E2E2E2E2
310
E2E2E2E2E2E2E2E2E2E2E2E2E2E2E2E2E2E2E2E2E2E2E2E2E2E2E2E2E2E2E2E2E2E2E2E2E2E2E2E2E2E2E2E2E2E2E2E2E2E2E2E2E2E2E2E2E2E2E2E2E2E2E2E2E2E2E2E2E2E2E2E2E2E2E2E2E2E2E2E2E2E2E2E2E2E2E2E2E2E2E2E2E2E2E2E2E2E2E2E2E2E2E2E2E2E2E2E2E2E2E2E2E2E2E2E2E2E2E2E2DCDCDCDCDCDCDC
310
DCDCDCDCDCDCDCDCDCDCDCDCDCDCDCDCDCDCDCDCDCDCDCDCDCDCDCDCDCDCDCDCDCDCDCDCDCDCDCDCDCDCDCDCDCDCDCDCDCDCE2E2E2E2E2E2E2E2E2E2E2E2E2E2E2E2E2E2E2E2E2E2E2E2E2E2E2E2E2E2E2E2E2E2E2E2E2E2E2E2E2E2E2E2E2E2E2E2E2E2E2E2E2E2E2E2E2E2E2E2E2E2E2E2E2E2E2E2E2E2E2E2E2E2E2E2E2
310
E2E2E2E2E2E2E2E2E2E2E2E2E2E2E2E2E2E2E2E2E2E2E2E2E2E2E2E2E2E2E2E2E2E2E2E2E2E2E2E2E2E2E2E2E2E2E2E2E2E2E2E2E2E2E2E2E2E2E2E2E2E2E2E2E2E2E2E2E2E2E2E2E2E2E2E2E2E2E2E2E2E2E2E2E2E2E2E2E2E2E2E2E2E2E2E2E2E2E2E2E2E2E2E2E2E2E2E2E2E2E2E2E2E2E2E2E2E2E2E2E2E2DCE2E2E2E2
310
E2E2E2E2E2E2E2E2E2E2E2E2E2E2E2E2E2E2E2E2E2E2E2E2E2E2E2E2E2E2E2E2E2E2E2E2E2E2E2E2E2E2E2E2E2E2E2E2E2E2E2DCE2E2E2E2E2E2E2E2E2E2E2E2E2E2E2E2E2E2E2E2E2E2E2E2E2E2E2E2E2E2E2E2E2E2E2E2E2E2E2E2E2E2E2E2E2E2E2E2E2E2E2E2E2E2E2E2E2E2E2E2E2E2E2E2E2E2E2E2E2E2E2E2E2E2E2
310
E2E2E2E2E2E2E2E2E2E2E2E2E2E2E2E2E2E2E2E2E2E2E2E2E2E2E2E2E2E2E2E2E2E2E2E2E2E2E2E2E2E2E2E2E2E2E2E2E2E2E2E2E2E2E2E2E2E2E2E2E2E2E2E2E2E2E2E2E2E2E2E2E2E2E2E2E2E2E2E2E2E2E2E2E2E2E2E2E2E2E2E2E2E2E2E2E2E2E2E2E2E2E2E2E2E2E2E2E2E2E2E2E2E2E2E2E2E2E2E2E2E2E2E2DCDCDC
310
DCDCDCDCDCDCDCDCDCDCDCDCDCDCDCDCDCDCDCDCDCDCDCDCDCDCDCDCDCDCDCDCDCDCDCDCDCDCDCDCDCDCDCDCDCDCDCDCDCDCDCDCDCDCE2E2E2E2E2E2E2E2E2E2E2E2E2E2E2E2E2E2E2E2E2E2E2E2E2E2E2E2E2E2E2E2E2E2E2E2E2E2E2E2E2E2E2E2E2E2E2E2E2E2E2E2E2E2E2E2E2E2E2E2E2E2E2E2E2E2E2E2E2E2E2E2E2
310
E2E2E2E2E2E2E2E2E2E2E2E2E2E2E2E2E2E2E2E2E2E2E2E2E2E2E2E2E2E2E2E2E2E2E2E2E2E2E2E2E2E2E2E2E2E2E2E2E2E2E2E2E2E2E2E2E2E2E2E2E2E2E2E2E2E2E2E2E2E2E2E2E2E2E2E2E2E2E2E2E2E2E2E2E2E2E2E2E2E2E2E2E2E2E2E2E2E2E2E2E2E2E2E2E2E2E2E2E2E2E2E2E2E2E2E2E2E2E2E2E2E2E2E2E2E2DC
310
DCDCDCDCDCDCDCDCDCDCDCDCDCDCDCDCDCDCDCDCDCDCDCDCDCDCDCDCDCDCDCDCDCDCDCDCDCDCDCDCDCDCDCDCDCDCDCDCDCDCDCDCDCDCDCDCE2E2E2E2E2E2E2E2E2E2E2E2E2E2E2E2E2E2E2E2E2E2E2E2E2E2E2E2E2E2E2E2E2E2E2E2E2E2E2E2E2E2E2E2E2E2E2E2E2E2E2E2E2E2E2E2E2E2E2E2E2E2E2E2E2E2E2E2E2E2E2
310
E2E2E2E2E2E2E2E2E2E2E2E2E2E2E2E2E2E2E2E2E2E2E2E2E2E2E2E2E2E2E2E2E2E2E2E2E2E2E2E2E2E2E2E2E2E2E2E2E2E2E2E2E2E2E2E2E2E2E2E2E2E2E2E2E2E2E2E2E2E2E2E2E2E2E2E2E2E2E2E2E2E2E2E2E2E2E2E2E2E2E2E2E2E2E2E2E2E2E2E2E2E2E2E2E2E2E2E2E2E2E2E2E2E2E2E2E2E2E2E2E2E2E2E2E2E2E2
310
E2DCE2DCDCDCE2E2E2DCE2E2DCDCE2E2E2DCE2DCDCDCDCE2E2DCE2E2E2DCDCDCDCE2E2E2E2DCE2E2E2DCDCDCDCE2E2E2E2DCE2E2DCDCE2E2E2DCE2E2E2E2E2E2E2E2E2E2E2E2E2E2E2E2E2E2E2E2E2E2E2E2E2E2E2E2E2E2E2E2E2E2E2E2E2E2E2E2E2E2E2E2E2E2E2E2E2E2E2E2E2E2E2E2E2E2E2E2E2E2E2E2E2E2E2E2E2
310
E2E2E2E2E2E2E2E2E2E2E2E2E2E2E2E2E2E2E2E2E2E2E2E2E2E2E2E2E2E2E2E2E2E2E2E2E2E2E2E2E2E2E2E2E2E2E2E2E2E2E2E2E2E2E2E2E2E2E2E2E2E2E2E2E2E2E2E2E2E2E2E2E2E2E2E2E2E2E2E2E2E2E2E2E2E2E2E2E2E2E2E2E2E2E2E2E2E2E2E2E2E2E2E2E2E2E2E2E2E2E2E2E2E2E2E2E2E2E2E2E2E2E2E2E2E2E2
310
E2E2E2DCDCDCDCDCDCDCDCDCDCDCDCDCDCDCDCDCDCDCDCDCDCDCDCDCDCDCDCDCDCDCDCDCDCDCDCDCDCDCDCDCDCDCDCDCDCDCDCDCDCDCDCDCDCDCDCDCE2E2E2E2E2E2E2E2E2E2E2E2E2E2E2E2E2E2E2E2E2E2E2E2E2E2E2E2E2E2E2E2E2E2E2E2E2E2E2E2E2E2E2E2E2E2E2E2E2E2E2E2E2E2E2E2E2E2E2E2E2E2E2E2E2E2E2
310
E2E2E2E2E2E2E2E2E2E2E2E2E2E2E2E2E2E2E2E2E2E2E2E2E2E2E2E2E2E2E2E2E2E2E2E2E2E2E2E2E2E2E2E2E2E2E2E2E2E2E2E2E2E2E2E2E2E2E2E2E2E2E2E2E2E2E2E2E2E2E2E2E2E2E2E2E2E2E2E2E2E2E2E2E2E2E2E2E2E2E2E2E2E2E2E2E2E2E2E2E2E2E2E2E2E2E2E2E2E2E2E2E2E2E2E2E2E2E2E2E2E2E2E2E2E2E2
310
E2E2E2E2E2DCE2E2E2E2E2E2E2DCE2E2DCDCE2E2E2DCE2E2DCDCE2E2E2DCE2E2E2E2E2E2E2E2E2E2E2DCE2E2E2E2E2E2E2E2E2E2E2DCE2E2E2E2E2E2E2DCE2E2E2E2E2E2E2E2E2E2E2E2E2E2E2E2E2E2E2E2E2E2E2E2E2E2E2E2E2E2E2E2E2E2E2E2E2E2E2E2E2E2E2E2E2E2E2E2E2E2E2E2E2E2E2E2E2E2E2E2E2E2E2E2E2
310
E2E2E2E2E2E2E2E2E2E2E2E2E2E2E2E2E2E2E2E2E2E2E2E2E2E2E2E2E2E2E2E2E2E2E2E2E2E2E2E2E2E2E2E2E2E2E2E2E2E2E2E2E2E2E2E2E2E2E2E2E2E2E2E2E2E2E2E2E2E2E2E2E2E2E2E2E2E2E2E2E2E2E2E2E2E2E2E2E2E2E2E2E2E2E2E2E2E2E2E2E2E2E2E2E2E2E2E2E2E2E2E2E2E2E2E2E2E2E2E2E2E2E2E2E2E2E2
310
E2E2E2E2E2E2E2DCE2E2E2E2E2E2E2DCE2DCDCDCDCE2E2DCDCDCDCDCDCDCE2DCDCDCDCDCDCDCDCDCDCDCDCDCDCDCDCDCDCDCDCDCDCDCDCDCE2DCDCDCDCE2E2DCE2E2E2E2E2E2E2E2E2E2E2E2E2E2E2E2E2E2E2E2E2E2E2E2E2E2E2E2E2E2E2E2E2E2E2E2E2E2E2E2E2E2E2E2E2E2E2E2E2E2E2E2E2E2E2E2E2E2E2E2E2E2E2
310
E2E2E2E2E2E2E2E2E2E2E2E2E2E2E2E2E2E2E2E2E2E2E2E2E2E2E2E2E2E2E2E2E2E2E2E2E2E2E2E2E2E2E2E2E2E2E2E2E2E2E2E2E2E2E2E2E2E2E2E2E2E2E2E2E2E2E2E2E2E2E2E2E2E2E2E2E2E2E2E2E2E2E2E2E2E2E2E2E2E2E2E2E2E2E2E2E2E2E2E2E2E2E2E2E2E2E2E2E2E2E2E2E2E2E2E2E2E2E2E2E2E2E2E2E2E2E2
310
E2E2E2E2E2E2E2E2E2DCDCDCDCDCDCDCE2DCDCDCDCDCDCDCE2DCE2DCDCDCDCE2E2DCDCDCDCDCDCDCDCDCDCDCDCDCDCDCDCDCDCDCDCDCDCDCDCDCE2DCDCDCE2E2E2DCE2E2E2E2E2E2E2E2E2E2E2E2E2E2E2E2E2E2E2E2E2E2E2E2E2E2E2E2E2E2E2E2E2E2E2E2E2E2E2E2E2E2E2E2E2E2E2E2E2E2E2E2E2E2E2E2E2E2E2E2E2
310
E2E2E2E2E2E2E2E2E2E2E2E2E2E2E2E2E2E2E2E2E2E2E2E2E2E2E2E2E2E2E2E2E2E2E2E2E2E2E2E2E2E2E2E2E2E2E2E2E2E2E2E2E2E2E2E2E2E2E2E2E2E2E2E2E2E2E2E2E2E2E2E2E2E2E2E2E2E2E2E2E2E2E2E2E2E2E2E2E2E2E2E2E2E2E2E2E2E2E2E2E2E2E2E2E2E2E2E2E2E2E2E2E2E2E2E2E2E2E2E2E2E2E2E2E2E2E2
310
E2E2E2E2E2E2E2E2E2E2E2DCDCDCDCDCDCDCE2DCDCDCDCDCDCDCE2DCE2DCDCDCDCE2E2DCE2E2E2E2E2E2DCDCDCDCDCDCDCDCDCDCE2E2E2E2E2E2E2DCE2DCDCDCE2E2E2DCE2E2E2E2E2E2E2E2E2E2E2E2E2E2E2E2E2E2E2E2E2E2E2E2E2E2E2E2E2E2E2E2E2E2E2E2E2E2E2E2E2E2E2E2E2E2E2E2E2E2E2E2E2E2E2E2E2E2E2
310
E2E2E2E2E2E2E2E2E2E2E2E2E2E2E2E2E2E2E2E2E2E2E2E2E2E2E2E2E2E2E2E2E2E2E2E2E2E2E2E2E2E2E2E2E2E2E2E2E2E2E2E2E2E2E2E2E2E2E2E2E2E2E2E2E2E2E2E2E2E2E2E2E2E2E2E2E2E2E2E2E2E2E2E2E2E2E2E2E2E2E2E2E2E2E2E2E2E2E2E2E2E2E2E2E2E2E2E2E2E2E2E2E2E2E2E2E2E2E2E2E2E2E2E2E2E2E2
310
E2E2E2E2E2E2E2E2E2E2E2E2E2DCDCDCDCDCDCDCDCDCDCDCDCDCDCDCDCDCDCDCDCDCDCDCDCDCDCDCDCDCDCDCDCDCDCDCDCDCDCDCDCDCDCDCDCDCDCDCDCDCDCDCDCDCDCDCDCDCE2E2E2E2E2E2E2E2E2E2E2E2E2E2E2E2E2E2E2E2E2E2E2E2E2E2E2E2E2E2E2E2E2E2E2E2E2E2E2E2E2E2E2E2E2E2E2E2E2E2E2E2E2E2E2E2E2
310
E2E2E2E2E2E2E2E2E2E2E2E2E2E2E2E2E2E2E2E2E2E2E2E2E2E2E2E2E2E2E2E2E2E2E2E2E2E2E2E2E2E2E2E2E2E2E2E2E2E2E2E2E2E2E2E2E2E2E2E2E2E2E2E2E2E2E2E2E2E2E2E2E2E2E2E2E2E2E2E2E2E2E2E2E2E2E2E2E2E2E2E2E2E2E2E2E2E2E2E2E2E2E2E2E2E2E2E2E2E2E2E2E2E2E2E2E2E2E2E2E2E2E2E2E2E2E2
310
E2E2E2E2E2E2E2E2E2E2E2E2E2E2E2DCE2E2E2E2E2E2E2E2E2E2E2E2E2E2E2E2E2E2E2E2E2E2E2E2E2E2E2E2E2E2E2E2E2E2E2E2E2E2E2E2E2E2E2E2E2E2E2E2E2E2E2E2E2E2E2DCE2E2E2E2E2E2E2E2E2E2E2E2E2E2E2E2E2E2E2E2E2E2E2E2E2E2E2E2E2E2E2E2E2E2E2E2E2E2E2E2E2E2E2E2E2E2E2E2E2E2E2E2E2E2E2
310
E2E2E2E2E2E2E2E2E2E2E2E2E2E2E2E2E2E2E2E2E2E2E2E2E2E2E2E2E2E2E2E2E2E2E2E2E2E2E2E2E2E2E2E2E2E2E2E2E2E2E2E2E2E2E2E2E2E2E2E2E2E2E2E2E2E2E2E2E2E2E2E2E2E2E2E2E2E2E2E2E2E2E2E2E2E2E2E2E2E2E2E2E2E2E2E2E2E2E2E2E2E2E2E2E2E2E2E2E2E2E2E2E2E2E2E2E2E2E2E2E2E2E2E2E2E2E2
310
E2E2E2E2E2E2E2E2E2E2E2E2E2E2E2E2E2DCDCDCDCDCDCDCDCDCDCDCDCDCDCDCDCDCDCDCDCDCDCDCDCDCDCDCDCDCDCDCDCDCDCDCE2E2E2E2E2E2E2E2E2E2E2E2E2E2E2E2E2E2E2E2E2DCE2E2E2E2E2E2E2E2E2E2E2E2E2E2E2E2E2E2E2E2E2E2E2E2E2E2E2E2E2E2E2E2E2E2E2E2E2E2E2E2E2E2E2E2E2E2E2E2E2E2E2E2E2
310
E2E2E2E2E2E2E2E2E2E2E2E2E2E2E2E2E2E2E2E2E2E2E2E2E2E2E2E2E2E2E2E2E2E2E2E2E2E2E2E2E2E2E2E2E2E2E2E2E2E2E2E2E2E2E2E2E2E2E2E2E2E2E2E2E2E2E2E2E2E2E2E2E2E2E2E2E2E2E2E2E2E2E2E2E2E2E2E2E2E2E2E2E2E2E2E2E2E2E2E2E2E2E2E2E2E2E2E2E2E2E2E2E2E2E2E2E2E2E2E2E2E2E2E2E2E2E2
310
E2E2E2E2E2E2E2E2E2E2E2E2E2E2E2E2E2E2E2DCDCDCDCDCDCDCDCDCDCDCDCDCDCDCDCDCDCDCDCDCDCDCDCDCDCDCDCDCDCDCDCDCDCDCDCDCDCDCDCDCDCDCDCDCDCDCDCDCDCDCDCDCDCDCDCDCE2E2E2E2E2E2E2E2E2E2E2E2E2E2E2E2E2E2E2E2E2E2E2E2E2E2E2E2E2E2E2E2E2E2E2E2E2E2E2E2E2E2E2E2E2E2E2E2E2E2E2
310
E2E2E2E2E2E2E2E2E2E2E2E2E2E2E2E2E2E2E2E2E2E2E2E2E2E2E2E2E2E2E2E2E2E2E2E2E2E2E2E2E2E2E2E2E2E2E2E2E2E2E2E2E2E2E2E2E2E2E2E2E2E2E2E2E2E2E2E2E2E2E2E2E2E2E2E2E2E2E2E2E2E2E2E2E2E2E2E2E2E2E2E2E2E2E2E2E2E2E2E2E2E2E2E2E2E2E2E2E2E2E2E2E2E2E2E2E2E2E2E2E2E2E2E2E2E2E2
310
E2E2E2E2E2E2E2E2E2E2E2E2E2E2E2E2E2E2E2E2E2E2E2E2E2E2E2E2E2E2E2E2E2E2E2E2E2E2E2E2E2E2E2E2E2E2E2E2E2E2E2E2E2E2E2E2E2E2E2E2E2E2E2E2E2E2E2E2E2E2E2E2E2E2E2E2E2E2E2E2E2E2E2E2E2E2E2E2E2E2E2E2E2E2E2E2E2E2E2E2E2E2E2E2E2E2E2E2E2E2E2E2E2E2E2E2E2E2E2E2E2E2E2E2E2E2E2
310
E2E2E2E2E2E2E2E2E2E2E2E2E2E2E2E2E2E2E2E2E2E2E2E2E2E2E2E2E2E2E2E2E2E2E2E2E2E2E2E2E2E2E2E2E2E2E2E2E2E2E2E2E2E2E2E2E2E2E2E2E2E2E2E2E2E2E2E2E2E2E2E2E2E2E2E2E2E2E2E2E2E2E2E2E2E2E2E2E2E2E2E2E2E2E2E2E2E2E2E2E2E2E2E2E2E2E2E2E2E2E2E2E2E2E2E2E2E2E2E2E2E2E2E2E2E2E2
310
E2E2E2E2E2E2E2E2E2E2E2E2E2E2E2E2E2E2E2E2E2E2E2E2E2E2E2E2E2E2E2E2E2E2E2E2E2E2E2E2E2E2E2E2E2E2E2E2E2E2E2E2E2E2E2E2DCDCDCDCDCDCDCDCDCDCDCDCDCDCDCE2E2E2E2E2E2E2E2E2E2E2E2E2E2E2E2E2E2E2E2E2E2E2E2E2E2E2E2E2E2E2E2DCDCDCDCDCDCDCDCDCDCDCDCDCDCDCE2E2E2E2E2E2E2E2E2
310
E2E2E2E2E2E2E2E2E2E2E2E2E2E2E2E2E2E2E2E2E2E2E2E2E2E2E2E2E2E2E2E2E2E2E2E2E2E2E2E2E2E2E2E2E2E2E2E2E2E2E2E2E2E2E2E2E2E2E2E2E2E2E2E2E2E2E2E2E2E2E2E2E2E2E2E2E2E2E2E2E2E2E2E2E2E2E2E2E2E2E2E2E2E2E2E2E2E2E2E2E2E2E2E2E2E2E2E2E2E2E2E2E2E2E2E2E2E2E2E2E2E2E2E2E2E2E2
310
E2E2E2E2E2E2E2E2E2E2E2E2E2E2E2E2E2E2E2E2E2E2E2E2E2E2E2E2E2E2E2E2E2E2E2E2E2E2E2E2E2E2E2E2E2E2E2E2E2E2E2E2E2E2E2E2E2E2DCDCDCDCDCDCDCDCDCDCDCDCDCDCDCE2E2E2E2E2E2E2E2E2E2E2E2E2E2E2E2E2E2E2E2E2E2E2E2E2E2E2E2E2E2E2E2DCDCDCDCDCDCDCDCDCDCDCDCDCDCDCE2E2E2E2E2E2E2
310
E2E2E2E2E2E2E2E2E2E2E2E2E2E2E2E2E2E2E2E2E2E2E2E2E2E2E2E2E2E2E2E2E2E2E2E2E2E2E2E2E2E2E2E2E2E2E2E2E2E2E2E2E2E2E2E2E2E2E2E2E2E2E2E2E2E2E2E2E2E2E2E2E2E2E2E2E2E2E2E2E2E2E2E2E2E2E2E2E2E2E2E2E2E2E2E2E2E2E2E2E2E2E2E2E2E2E2E2E2E2E2E2E2E2E2E2E2E2E2E2E2E2E2E2E2E2E2
310
E2E2E2E2E2E2E2E2E2E2E2E2E2E2E2E2E2E2E2E2E2E2E2E2E2E2E2E2E2E2E2E2E2E2E2E2E2E2E2E2E2E2E2E2E2E2E2E2E2E2E2E2E2E2E2E2E2E2E2E2DCDCDCDCDCDCDCDCDCDCDCDCDCDCDCE2E2E2E2E2E2E2E2E2E2E2E2E2E2E2E2E2E2E2E2E2E2E2E2E2E2E2E2E2E2E2E2DCDCDCDCDCDCDCDCDCDCDCDCDCDCDCE2E2E2E2E2
310
E2E2E2E2E2E2E2E2E2E2E2E2E2E2E2E2E2E2E2E2E2E2E2E2E2E2E2E2E2E2E2E2E2E2E2E2E2E2E2E2E2E2E2E2E2E2E2E2E2E2E2E2E2E2E2E2E2E2E2E2E2E2E2E2E2E2E2E2E2E2E2E2E2E2E2E2E2E2E2E2E2E2E2E2E2E2E2E2E2E2E2E2E2E2E2E2E2E2E2E2E2E2E2E2E2E2E2E2E2E2E2E2E2E2E2E2E2E2E2E2E2E2E2E2E2E2E2
310
E2E2E2E2E2E2E2E2E2E2E2E2E2E2E2E2E2E2E2E2E2E2E2E2E2E2E2E2E2E2E2E2E2E2E2E2E2E2E2E22DE2E2E2E2E2E2E2E2E2E2E2E2E2E2E2E2E2E2E2E2E2E2E2E2E2E2E2E2E2E2E2E2E2E2E2E2E2E2E2E2E2E2E2E2E2E2E2E2E2E2E2E2E2E2E2E2E2E2E2E2E2E2E2E2E2E2E2E2E2E2E2E2E2E2E2E2E2E2E2E2E2E2E2E2E2E2
310
E2E2E2E2E2E2E2E2E2E2E2E2E2E2E2E2E2E2E2E2E2E2E2E2E2E2E2E2E2E2E2E2E2E2E2E2E2E2E2E2E2E2E2E2E2E2E2E2E2E2E2E2E2E2E2E2E2E2E2E2E2E2E2E2E2E2E2E2E2E2E2E2E2E2E2E2E2E2E2E2E2E2E2E2E2E2E2E2E2E2E2E2E2E2E2E2E2E2E2E2E2E2E2E2E2E2E2E2E2E2E2E2E2E2E2E2E2E2E2E2E2E2E2E2E2E2E2
310
E2E2E2E2E2E2E2E2E2E2E2E2E2E2E2E2E2E2E2E2E2E2E2E2E2E2E2E2E2E2E2E2E2E2E2E2E2E2E2E22D2D2D2D2DE2DCDCDCDCDCDCDCDCDCDCDCDCDCDCDCDCDCDCDCDCDCDCDCDCDCDCE2E2E2E2E2E2E2E2E2E2E2E2E2E2E2E2E2E2E2E2E2E2E2E2E2E2E2E2E2E2E2E2E2E2E2E2E2E2E2E2E2E2E2E2DCDCDCDCDCDCDCE2E2E2E2
310
E2E2E2E2E2E2E2E2E2E2E2E2E2E2E2E2E2E2E2E2E2E2E2E2E2E2E2E2E2E2E2E2E2E2E2E2E2E2E2E2E2E2E2E2E2E2E2E2E2E2E2E2E2E2E2E2E2E2E2E2E2E2E2E2E2E2E2E2E2E2E2E2E2E2E2E2E2E2E2E2E2E2E2E2E2E2E2E2E2E2E2E2E2E2E2E2E2E2E2E2E2E2E2E2E2E2E2E2E2E2E2E2E2E2E2E2E2E2E2E2E2E2E2E2E2E2E2
310
E2E2E2E2E2E2E2E2E2E2E2E2E2E2E2E2E2E2E2E2E2E2E2E2E2E2E2E2E2E2E2E2E2E2E2E2E2E2E2E2E2E2DC2D2DE22DE2DCDCDCDCDCDCDCDCDCDCDCDCDCDCDCDCDCDCDCDCDCDCDCDCDCDCE2E2E2E2E2E2E2E2E2E2E2E2E2E2E2E2E2E2E2E2E2E2E2E2E2E2E2E2E2E2E2E2E2E2E2E2E2E2E2E2E2E2DCDCE2E2DCDCE2E2E2DCDC
310
E2E2E2E2E2E2E2E2E2E2E2E2E2E2E2E2E2E2E2E2E2E2E2E2E2E2E2E2E2E2E2E2E2E2E2E2E2E2E2E2E2E2E2E2E2E2E2E2E2E2E2E2E2E2E2E2E2E2E2E2E2E2E2E2E2E2E2E2E2E2E2E2E2E2E2E2E2E2E2E2E2E2E2E2E2E2E2E2E2E2E2E2E2E2E2E2E2E2E2E2E2E2E2E2E2E2E2E2E2E2E2E2E2E2E2E2E2E2E2E2E2E2E2E2E2E2E2
310
E2E2E2E2E2E2E2E2E2E2E2E2E2E2E2E2E2E2E2E2E2E2E2E2E2E2E2E2E2E2E2E2E2E2E2E2E2E2E2E2E2E2E2E2DCDCDCE22DDCE2E2E2E2E2E2E2E2E2E2E2E2E2E2E2E2E2E2E2E2E2E2E2E2E2E2E2E2E2E2E2E2E2E2E2E2E2E2E2E2E2E2E2E2E2E2E2E2E2E2E2E2E2E2E2E2E2E2E2E2E2E2E2E2E2E2DCDCE2E2E2E2E2E2E2E2E2
310
E2E2DCDCE2E2E2E2E2E2E2E2E2E2E2E2E2E2E2E2E2E2E2E2E2E2E2E2E2E2E2E2E2E2E2E2E2E2E2E2E2E2E2E2E2E2E2E2E2E2E2E2E2E2E2E2E2E2E2E2E2E2E2E2E2E2E2E2E2E2E2E2E2E2E2E2E2E2E2E2E2E2E2E2E2E2E2E2E2E2E2E2E2E2E2E2E2E2E2E2E2E2E2E2E2E2E2E2E2E2E2E2E2E2E2E2E2E2E2E2E2E2E2E2E2E2E2
310
E2E2E2E2E2E2E2E2E2E2E2E2E2E2E2E2E2E2E2E2E2E2E2E2E2E2E2E2E2E2E2E2E2E2E2E2E2E2E2E2E2E2E2E2E2E2E2E2E2E2E2DCE2E2E2E2E2E2E2E2E2E2E2E2E2E2E2E2E2E2E2E2E2E2E2E2E2E2E2E2E2E2E2E2E2E2E2E2E2E2E2E2E2E2E2E2E2E2E2E2E2E2E2E2E2E2E2E2E2E2E2E2E2E2E2E2DCDCDCE2E2E2E2E2E2BEE2
310
E2E2DCDCE2DCDCE2E2E2E2E2E2E2E2E2E2E2E2E2E2E2E2E2E2E2E2E2E2E2E2E2E2E2E2E2E2E2E2E2E2E2E2E2E2E2E2E2E2E2E2E2E2E2E2E2E2E2E2E2E2E2E2E2E2E2E2E2E2E2E2E2E2E2E2E2E2E2E2E2E2E2E2E2E2E2E2E2E2E2E2E2E2E2E2E2E2E2E2E2E2E2E2E2E2E2E2E2E2E2E2E2E2E2E2E2E2E2E2E2E2E2E2E2E2E2E2
310
E2E2E2E2E2E2E2E2E2E2E2E2E2E2E2E2E2E2E2E2E2E2E2E2E2E2E2E2E2E2E2E2E2E2E2E2E2E2E2E2E2E2E2E2E2E2E22DF02DF02DF02DF0F02DF02DF02DF02DF02DF02DF0F02DF02DF02DF02DF02DF0F02DF02DF02DF02DF02DF02DF0F02DF02DF02DF02DF02DF0F02DF02DF02DF02DF02DE2E2E2E2E2E2DCE2E2E2E2F0F02D
310
F02DF02DE2DCDCDCE2E2E2E2E2E2E2E2E2E2E2E2E2E2E2E2E2E2E2E2E2E2E2E2E2E2E2E2E2E2E2E2E2E2E2E2E2E2E2E2E2E2E2E2E2E2E2E2E2E2E2E2E2E2E2E2E2E2E2E2E2E2E2E2E2E2E2E2E2E2E2E2E2E2E2E2E2E2E2E2E2E2E2E2E2E2E2E2E2E2E2E2E2E2E2E2E2E2E2E2E2E2E2E2E2E2E2E2E2E2E2E2E2E2E2E2E2E2E2
310
E2E2E2E2E2E2E2E2E2E2E2E2E2E2E2E2E2E2E2E2E2E2E2E2E2E2E2E2E2E2E2E2E2E2E2E2E2E2E2E2E2E2E2E2E2E2E2E2E2F0E2F0F0F0F0F0F0F0F0F0F0F0F0F0F0F0F0F0F0E2F0F0F0F0F0F0F0F0F0F0F0F0F0F0F0F0F0F0F0F0F0F0F0E2F0F0F0F0F0F0F0F0F0F0E2F0F0F0F0F0F0F0F0F0F0E2E2E2E2E2E2E2DCDC2DF0E2
310
F0F0BEF0E2F02DDCDCDCE2E2E2E2E2E2E2E2E2E2E2E2E2E2E2E2E2E2E2E2E2E2E2E2E2E2E2E2E2E2E2E2E2E2E2E2E2E2E2E2E2E2E2E2E2E2E2E2E2E2E2E2E2E2E2E2E2E2E2E2E2E2E2E2E2E2E2E2E2E2E2E2E2E2E2E2E2E2E2E2E2E2E2E2E2E2E2E2E2E2E2E2E2E2E2E2E2E2E2E2E2E2E2E2E2E2E2E2E2E2E2E2E2E2E2E2E2
310
E2E2E2E2E2E2E2E2E2E2E2E2E2E2E2E2E2E2E2E2E2E2E2E2E2E2E2E2E2E2E2E2E2E2E2E2E2E2E2E2E2E2E2DCDCDCDCDCDCDCDC2DF0F02DF0DCF02DF0F02DF02DF02DF02DF02DF0F02DF02DF02DF02DF02DF02DF0F02DF02DF02DF02DF02DF0F02DF02DF02DF02DF02DF0F02DF02DF02DF02DF02DF0E2E2E2E2E2E2E2E22DF0
310
E2F0F02DF0E2F0E2F02DDCDCDCE2E2E2E2E2E2E2E2E2E2E2E2E2E2E2E2E2E2E2E2E2E2E2E2E2E2E2E2E2E2E2E2E2E2E2E2E2E2E2E2E2E2E2E2E2E2E2E2E2E2E2E2E2E2E2E2E2E2E2E2E2E2E2E2E2E2E2E2E2E2E2E2E2E2E2E2E2E2E2E2E2E2E2E2E2E2E2E2E2E2E2E2E2E2E2E2E2E2E2E2E2E2E2E2E2E2E2E2E2E2E2E2E2E2
310
E2E2E2E2E2E2E2E2E2E2E2E2E2E2E2E2E2E2E2E2E2E2E2E2E2E2E2E2E2E2E2E2E2E2E2E2E2E2E2E2E2E2E2E2E2E2DCE2E2E2E2E2E22DECECECECECECECECECECECECECECECECECECECECECECECECECECECECECECECECECECECECECECECECECECECECECECECECECECECECECECECECECECECECECECECEC2DE2E2E2E2E2E2E2E2
310
F0E2F0ECF0F0BEF02DF0BEF02DE2E2DCE2E2E2E2E2E2E2E2E2E2E2E2E2E2E2E2E2E2E2E2E2E2E2E2E2E2E2E2E2E2E2E2E2E2E2E2E2E2E2E2E2E2E2E2E2E2E2E2E2E2E2E2E2E2E2E2E2E2E2E2E2E2E2E2E2E2E2E2E2E2E2E2E2E2E2E2E2E2E2E2E2E2E2E2E2E2E2E2E2E2E2E2E2E2E2E2E2E2E2E2E2E2E2E2E2E2E2E2E2E2E2
310
E2E2E2E2E2E2E2E2E2E2E2E2E2E2E2E2E2E2E2E2E2E2E2E2E2E2E2E2E2E2E2E2E2E2E2E2E2E2E2E2E2E2E2E2E2E2E2E2DCE2E2E2E2E2E2ECECECECECECECECECECECECECECECECECECECECECECECECECECECECECECECECECECECECECECECECECECECECECECECECECECECECECECECECECECECECECECECECEC2DE2E2E2E2E2E2
310
E2F0E2F0ECF0ECE2BEECF02DF0E2F02DDCE2DCE2E2E2E2E2E2E2E2E2E2E2E2E2E2E2E2E2E2E2E2E2E2E2E2E2E2E2E2E2E2E2E2E2E2E2E2E2E2E2E2E2E2E2E2E2E2E2E2E2E2E2E2E2E2E2E2E2E2E2E2E2E2E2E2E2E2E2E2E2E2E2E2E2E2E2E2E2E2E2E2E2E2E2E2E2E2E2E2E2E2E2E2E2E2E2E2E2E2E2E2E2E2E2E2E2E2E2E2
310
E2E2E2E2E2E2E2E2E2E2E2E2E2E2E2E2E2E2E2E2E2E2E2E2E2E2E2E2E2E2E2E2E2E2E2E2E2E2E2E2E2E2E2E2E2E2E2E2E2E2DCE2E2E2E2E2E2ECECECECECECECECECECECECECECECECECECECECECECECECECECECECECECECECECECECECECECECECECECECECECECECECECECECECECECECECECECECECECECECECEC2DDCE2E2E2
310
E2E2E2F0F0E2F0ECF0E2BEE2F0F02DF0E2F0E2E2E2E2E2E2E2E2E2E2E2E2E2E2E2E2E2E2E2E2E2E2E2E2E2E2E2E2E2E2E2E2E2E2E2E2E2E2E2E2E2E2E2E2E2E2E2E2E2E2E2E2E2E2E2E2E2E2E2E2E2E2E2E2E2E2E2E2E2E2E2E2E2E2E2E2E2E2E2E2E2E2E2E2E2E2E2E2E2E2E2E2E2E2E2E2E2E2E2E2E2E2E2E2E2E2E2E2E2
310
E2E2E2E2E2E2E2E2E2E2E2E2E2E2E2E2E2E2E2E2E2E2E2E2E2E2E2E2E2E2E2E2E2E2E2E2E2E2E2E2E2E2E2E2E2E2E2E2E2E2E2E2DCE2E2E2E2E2E22DE2E2E2E2E2E2E2E2E2E2E2E2E2E2E2E2E2E2E2E2E2E2E2E2E2E2E2E2E2E2E2E2E2E2E2E2E2E2E2E2E2E2E2E2E2E2E2E2E2E2E2E2E2E2E2E2E2E2E2E2E2E2E2E22DDCDC
310
E2E2E2E22D2DF0F0E2E2E2BEBEBEE2DCF0DCF02DE2E2E2E2E2E2E2E2E2E2E2E2E2E2E2E2E2E2E2E2E2E2E2E2E2E2E2E2E2E2E2E2E2E2E2E2E2E2E2E2E2E2E2E2E2E2E2E2E2E2E2E2E2E2E2E2E2E2E2E2E2E2E2E2E2E2E2E2E2E2E2E2E2E2E2E2E2E2E2E2E2E2E2E2E2E2E2E2E2E2E2E2E2E2E2E2E2E2E2E2E2E2E2E2E2E2E2
310
E2E2E2E2E2E2E2E2E2E2E2E2E2E2E2E2E2E2E2E2E2E2E2E2E2E2E2E2E2E2E2E2E2E2E2E2E2E2E2E2E2E2E2E2E2E2E2E2E2E2E2E2E2E2DCE2E2E2BEBEBE2DBEBEBEBEBEBEBEBEBEBEBEBEBEBEBEBEBEBEBEBEBEBEBEBEBEBEBEBEBEBEBEBEBEBEBEBEBEBEBEBEBEBEBEBEBEBEBEBEBEBEBEBEBEBEBEBEBEBEBEBEBEBEBEBE2D
310
BEDCBEE2E2E2F0BEF02DBEBEBEBEDCBEBEBEDCF0DCF0BEE2E2DCDCE2E2E2E2E2E2E2E2E2E2E2E2E2E2E2E2E2E2E2E2E2E2E2E2E2E2E2E2E2E2E2E2E2E2E2E2E2E2E2E2E2E2E2E2E2E2E2E2E2E2E2E2E2E2E2E2E2E2E2E2E2E2E2E2E2E2E2E2E2E2E2E2E2E2E2E2E2E2E2E2E2E2E2E2E2E2E2E2E2E2E2E2E2E2E2E2E2E2E2E2
310
E2E2E2E2E2E2E2E2E2E2E2E2E2E2E2E2E2E2E2E2E2E2E2E2E2E2E2E2E2E2E2E2E2E2E2E2E2E2E2E2E2E2E2E2E2E2E2E2E2E2E2E2E2E2E2E2DCE2E2E2E2E2E22DE2E2E2E2E2E2E2E2E2E2E2E2E2E2E2E2E2E2E2E2E2E2E2E2E2E2E2BEE2E2E2E2E2E2E2E2E2E2E2E2E2E2E2E2E2E2E2E2E2E2E2E2E2E2E2E2E2E2E2E2E2E2E2
310
E22DE2E2DCE2E2E22DF0E2F0E2E2E2E2BEE2E2E2F02DF02DDCE2E2DCDCDCE2E2E2E2E2E2E2E2E2E2E2E2E2E2E2E2E2E2E2E2E2E2E2E2E2E2E2E2E2E2E2E2E2E2E2E2E2E2E2E2E2E2E2E2E2E2E2E2E2E2E2E2E2E2E2E2E2E2E2E2E2E2E2E2E2E2E2E2E2E2E2E2E2E2E2E2E2E2E2E2E2E2E2E2E2E2E2E2E2E2E2E2E2E2E2E2E2
310
E2E2E2E2E2E2E2E2E2E2E2E2E2E2E2E2E2E2E2E2E2E2E2E2E2E2E2E2E2E2E2E2E2E2E2E2E2E2E2E2E2E2E2E2E2E2E2E2E2E2E2E2E2E2E2E2E2E2DCE2E2E2E2E2E22DE2E2E2E2E2E2E2E2E2E2E2E2E2E2E2E2E2E2E2E2E2E2E2E2E2E2E2BEE2E2E2E2E2E2E2E2E2E2E2E2E2E2E2E2E2E2E2E2E2E2E2E2E2E2E2E2E2E2E2E2E2
310
E2E2E22DE2E2DCE2E2E2E2F0F02D2DE2E2E2BEE2E2E2F0F0F0F0E2DCDCE2DCE2E2E2E2E2E2E2E2E2E2E2E2E2E2E2E2E2E2E2E2E2E2E2E2E2E2E2E2E2E2E2E2E2E2E2E2E2E2E2E2E2E2E2E2E2E2E2E2E2E2E2E2E2E2E2E2E2E2E2E2E2E2E2E2E2E2E2E2E2E2E2E2E2E2E2E2E2E2E2E2E2E2E2E2E2E2E2E2E2E2E2E2E2E2E2E2
310
E2E2E2E2E2E2E2E2E2E2E2E2E2E2E2E2E2E2E2E2E2E2E2E2E2E2E2E2E2E2E2E2E2E2E2E2E2E2E2E2E2E2E2E2E2E2E2E2E2E2E2E2E2E2E2E2E2E2E2E2DCE2E2E2E2E2E22DE2E2E2E2BEE2E2E2E2E2BEE2E2E2E2BEE2E2E2E2E2BEE2E2E2E2E2BEE2E2E2E2BEE2E2E2E2BEE2E2E2E2BEE2E2E2E2E2BEE2E2E2E2E2BEE2E2E2E2
310
BEE2E2E2E22DE2E2DCE2E2E2E22DF0F02DE2E2E2BEE2E2F02DF0E2F0E2DCDCE2E2E2E2E2E2E2E2E2E2E2E2E2E2E2E2E2E2E2E2E2E2E2E2E2E2E2E2E2E2E2E2E2E2E2E2E2E2E2E2E2E2E2E2E2E2E2E2E2E2E2E2E2E2E2E2E2E2E2E2E2E2E2E2E2E2E2E2E2E2E2E2E2E2E2E2E2E2E2E2E2E2E2E2E2E2E2E2E2E2E2E2E2E2E2E2
310
E2E2E2E2E2E2E2E2E2E2E2E2E2E2E2E2E2E2E2E2E2E2E2E2E2E2E2E2E2E2E2E2E2E2E2E2E2E2E2E2E2E2E2E2E2E2E2E2E2E2E2E2E2E2E2E2E2E2E2E2E2E2DCE2E2E2E2E2E22DE2E2E2E2BEE2E2E2E2E2BEE2E2E2E2BEE2E2E2E2E2BEE2E2E2E2E22DE2E2E2E2BEE2E2E2E2BEE2E2E2E2BEE2E2E2E2E2BEE2E2E2E2E2BEE2E2
310
E2E2BEE2E2E2E22DE2E2DCE2E2E2E22D2DF0F02D2DE2BEE2F02DF0E2F0E2DCE2E2E2E2E2E2E2E2E2E2E2E2E2E2E2E2E2E2E2E2E2E2E2E2E2E2E2E2E2E2E2E2E2E2E2E2E2E2E2E2E2E2E2E2E2E2E2E2E2E2E2E2E2E2E2E2E2E2E2E2E2E2E2E2E2E2E2E2E2E2E2E2E2E2E2E2E2E2E2E2E2E2E2E2E2E2E2E2E2E2E2E2E2E2E2E2
310
E2E2E2E2E2E2E2E2E2E2E2E2E2E2E2E2E2E2E2E2E2E2E2E2E2E2E2E2E2E2E2E2E2E2E2E2E2E2E2E2E2E2E2E2E2E2E2E2E2E2E2E2E2E2E2E2E2E2E2E2E2DCDCDCDCDCDCDCDCDCDCF02DF0ECF5F5F5F5F0F5F5F5F5F02DF5F5F5F5F02DF0F5F5F02D2D2D2D2DF02DF0F02DF0F5F5F5F02DF0F5F5F5F0F0ECF5F5F0F0F0F5F5F5
310
F0F02D2DF5F5F0F02DF0E2E2DCE2E2E2E2E22DE2F0F0EC2D2DF0F0F0E2F02DDCE2DCE2E2E2E2E2E2E2E2E2E2E2E2E2E2E2E2E2E2E2E2E2E2E2E2E2E2E2E2E2E2E2E2E2E2E2E2E2E2E2E2E2E2E2E2E2E2E2E2E2E2E2E2E2E2E2E2E2E2E2E2E2E2E2E2E2E2E2E2E2E2E2E2E2E2E2E2E2E2E2E2E2E2E2E2E2E2E2E2E2E2E2E2E2
310
E2E2E2E2E2E2E2E2E2E2E2E2E2E2E2E2E2E2E2E2E2E2E2E2E2E2E2E2E2E2E2E2E2E2E2E2E2E2E2E2E2E2E2E2E2E2E2E2E2E2E2E2E2E2E2E2E2E2E2E2E2E2E2DCDCDCDCE2E2E2E2E2E22DF0F0F0F0BEE2F0E2F0E2BEF0E2F0F0BEE2F0E2F0ECBEE2F0F02DE2BEF0E2F0ECF0F0F0F0E2BEECF0F0F0BEE2ECF0F0F0BEECECF0F0
310
E2BEECF0F0F0BEE2F0E2F02DE2E2DCE2E2E2E2E2E22D2DF0F0E2BEECECF0F02DE2E2E2E2E2E2E2E2E2E2E2E2E2E2E2E2E2E2E2E2E2E2E2E2E2E2E2E2E2E2E2E2E2E2E2E2E2E2E2E2E2E2E2E2E2E2E2E2E2E2E2E2E2E2E2E2E2E2E2E2E2E2E2E2E2E2E2E2E2E2E2E2E2E2E2E2E2E2E2E2E2E2E2E2E2E2E2E2E2E2E2E2E2E2E2
310
E2E2E2E2E2E2E2E2E2E2E2E2E2E2E2E2E2E2E2E2E2E2E2E2E2E2E2E2E2E2E2E2E2E2E2E2E2E2E2E2E2E2E2E2E2E2E2E2E2E2E2E2E2E2E2E2E2E2E2E2E2E2E2E2E2E2DCDCDCE2E2E2E2E2E2F0F02DF0F5F5F5F0F0F0F5F5F5F0F0F0F5F5F5F0F0F0F5F5F5F0F0E2BE2DF0F0F02DF02DF0F5F5F0F02DF0F5F5F02DF0F5F5F0F0
310
2DF0F5F5F02DF02DF5F5F0F0F0F0E2E2DCE2E2E2E2E2E2E22D2DF02D2DF0F0F0E2E2E2E2E2E2E2E2E2E2E2E2E2E2E2E2E2E2E2E2E2E2E2E2E2E2E2E2E2E2E2E2E2E2E2E2E2E2E2E2E2E2E2E2E2E2E2E2E2E2E2E2E2E2E2E2E2E2E2E2E2E2E2E2E2E2E2E2E2E2E2E2E2E2E2E2E2E2E2E2E2E2E2E2E2E2E2E2E2E2E2E2E2E2E2
310
E2E2E2E2E2E2E2E2E2E2E2E2E2E2E2E2E2E2E2E2E2E2E2E2E2E2E2E2E2E2E2E2E2E2E2E2E2E2E2E2E2E2E2E2E2E2E2E2E2E2E2E2E2E2E2E2E2E2E2E2E2E2E2E2E2E2E2E2DCDCDCE2E2E2E2E2E2E2DCDCDCE2DCDCE2E2E2E2BEE2E2E2E2BEE2E2E2E2E2BEE2E2E22DE2BE2DE2E2E2DCE2E2E2E2BEE2E2E2E2BEE2E2E2E2E2BE
310
E2E2E2E2E2BEE2E2E2E2BEE2E2E2E2E2E2E2DCE2E2E2E2E2E2E2E2E2E2E2BEE2E2E2E2E2E2E2E2E2E2E2E2E2E2E2E2E2E2E2E2E2E2E2E2E2E2E2E2E2E2E2E2E2E2E2E2E2E2E2E2E2E2E2E2E2E2E2E2E2E2E2E2E2E2E2E2E2E2E2E2E2E2E2E2E2E2E2E2E2E2E2E2E2E2E2E2E2E2E2E2E2E2E2E2E2E2E2E2E2E2E2E2E2E2E2E2
310
E2E2E2E2E2E2E2E2E2E2E2E2E2E2E2E2E2E2E2E2E2E2E2E2E2E2E2E2E2E2E2E2E2E2E2E2E2E2E2E2E2E2E2E2E2E2E2E2E2E2E2E2E2E2E2E2E2E2E2E2E2E2E2E2E2E2E2E2E2E2DCDCDCE2E2E2E2E2E2E2DCDCDCE2BEDCE2E2E2E2BEE2E2E2E2BEE2E2E2E2E2BEE2E2E22D2D2D2DE2E2E2BEDCE2E2E2BEE2E2E2E2BEE2E2E2E2
310
E2BEE2E2E2E2E2BEE2E2E2E2BEE2E2E2E2E2E2E2DCE2E2E2E2E2E2E2E2E2E2E2BEE2E2E2E2E2E2E2E2E2E2E2E2E2E2E2E2E2E2E2E2E2E2E2E2E2E2E2E2E2E2E2E2E2E2E2E2E2E2E2E2E2E2E2E2E2E2E2E2E2E2E2E2E2E2E2E2E2E2E2E2E2E2E2E2E2E2E2E2E2E2E2E2E2E2E2E2E2E2E2E2E2E2E2E2E2E2E2E2E2E2E2E2E2E2
310
E2E2E2E2E2E2E2E2E2E2E2E2E2E2E2E2E2E2E2E2E2E2E2E2E2E2E2E2E2E2E2E2E2E2E2E2E2E2E2E2E2E2E2E2E2E2E2E2E2E2E2E2E2E2E2E2E2E2E2E2E2E2E2E2E2E2E2E2E2E2E2E2DCDCDCE2E2E2E2E2E2E2DCDCDCE22DE2DCE2E2E2BEE2E2E2E2BEE2E2E2E2E2BEE2E2E22D2D2D2DE2E2E2BEDCE2E2DCBEDCDCDCDCBEE2E2
310
E2E2E2BEE2E2E2E2E2BEE2E2E2E2BEE2E2E2E2E2E2E2DCE2E2E2E2E2E2E2E2E2E2E2E2E2E2E2E2E2E2E2E2E2E2E2E2E2E2E2E2E2E2E2E2E2E2E2E2E2E2E2E2E2E2E2E2E2E2E2E2E2E2E2E2E2E2E2E2E2E2E2E2E2E2E2E2E2E2E2E2E2E2E2E2E2E2E2E2E2E2E2E2E2E2E2E2E2E2E2E2E2E2E2E2E2E2E2E2E2E2E2E2E2E2E2E2
310
E2E2E2E2E2E2E2E2E2E2E2E2E2E2E2E2E2E2E2E2E2E2E2E2E2E2E2E2E2E2E2E2E2E2E2E2E2E2E2E2E2E2E2E2E2E2E2E2E2E2E2E2E2E2E2E2E2E2E2E2E2E2E2E2E2E2E2E2E2E2E2E2E2E2DCDCDCE2E2E2E2E2E2E22D2D2D2D2DE2DCE2E2E2E2E2E2E2E2E2E2E2E2E2E2E2E2E2E22D2D2D2D2DE2E2E2E2DCE2DCDCDCDCDCDCE2
310
E2E2E2E2DCDCDCE2E2E2E2E2E2E2E2E2E2E2E2E2E2E2E2E2DCE2E2E2E2E2E2E2E2E2E2E2E2E2E2E2E2E2E2E2E2E2E2E2E2E2E2E2E2E2E2E2E2E2E2E2E2E2E2E2E2E2E2E2E2E2E2E2E2E2E2E2E2E2E2E2E2E2E2E2E2E2E2E2E2E2E2E2E2E2E2E2E2E2E2E2E2E2E2E2E2E2E2E2E2E2E2E2E2E2E2E2E2E2E2E2E2E2E2E2E2E2E2
310
E2E2E2E2E2E2E2E2E2E2E2E2E2E2E2E2E2E2E2E2E2E2E2E2E2E2E2E2E2E2E2E2E2E2E2E2E2E2E2E2E2E2E2E2E2E2E2E2E2E2E2E2E2E2E2E2E2E2E2E2E2E2E2E2E2E2E2E2E2E2E2E2E2E2E2E2DCDCDCE2E2E2E2E2E2E2E22D2DE2E2E2DCE2E2E2E2E2E2E2E2E2E2E2E2E2E2E2E2E2E22D2D2D2DDCE2E2E2E2DCDCDCDCDCDCDC
310
DCDCDCDCDCDCDCDCDCE2E2E2E2E2E2E2E2E2E2E2E2E2E2E2E2E2DCE2E2E2E2E2E2E2E2E2E2E2E2E2E2E2E2E2E2E2E2E2E2E2E2E2E2E2E2E2E2E2E2E2E2E2E2E2E2E2E2E2E2E2E2E2E2E2E2E2E2E2E2E2E2E2E2E2E2E2E2E2E2E2E2E2E2E2E2E2E2E2E2E2E2E2E2E2E2E2E2E2E2E2E2E2E2E2E2E2E2E2E2E2E2E2E2E2E2E2E2
310
E2E2E2E2E2E2E2E2E2E2E2E2E2E2E2E2E2E2E2E2E2E2E2E2E2E2E2E2E2E2E2E2E2E2E2E2E2E2E2E2E2E2E2E2E2E2E2E2E2E2E2E2E2E2E2E2E2E2E2E2E2E2E2E2E2E2E2E2E2E2E2E2E2E2E2E2E2E2DCDCDCE2E2E2E2E2E2E2E2E2E2E2E2E2E2DCE2E2E2E2E2E2E2E2E2E2E2E2E2E2E2E2E2E2E2BEE2DCDCE2E2E2E2DCDCDCDC
310
DCDCDCDCDCDCDCDCDCDCDCE2E2E2E2E2E2E2E2E2E2E2E2E2E2E2E2E2DCE2DCDCDCDCDCDCDCDCDCDCDCDCDCDCDCDCDCDCDCDCDCDCDCDCDCE2E2E2E2E2E2E2E2E2E2E2E2E2E2E2E2E2E2E2E2E2E2E2E2E2E2E2E2E2E2E2E2E2E2E2E2E2E2E2E2E2E2E2E2E2E2E2E2E2E2E2E2E2E2E2E2E2E2E2E2E2E2E2E2E2E2E2E2E2E2E2E2
310
E2E2E2E2E2E2E2E2E2E2E2E2E2E2E2E2E2E2E2E2E2E2E2E2E2E2E2E2E2E2E2E2E2E2E2E2E2E2E2E2E2E2E2E2E2E2E2E2E2E2E2E2E2E2E2E2E2E2E2E2E2E2E2E2E2E2E2E2E2E2E2E2E2E2E2E2E2E2E2E2DCDCDCE2E2E2E2E2E2E2E2E2E2E2E2E2E2DCE2E2E2E2E2E2E2E2E2E2E2E2E2E2E2E2E2E2E2BEE2E2DCDCE2E2E2E2E2
310
E2E2E2E2E2E2E2E2E2E2E2E2E2E2E2E2E2E2E2E2E2E2E2E2E2E2E2E2E2E2DCE2DCDCDCDCDCDCDCDCDCDCDCDCDCDCDCDCDCDCDCDCDCDCDCDCDCE2E2E2E2E2E2E2E2E2E2E2E2E2E2E2E2E2E2E2E2E2E2E2E2E2E2E2E2E2E2E2E2E2E2E2E2E2E2E2E2E2E2E2E2E2E2E2E2E2E2E2E2E2E2E2E2E2E2E2E2E2E2E2E2E2E2E2E2E2E2
310
E2E2E2E2E2E2E2E2E2E2E2E2E2E2E2E2E2E2E2E2E2E2E2E2E2E2E2E2E2E2E2E2E2E2E2E2E2E2E2E2E2E2E2E2E2E2E2E2E2E2E2E2E2E2E2E2E2E2E2E2E2E2E2E2E2E2E2E2E2E2E2E2E2E2E2E2E2E2E2E2E2E2E2E2DCE2E2E2E2E2E2E2E2E2E2E2E2E2E2E2DCE2DCDCDCDCDCDCDCDCDCDCDCDCDCDCDCDCDCDCDCE2E2E2DCDCE2
310
E2DCDCDCDCDCDCDCDCDCDCDCDCDCDCDCDCDCDCDCE2E2E2E2E2E2E2E2E2E2E2E2DCE2DCDCDCDCDCDCDCDCDCDCDCDCDCDCDCDCDCDCDCDCDCE2E2E2E2E2E2E2E2E2E2E2E2E2E2E2E2E2E2E2E2E2E2E2E2E2E2E2E2E2E2E2E2E2E2E2E2E2E2E2E2E2E2E2E2E2E2E2E2E2E2E2E2E2E2E2E2E2E2E2E2E2E2E2E2E2E2E2E2E2E2E2E2
310
E2E2E2E2E2E2E2E2E2E2E2E2E2E2E2E2E2E2E2E2E2E2E2E2E2E2E2E2E2E2E2E2E2E2E2E2E2E2E2E2E2E2E2E2E2E2E2E2E2E2E2E2E2E2E2E2E2E2E2E2E2E2E2E2E2E2E2E2E2E2E2E2E2E2E2E2E2E2E2E2E2E2E2E2E2E2E2E2E2E2E2E2E2E2E2E2E2E2E2E2E2E2DCE2DCDCDCDCDCDCDCDCDCDCDCDCDCDCDCDCDCDCDCE2E2E2E2
310
E2DCDCDCDCDCDCDCDCDCDCDCDCDCDCDCDCDCDCDCDCDCE2E2E2E2E2E2E2E2E2E2E2E2DCDCDCDCDCDCDCDCDCDCDCDCDCDCDCDCDCDCDCDCDCDCDCE2E2E2E2E2E2E2E2E2E2E2E2E2E2E2E2E2E2E2E2E2E2E2E2E2E2E2E2E2E2E2E2E2E2E2E2E2E2E2E2E2E2E2E2E2E2E2E2E2E2E2E2E2E2E2E2E2E2E2E2E2E2E2E2E2E2E2E2E2E2
310
E2E2E2E2E2E2E2E2E2E2E2E2E2E2E2E2E2E2E2E2E2E2E2E2E2E2E2E2E2E2E2E2E2E2E2E2E2E2E2E2E2E2E2E2E2E2E2E2E2E2E2E2E2E2E2E2E2E2E2E2E2E2E2E2E2E2E2E2E2E2E2E2E2E2E2E2E2E2E2E2E2E2E2E2E2E2E2E2E2E2E2E2E2E2E2E2E2E2E2E2E2E2E2E2DCE2DCDCDCDCDCDCDCDCDCDCDCDCDCDCDCDCDCDCDCDCDC
310
DCDCDCE2E2E2E2E2E2E2E2E2E2E2E2E2E2E2E2E2E2E2E2E2E2E2E2E2E2E2E2E2E2E2E2E2E2E2DCDCDCDCDCDCDCDCDCDCDCDCDCDCDCDCDCDCDCDCE2E2E2E2E2E2E2E2E2E2E2E2E2E2E2E2E2E2E2E2E2E2E2E2E2E2E2E2E2E2E2E2E2E2E2E2E2E2E2E2E2E2E2E2E2E2E2E2E2E2E2E2E2E2E2E2E2E2E2E2E2E2E2E2E2E2E2E2E2
310
E2E2E2E2E2E2E2E2E2E2E2E2E2E2E2E2E2E2E2E2E2E2E2E2E2E2E2E2E2E2E2E2E2E2E2E2E2E2E2E2E2E2E2E2E2E2E2E2E2E2E2E2E2E2E2E2E2E2E2E2E2E2E2E2E2E2E2E2E2E2E2E2E2E2E2E2E2E2E2E2E2E2E2E2E2E2E2E2E2E2E2E2E2E2E2E2E2E2E2E2E2E2E2E2E2E2E2DCDCDCDCDCDCDCDCDCDCDCDCDCDCDCDCDCDCDCDC
310
DCDCDCDCDCE2E2E2E2E2E2E2E2E2E2E2E2E2E2E2E2E2E2E2E2E2E2E2E2E2E2E2E2E2E2E2E2E2E2E2DCDCDCDCDCDCDCDCDCDCDCDCDCDCDCDCDCDCDCDCE2E2E2E2E2E2E2E2E2E2E2E2E2E2E2E2E2E2E2E2E2E2E2E2E2E2E2E2E2E2E2E2E2E2E2E2E2E2E2E2E2E2E2E2E2E2E2E2E2E2E2E2E2E2E2E2E2E2E2E2E2E2E2E2E2E2E2
310
E2E2E2E2E2E2E2E2E2E2E2E2E2E2E2E2E2E2E2E2E2E2E2E2E2E2E2E2E2E2E2E2E2E2E2E2E2E2E2E2E2E2E2E2E2E2E2E2E2E2E2E2E2E2E2E2E2E2E2E2E2E2E2E2E2E2E2E2E2E2E2E2E2E2E2E2E2E2E2E2E2E2E2E2E2E2E2E2E2E2E2E2E2E2E2E2E2E2E2E2E2E2E2E2E2E2E2E2E2DCDCDCDCDCDCDCDCDCDCDCDCDCDCE2E2E2E2
310
E2E2E2E2E2E2E2E2E2E2E2E2E2E2E2E2E2E2E2E2E2E2E2E2E2E2E2E2E2E2E2E2E2E2E2E2E2E2E2E2E2E2E2E2E2E2E2E2E2E2E2E2E2E2E2E2E2E2E2E2E2E2E2E2E2E2E2E2E2E2E2E2E2E2E2E2E2E2E2E2E2E2E2E2E2E2E2E2E2E2E2E2E2E2E2E2E2E2E2E2E2E2E2E2E2E2E2E2E2E2E2E2E2E2E2E2E2E2E2E2E2E2E2E2E2E2E2
310
E2E2E2E2E2E2E2E2E2E2E2E2E2E2E2E2E2E2E2E2E2E2E2E2E2E2E2E2E2E2E2E2E2E2E2E2E2E2E2E2E2E2E2E2E2E2E2E2E2E2E2E2E2E2E2E2E2E2E2E2E2E2E2E2E2E2E2E2E2E2E2E2E2E2E2E2E2E2E2E2E2E2E2E2E2E2E2E2E2E2E2E2E2E2E2E2E2E2E2E2E2E2E2E2E2E2E2E2E2E2E2E2DCDCDCDCDCDCDCDCDCDCDCDCDCDCDC
310
E2E2E2E2E2E2E2E2E2E2E2E2E2E2E2E2E2E2E2E2E2E2E2E2E2E2E2E2E2E2E2E2E2E2E2E2E2E2E2E2E2E2E2E2E2E2E2E2E2E2E2E2E2E2E2E2E2E2E2E2E2E2E2E2E2E2E2E2E2E2E2E2E2E2E2E2E2E2E2E2E2E2E2E2E2E2E2E2E2E2E2E2E2E2E2E2E2E2E2E2E2E2E2E2E2E2E2E2E2E2E2E2E2E2E2E2E2E2E2E2E2E2E2E2E2E2E2
310
E2E2E2E2E2E2E2E2E2E2E2E2E2E2E2E2E2E2E2E2E2E2E2E2E2E2E2E2E2E2E2E2E2E2E2E2E2E2E2E2E2E2E2E2E2E2E2E2E2E2E2E2E2E2E2E2E2E2E2E2E2E2E2E2E2E2E2E2E2E2E2E2E2E2E2E2E2E2E2E2E2E2E2E2E2E2E2E2E2E2E2E2E2E2E2E2E2E2E2E2E2E2E2E2E2E2E2E2E2E2E2E2E2E2DCDCDCDCDCDCDCDCDCDCDCDCDC
310
DCDCDCE2E2E2E2E2E2E2E2E2E2E2E2E2E2E2E2E2E2E2E2E2E2E2E2E2E2E2E2E2E2E2E2E2E2E2E2E2E2E2E2E2E2E2E2E2E2E2E2E2E2E2E2E2E2E2E2E2E2E2E2E2E2E2E2E2E2E2E2E2E2E2E2E2E2E2E2E2E2E2E2E2E2E2E2E2E2E2E2E2E2E2E2E2E2E2E2E2E2E2E2E2E2E2E2E2E2E2E2E2E2E2E2E2E2E2E2E2E2E2E2E2E2E2E2
310
E2E2E2E2E2E2E2E2E2E2E2E2E2E2E2E2E2E2E2E2E2E2E2E2E2E2E2E2E2E2E2E2E2E2E2E2E2E2E2E2E2E2E2E2E2E2E2E2E2E2E2E2E2E2E2E2E2E2E2E2E2E2E2E2E2E2E2E2E2E2E2E2E2E2E2E2E2E2E2E2E2E2E2E2E2E2E2E2E2E2E2E2E2E2E2E2E2E2E2E2E2E2E2E2E2E2E2E2E2E2E2E2E2E2E2E2DCDCDCDCDCDCDCDCDCDCDC
310
DCDCDCDCDCE2E2E2E2E2E2E2E2E2E2E2E2E2E2E2E2E2E2E2E2E2E2E2E2E2E2E2E2E2E2E2E2E2E2E2E2E2E2E2E2E2E2E2E2E2E2E2E2E2E2E2E2E2E2E2E2E2E2E2E2E2E2E2E2E2E2E2E2E2E2E2E2E2E2E2E2E2E2E2E2E2E2E2E2E2E2E2E2E2E2E2E2E2E2E2E2E2E2E2E2E2E2E2E2E2E2E2E2E2E2E2E2E2E2E2E2E2E2E2E2E2E2
310
E2E2E2E2E2E2E2E2E2E2E2E2E2E2E2E2E2E2E2E2E2E2E2E2E2E2E2E2E2E2E2E2E2E2E2E2E2E2E2E2E2E2E2E2E2E2E2E2E2E2E2E2E2E2E2E2E2E2E2E2E2E2E2E2E2E2E2E2E2E2E2E2E2E2E2E2E2E2E2E2E2E2E2E2E2E2E2E2E2E2E2E2E2E2E2E2E2E2E2E2E2E2E2E2E2E2E2E2E2E2E2E2E2E2E2E2E2E2E2E2E2E2E2E2E2E2E2
310
E2E2E2E2E2E2E2E2E2E2E2E2E2E2E2E2E2E2E2E2E2E2E2E2E2E2E2E2E2E2E2E2E2E2E2E2E2E2E2E2E2E2E2E2E2E2E2E2E2E2E2E2E2E2E2E2E2E2E2E2E2E2E2E2E2E2E2E2E2E2E2E2E2E2E2E2E2E2E2E2E2E2E2E2E2E2E2E2E2E2E2E2E2E2E2E2E2E2E2E2E2E2E2E2E2E2E2E2E2E2E2E2E2E2E2E2E2E2E2E2E2E2E2E2E2E2E2
310
E2E2E2E2E2E2E2E2E2E2E2E2E2E2E2E2E2E2E2E2E2E2E2E2E2E2E2E2E2E2E2E2E2E2E2E2E2E2E2E2E2E2E2E2E2E2E2E2E2E2E2E2E2E2E2E2E2E2E2E2E2E2E2E2E2E2E2E2E2E2E2E2E2E2E2E2E2E2E2E2E2E2E2E2E2E2E2E2E2E2E2E2E2E2E2E2E2E2E2E2E2E2E2E2E2E2E2E2E2E2E2E2E2E2E2E2E2E2E2E2E2E2E2E2E2E2E2
310
E2E2E2E2E2E2E2E2E2E2E2E2E2E2E2E2E2E2E2E2E2E2E2E2E2E2E2E2E2E2E2E2E2E2E2E2E2E2E2E2E2E2E2E2E2E2E2E2E2E2E2E2E2E2E2E2E2E2E2E2E2E2E2E2E2E2E2E2E2E2E2E2E2E2E2E2E2E2E2E2E2E2E2E2E2E2E2E2E2E2E2E2E2E2E2E2E2E2E2E2E2E2E2E2E2E2E2E2E2E2E2E2E2E2E2E2E2E2E2E2E2E2E2E2E2E2E2
310
E2E2E2E2E2E2E2E2E2E2E2E2E2E2E2E2E2E2E2E2E2E2E2E2E2E2E2E2E2E2E2E2E2E2E2E2E2E2E2E2E2E2E2E2E2E2E2E2E2E2E2E2E2E2E2E2E2E2E2E2E2E2E2E2E2E2E2E2E2E2E2E2E2E2E2E2E2E2E2E2E2E2E2E2E2E2E2E2E2E2E2E2E2E2E2E2E2E2E2E2E2E2E2E2E2E2E2E2E2E2E2E2E2E2E2E2E2E2E2E2E2E2E2E2E2E2E2
310
E2E2E2E2E2E2E2E2E2E2E2E2E2E2E2E2E2E2E2E2E2E2E2E2E2E2E2E2E2E2E2E2E2E2E2E2E2E2E2E2E2E2E2E2E2E2E2E2E2E2E2E2E2E2E2E2E2E2E2E2E2E2E2E2E2E2E2E2E2E2E2E2E2E2E2E2E2E2E2E2E2E2E2E2E2E2E2E2E2E2E2E2E2E2E2E2E2E2E2E2E2E2E2E2E2E2E2E2E2E2E2E2E2E2E2E2E2E2E2E2E2E2E2E2E2E2E2
310
E2E2E2E2E2E2E2E2E2E2E2E2E2E2E2E2E2E2E2E2E2E2E2E2E2E2E2E2E2E2E2E2E2E2E2E2E2E2E2E2E2E2E2E2E2E2E2E2E2E2E2E2E2E2E2E2E2E2E2E2E2E2E2E2E2E2E2E2E2E2E2E2E2E2E2E2E2E2E2E2E2E2E2E2E2E2E2E2E2E2E2E2E2E2E2E2E2E2E2E2E2E2E2E2E2E2E2E2E2E2E2E2E2E2E2E2E2E2E2E2E2E2E2E2E2E2E2
310
E2E2E2E2E2E2E2E2E2E2E2E2E2E2E2E2DCDCDCDCDCDCE2E2E2E2E2E2E2E2E2E2E2E2E2E2E2E2E2E2E2E2E2E2E2E2E2E2E2E2E2E2E2E2E2E2E2E2E2E2E2E2E2E2E2E2E2E2E2E2E2E2E2E2E2E2E2E2E2E2E2E2E2E2E2E2E2E2E2E2E2E2E2E2E2E2E2E2E2E2E2E2E2E2E2E2E2E2E2E2E2E2E2E2E2E2E2E2E2E2E2E2E2E2E2E2E2
310
E2E2E2E2E2E2E2E2E2E2E2E2E2E2E2E2E2E2E2E2E2E2E2E2E2E2E2E2E2E2E2E2E2E2E2E2E2E2E2E2E2E2E2E2E2E2E2E2E2E2E2E2E2E2E2E2E2E2E2E2E2E2E2E2E2E2E2E2E2E2E2E2E2E2E2E2E2E2E2E2E2E2E2E2E2E2E2E2E2E2E2E2E2E2E2E2E2E2E2E2E2E2E2E2E2E2E2E2E2E2E2E2E2E2E2E2E2E2E2E2E2E2E2E2E2E2E2
310
E2E2E2E2E2E2E2E2E2E2E2E2E2E2E2E2E2E2DCDCDCDCDCDCE2E2E2E2E2E2E2E2E2E2E2E2E2E2E2E2E2E2E2E2E2E2E2E2E2E2E2E2E2E2E2E2E2E2E2E2E2E2E2E2E2E2E2E2E2E2E2E2E2E2E2E2E2E2E2E2E2E2E2E2E2E2E2E2E2E2E2E2E2E2E2E2E2E2E2E2E2E2E2E2E2E2E2E2E2E2E2E2E2E2E2E2E2E2E2E2E2E2E2E2E2E2E2
310
E2E2E2E2E2E2E2E2E2E2E2E2E2E2E2E2E2E2E2E2E2E2E2E2E2E2E2E2E2E2E2E2E2E2E2E2E2E2E2E2E2E2E2E2E2E2E2E2E2E2E2E2E2E2E2E2E2E2E2E2E2E2E2E2E2E2E2E2E2E2E2E2E2E2E2E2E2E2E2E2E2E2E2E2E2E2E2E2E2E2E2E2E2E2E2E2E2E2E2E2E2E2E2E2E2E2E2E2E2E2E2E2E2E2E2E2E2E2E2E2E2E2E2E2E2E2E2
310
E2E2E2E2E2E2E2E2E2E2E2E2E2E2E2E2E2E2E2E2DCDCDCDCDCDCE2E2E2E2E2E2E2E2E2E2E2E2E2E2E2E2E2E2E2E2E2E2E2E2E2E2E2E2E2E2E2E2E2E2E2E2E2E2E2E2E2E2E2E2E2E2E2E2E2E2E2E2E2E2E2E2E2E2E2E2E2E2E2E2E2E2E2E2E2E2E2E2E2E2E2E2E2E2E2E2E2E2E2E2E2E2E2E2E2E2E2E2E2E2E2E2E2E2E2E2E2
310
E2E2E2E2E2E2E2E2E2E2E2E2E2E2E2E2E2E2E2E2E2E2E2E2E2E2E2E2E2E2E2E2E2E2E2E2E2E2E2E2E2E2E2E2E2E2E2E2E2E2E2E2E2E2E2E2E2E2E2E2E2E2E2E2E2E2E2E2E2E2E2E2E2E2E2E2E2E2E2E2E2E2E2E2E2E2E2E2E2E2E2E2E2E2E2E2E2E2E2E2E2E2E2E2E2E2E2E2E2E2E2E2E2E2E2E2E2E2E2E2E2E2E2E2E2E2E2
310
E2E2E2E2E2E2E2E2E2E2E2E2E2E2E2E2E2E2E2E2E2E2E2E2E2E2E2E2E2E2E2E2E2E2E2E2E2E2E2E2E2E2E2E2E2E2E2E2E2E2E2E2E2E2E2E2E2E2E2E2E2E2E2E2E2E2E2E2E2E2E2E2E2E2E2E2E2E2E2E2E2E2E2E2E2E2E2E2E2E2E2E2E2E2E2E2E2E2E2E2E2E2E2E2E2E2E2E2E2E2E2E2E2E2E2E2E2E2E2E2E2E2E2E2E2E2E2
310
E2E2E2E2E2E2E2E2E2E2E2E2E2E2E2E2E2E2E2E2E2E2E2E2E2E2E2E2E2E2E2E2E2E2E2E2E2E2E2E2E2E2E2E2E2E2E2E2E2E2E2E2E2E2E2E2E2E2E2E2E2E2E2E2E2E2E2E2E2E2E2E2E2E2E2E2E2E2E2E2E2E2E2E2E2E2E2E2E2E2E2E2E2E2E2E2E2E2E2E2E2E2E2E2E2E2E2E2E2E2E2E2E2E2E2E2E2E2E2E2E2E2E2E2E2E2E2
310
E2E2E2E2E2E2E2E2E2E2E2E2E2E2E2E2E2E2E2E2E2E2E2E2E2E2E2E2E2E2E2E2E2E2E2E2E2E2E2E2E2E2E2E2E2E2E2E2E2E2E2E2E2E2E2E2E2E2E2E2E2E2E2E2E2E2E2E2E2E2E2E2E2E2E2E2E2E2E2E2E2E2E2E2E2E2E2E2E2E2E2E2E2E2E2E2E2E2E2E2E2E2E2E2E2E2E2E2E2E2E2E2E2E2E2E2E2E2E2E2E2E2E2E2E2E2E2
310
E2E2E2E2E2E2E2E2E2E2E2E2E2E2E2E2E2E2E2E2E2E2E2E2E2E2E2E2E2E2E2E2E2E2E2E2E2E2E2E2E2E2E2E2E2E2E2E2E2E2E2E2E2E2E2E2E2E2E2E2E2E2E2E2E2E2E2E2E2E2E2E2E2E2E2E2E2E2E2E2E2E2E2E2E2E2E2E2E2E2E2E2E2E2E2E2E2E2E2E2E2E2E2E2E2E2E2E2E2E2E2E2E2E2E2E2E2E2E2E2E2E2E2DCDCDCDC
310
DCDCDCDCDCDCDCDCDCDCDCDCDCDCDCDCDCDCDCDCDCDCDCDCDCDCDCDCDCDCDCDCDCDCDCDCDCDCDCDCDCDCDCDCDCDCDCDCDCDCDCDCDCDCDCDCDCDCDCDCDCDCE2E2E2E2E2E2E2E2E2E2E2E2E2E2E2E2E2E2E2E2E2E2E2E2E2E2E2E2E2E2E2E2E2E2E2E2E2E2E2E2E2E2E2E2E2E2E2E2E2E2E2E2E2E2E2E2E2E2E2E2E2E2E2E2E2
310
E2E2E2E2E2E2E2E2E2E2E2E2E2E2E2E2E2E2E2E2E2E2E2E2E2E2E2E2E2E2E2E2E2E2E2E2E2E2E2E2E2E2E2E2E2E2E2E2E2E2E2E2E2E2E2E2E2E2E2E2E2E2E2E2E2E2E2E2E2E2E2E2E2E2E2E2E2E2E2E2E2E2E2E2E2E2E2E2E2E2E2E2E2E2E2E2E2E2E2E2E2E2E2E2E2E2E2E2E2E2E2E2E2E2E2E2E2E2E2E2E2E2E2E2E2DCDC
310
E2E2E2E2E2E2E2E2E2E2E2E2E2E2DCDCE2E2E2E2E2E2E2E2E2E2E2E2E2E2DCDCDCE2E2E2E2E2E2E2E2E2E2E2E2E2DCDCDCE2E2E2E2E2E2E2E2E2E2E2E2E2DCDCE2E2E2E2E2E2E2E2E2E2E2E2E2E2E2E2E2E2E2E2E2E2E2E2E2E2E2E2E2E2E2E2E2E2E2E2E2E2E2E2E2E2E2E2E2E2E2E2E2E2E2E2E2E2E2E2E2E2E2E2E2E2E2
310
E2E2E2E2E2E2E2E2E2E2E2E2E2E2E2E2E2E2E2E2E2E2E2E2E2E2E2E2E2E2E2E2E2E2E2E2E2E2E2E2E2E2E2E2E2E2E2E2E2E2E2E2E2E2E2E2E2E2E2E2E2E2E2E2E2E2E2E2E2E2E2E2E2E2E2E2E2E2E2E2E2E2E2E2E2E2E2E2E2E2E2E2E2E2E2E2E2E2E2E2E2E2E2E2E2E2E2E2E2E2E2E2E2E2E2E2E2E2E2E2E2E2E2E2E2E2E2
310
DCE2E2E2E2E2E2E2E2E2E2E2E2E2E2E2E2E2E2E2E2E2E2E2E2E2E2E2E2E2E2E2E2DCE2E2E2E2E2E2E2E2E2E2E2E2E2E2E2E2E2E2E2E2E2E2E2E2E2E2E2E2E2E2E2DCE2E2E2E2E2E2E2E2E2E2E2E2E2E2E2E2E2E2E2E2E2E2E2E2E2E2E2E2E2E2E2E2E2E2E2E2E2E2E2E2E2E2E2E2E2E2E2E2E2E2E2E2E2E2E2E2E2E2E2E2E2
310
E2E2E2E2E2E2E2E2E2E2E2E2E2E2E2E2E2E2E2E2E2E2E2E2E2E2E2E2E2E2E2E2E2E2E2E2E2E2E2E2E2E2E2E2E2E2E2E2E2E2E2E2E2E2E2E2E2E2E2E2E2E2E2E2E2E2E2E2E2E2E2E2E2E2E2E2E2E2E2E2E2E2E2E2E2E2E2E2E2E2E2E2E2E2E2E2E2E2E2E2E2E2E2E2E2E2E2E2E2E2E2E2E2E2E2E2E2E2E2E2E2E2E2E2E2E2E2
310
E2E2DCE2E2E2E2E2E2E2E2E2E2E2E2E2E2E2E2E2E2E2E2E2E2E2E2E2E2E2E2E2E2E2E2DCE2E2E2E2E2E2E2E2E2E2E2E2E2E2E2E2E2E2E2E2E2E2E2E2E2E2E2E2E2E2E2DCE2E2E2E2E2E2E2E2E2E2E2E2E2E2E2E2E2E2E2E2E2E2E2E2E2E2E2E2E2E2E2E2E2E2E2E2E2E2E2E2E2E2E2E2E2E2E2E2E2E2E2E2E2E2E2E2E2E2E2
310
E2E2E2E2E2E2E2E2E2E2E2E2E2E2E2E2E2E2E2E2E2E2E2E2E2E2E2E2E2E2E2E2E2E2E2E2E2E2E2E2E2E2E2E2E2E2E2E2E2E2E2E2E2E2E2E2E2E2E2E2E2E2E2E2E2E2E2E2E2E2E2E2E2E2E2E2E2E2E2E2E2E2E2E2E2E2E2E2E2E2E2E2E2E2E2E2E2E2E2E2E2E2E2E2E2E2E2E2E2E2E2E2E2E2E2E2E2E2E2E2E2E2E2E2E2E2E2
310
E2E2E2E2DCE2E2E2E2E2E2E2E2E2E2E2E2E2E2E2E2E2E2E2E2E2E2E2E2E2E2E2E2E2E2E2E2BEE2E2E2E2E2E2E2E2E2E2E2E2E2E2E2E2E2E2E2E2E2E2E2E2E2E2E2E2E2E2E2DCE2E2E2E2E2E2E2E2E2E2E2E2E2E2E2E2E2E2E2E2E2E2E2E2E2E2E2E2E2E2E2E2E2E2E2E2E2E2E2E2E2E2E2E2E2E2E2E2E2E2E2E2E2E2E2E2E2
310
E2E2E2E2E2E2E2E2E2E2E2E2E2E2E2E2E2E2E2E2E2E2E2E2E2E2E2E2E2E2E2E2E2E2E2E2E2E2E2E2E2E2E2E2E2E2E2E2E2E2E2E2E2E2E2E2E2E2E2E2E2E2E2E2E2E2E2E2E2E2E2E2E2E2E2E2E2E2E2E2E2E2E2E2E2E2E2E2E2E2E2E2E2E2E2E2E2E2E2E2E2E2E2E2E2E2E2E2E2E2E2E2E2E2E2E2E2E2E2E2E2E2E2E2E2DCDC
310
DCDCDCDCDCDCDC2D2D2D2D2D2D2D2D2D2D2D2D2D2D2D2D2D2D2D2D2D2D2D2D2D2D2D2D2D2D2D2DBE2D2D2D2D2D2D2D2D2D2D2D2D2D2D2D2D2D2D2D2D2D2D2D2D2D2D2D2D2D2D2DDCE2E2E2E2E2E2E2E2E2E2E2E2E2E2E2E2E2E2E2E2E2E2E2E2E2E2E2E2E2E2E2E2E2E2E2E2E2E2E2E2E2E2E2E2E2E2E2E2E2E2E2E2E2E2E2
310
E2E2E2E2E2E2E2E2E2E2E2E2E2E2E2E2E2E2E2E2E2E2E2E2E2E2E2E2E2E2E2E2E2E2E2E2E2E2E2E2E2E2E2E2E2E2E2E2E2E2E2E2E2E2E2E2E2E2E2E2E2E2E2E2E2E2E2E2E2E2E2E2E2E2E2E2E2E2E2E2E2E2E2E2E2E2E2E2E2E2E2E2E2E2E2E2E2E2E2E2E2E2E2E2E2E2E2E2E2E2E2E2E2E2E2E2E2E2E2E2E2E2E2E2E2E2E2
310
E2DCE2E2E2E2E2E22DE2E2E2E2E2E2E2E2E2E2E2E2E2E2E2E2E2E2E2E2E2E2E2E2E2E2E2E2E2E2E2E2BEE2E2E2E2E2E2E2E2E2E2E2E2E2E2E2E2E2E2E2E2E2E2E2E2E2E2E2E2E2E2E22DE2E2E2E2E2E2E2E2E2E2E2E2E2E2E2E2E2E2E2E2E2E2E2E2E2E2E2E2E2E2E2E2E2E2E2E2E2E2E2E2E2E2E2E2E2E2E2E2E2E2E2E2E2
310
E2E2E2E2E2E2E2E2E2E2E2E2E2E2E2E2E2E2E2E2E2E2E2E2E2E2E2E2E2E2E2E2E2E2E2E2E2E2E2E2E2E2E2E2E2E2E2E2E2E2E2E2E2E2E2E2E2E2E2E2E2E2E2E2E2E2E2E2E2E2E2E2E2E2E2E2E2E2E2E2E2E2E2E2E2E2E2E2E2E2E2E2E2E2E2E2E2E2E2E2E2E2E2E2E2E2E2E2E2E2E2E2E2E2E2E2E2E2E2E2E2E2E2E2E2E2E2
310
DCDCDCDCE2E2E2E2E2E2F0F0F0F0F0F0F0F0F0F0F0F0F0F0F0F0F0F0F0F0F0F0F0F0F0F0F0F0F0F0F0F0F0F0F0F0F0F0F0F0F0F0F0F0F0F0F0F0F0F0F0F0F0F0F0F0F0F0F0F0F0F0F0F0F0F0E2E2E2E2E2E2E2E2E2E2E2E2E2E2E2E2E2E2E2E2E2E2E2E2E2E2E2E2E2E2E2E2E2E2E2E2E2E2E2E2E2E2E2E2E2E2E2E2E2E2E2
310
E2E2E2E2E2E2E2E2E2E2E2E2E2E2E2E2E2E2E2E2E2E2E2E2E2E2E2E2E2E2E2E2E2E2E2E2E2E2E2E2E2E2E2E2E2E2E2E2E2E2E2E2E2E2E2E2E2E2E2E2E2E2E2E2E2E2E2E2E2E2E2E2E2E2E2E2E2E2E2E2E2E2E2E2E2E2E2E2E2E2E2E2E2E2E2E2E2E2E2E2E2E2E2E2E2E2E2E2E2E2E2E2E2E2E2E2E2E2E2E2E2E2E2E2E2E2E2
310
E2E2DCDCDCDCE2E2E2E2E2E22DE2E2E2E2E2E2E2E2E2E2E2E2E2E2E2E2E2E2E2E2E2E2E2E2E2E2E2E2E2E2E2E2BEE2E2E2E2E2E2E2E2E2E2E2E2E2E2E2E2E2E2E2E2E2E2E2E2E2E2E2E2E2E2E22DE2E2E2E2E2E2E2E2E2E2E2E2E2E2E2E2E2E2E2E2E2E2E2E2E2E2E2E2E2E2E2E2E2E2E2E2E2E2E2E2E2E2E2E2E2E2E2E2E2
310
E2E2E2E2E2E2E2E2E2E2E2E2E2E2E2E2E2E2E2E2E2E2E2E2E2E2E2E2E2E2E2E2E2E2E2E2E2E2E2E2E2E2E2E2E2E2E2E2E2E2E2E2E2E2E2E2E2E2E2E2E2E2E2E2E2E2E2E2E2E2E2E2E2E2E2E2E2E2E2E2E2E2E2E2E2E2E2E2E2E2E2E2E2E2E2E2E2E2E2E2E2E2E2E2E2E2E2E2E2E2E2E2E2E2E2E2E2E2E2E2E2E2E2E2E2E2E2
310
E2E2E2E2E2DCDCDCE2E2E2E2E2E22DE2E2E2E2BEE2E2E2E2E2BEE2E2E2E2BEE2E2E2E2E2BEE2E2E2E2E2BEE2E2E2E2BEE2E2E2E2BEE2E2E2E2BEE2E2E2E2E2BEE2E2E2E2E2BEE2E2E2E2BEE2E2E2E22DE2E2E2E2E2E2E2E2E2E2E2E2E2E2E2E2E2E2E2E2E2E2E2E2E2E2E2E2E2E2E2E2E2E2E2E2E2E2E2E2E2E2E2E2E2E2E2
310
E2E2E2E2E2E2E2E2E2E2E2E2E2E2E2E2E2E2E2E2E2E2E2E2E2E2E2E2E2E2E2E2E2E2E2E2E2E2E2E2E2E2E2E2E2E2E2E2E2E2E2E2E2E2E2E2E2E2E2E2E2E2E2E2E2E2E2E2E2E2E2E2E2E2E2E2E2E2E2E2E2E2E2E2E2E2E2E2E2E2E2E2E2E2E2E2E2E2E2E2E2E2E2E2E2E2E2E2E2E2E2E2E2E2E2E2E2E2E2E2E2E2E2E2E2E2E2
310
E2E2E2E2E2E2E2DCDCDCE2E2E2E2E2E22DE2E2E2E2ECECE2E2E2ECECE2E2E2E2ECECE2E2E2ECBEECE2E2E2ECECE2E2E2E2BEE2E2E2ECECE2E2E2E2ECECE2E2E2ECECECE2E2E2ECECE2E2E2E2ECECE2E2E22DE2E2E2E2E2E2E2E2E2E2E2E2E2E2E2E2E2E2E2E2E2E2E2E2E2E2E2E2E2E2E2E2E2E2E2E2E2E2E2E2E2E2E2E2E2
310
E2E2E2E2E2E2E2E2E2E2E2E2E2E2E2E2E2E2E2E2E2E2E2E2E2E2E2E2E2E2E2E2E2E2E2E2E2E2E2E2E2E2E2E2E2E2E2E2E2E2E2E2E2E2E2E2E2E2E2E2E2E2E2E2E2E2E2E2E2E2E2E2E2E2E2E2E2E2E2E2E2E2E2E2E2E2E2E2E2E2E2E2E2E2E2E2E2E2E2E2E2E2E2E2E2E2E2E2E2E2E2E2E2E2E2E2E2E2E2E2E2E2E2E2E2E2E2
310
E2E2E2E2E2E2E2E2E2DCDCDCE2E2E2E2E2E22DE2E2E2ECECECECE2ECECECECE2E2ECECECECE2ECECBEECECE2ECECECECE2E2ECECE2E2ECECECECE2E2ECECECECE2ECECECECECE2ECECECECE2E2ECECECECE2E22DE2E2E2E2E2E2E2E2E2E2E2E2E2E2E2E2E2E2E2E2E2E2E2E2E2E2E2E2E2E2E2E2E2E2E2E2E2E2E2E2E2E2E2
310
E2E2E2E2E2E2E2E2E2E2E2E2E2E2E2E2E2E2E2E2E2E2E2E2E2E2E2E2E2E2E2E2E2E2E2E2E2E2E2E2E2E2E2E2E2E2E2E2E2E2E2E2E2E2E2E2E2E2E2E2E2E2E2E2E2E2E2E2E2E2E2E2E2E2E2E2E2E2E2E2E2E2E2E2E2E2E2E2E2E2E2E2E2E2E2E2E2E2E2E2E2E2E2E2E2E2E2E2E2E2E2E2E2E2E2E2E2E2E2E2E2E2E2E2E2E2E2
310
E2E2E2E2E2E2E2E2E2E2E2DCDCDCE22D2D2DBEBEBEBEBEECECBEBEECBEECBEBEECBEBEECBEBEECBEECECBEECECBEECBEBEECBEBEECECBEBEECBEBEECBEBEECBEBEECBEECECBEECECBEECBEBEECBEBEECBEBEECBEBEBEBEBE2D2D2DE2E2E2E2E2E2E2E2E2E2E2E2E2E2E2E2E2E2E2E2E2E2E2E2E2E2E2E2E2E2E2E2E2E2E2E2
310
E2E2E2E2E2E2E2E2E2E2E2E2E2E2E2E2E2E2E2E2E2E2E2E2E2E2E2E2E2E2E2E2E2E2E2E2E2E2E2E2E2E2E2E2E2E2E2E2E2E2E2E2E2E2E2E2E2E2E2E2E2E2E2E2E2E2E2E2E2E2E2E2E2E2E2E2E2E2E2E2E2E2E2E2E2E2E2E2E2E2E2E2E2E2E2E2E2E2E2E2E2E2E2E2E2E2E2E2E2E2E2E2E2E2E2E2E2E2E2E2E2E2E2E2E2E2E2
310
E2E2E2E2E2E2E2E2E2E2E2E2E2DCDCDCE22DDCDCDCE22DE2E2E2ECECECECE2ECECECECE2E2ECECECECE2ECECBEECE2E2ECECECECE2E2E2ECE2E2ECECECECE2E2ECECECECE2ECECECECE2E2ECECECECE2E2ECECECECE2E22DE2DCDCDC2DE2E2E2E2E2E2E2E2E2E2E2E2E2E2E2E2E2E2E2E2E2E2E2E2E2E2E2E2E2E2E2E2E2E2
310
E2E2E2E2E2E2E2E2E2E2E2E2E2E2E2E2E2E2E2E2E2E2E2E2E2E2E2E2E2E2E2E2E2E2E2E2E2E2E2E2E2E2E2E2E2E2E2E2E2E2E2E2E2E2E2E2E2E2E2E2E2E2E2E2E2E2E2E2E2E2E2E2E2E2E2E2E2E2E2E2E2E2E2E2E2E2E2E2E2E2E2E2E2E2E2E2E2E2E2E2E2E2E2E2E2E2E2E2E2E2E2E2E2E2E2E2E2E2E2E2E2E2E2E2E2E2E2
310
E2E2E2E2E2E2E2E2E2E2E2E2E2E2E2DCDCDCE22DDCDCDCE22DE2E2E2E2ECECE2E2E2ECECE2E2E2E2ECECE2E2E2ECBEECE2E2E2ECECE2E2E2E2BEE2E2E2ECECE2E2E2E2BEECE2E2E2ECECECE2E2E2ECECE2E2E2E2ECECE2E2E22DE2DCDCDC2D2DE2E2E2E2E2E2E2E2E2E2E2E2E2E2E2E2E2E2E2E2E2E2E2E2E2E2E2E2E2E2E2
310
E2E2E2E2E2E2E2E2E2E2E2E2E2E2E2E2E2E2E2E2E2E2E2E2E2E2E2E2E2E2E2E2E2E2E2E2E2E2E2E2E2E2E2E2E2E2E2E2E2E2E2E2E2E2E2E2E2E2E2E2E2E2E2E2E2E2E2E2E2E2E2E2E2E2E2E2E2E2E2E2E2E2E2E2E2E2E2E2E2E2E2E2E2E2E2E2E2E2E2E2E2E2E2E2E2E2E2E2E2E2E2E2E2E2E2E2E2E2E2E2E2E2E2E2E2E2E2
310
E2E2E2E2E2E2E2E2E2E2E2E2E2E2E2E2E2DCDCDCE22DDCDCDCE22DE2E2E2E2BEE2E2E2E2E2BEE2E2E2E2BEE2E2E2E2E2BEE2E2E2E2E2BEE2E2E2E2BEE2E2E2E2BEE2E2E2E2BEE2E2E2E2E2BEE2E2E2E2E2BEE2E2E2E2BEE2E2E2E22DE2DCDCDC2D2DE2E2E2E2E2E2E2E2E2E2E2E2E2E2E2E2E2E2E2E2E2E2E2E2E2E2E2E2E2
310
E2E2E2E2E2E2E2E2E2E2E2E2DCDCDCDCDCDCDCDCDCDCDCDCDCDCDCDCDCE2E2E2E2E2E2E2E2E2E2E2E2E2E2E2E2E2E2E2E2E2E2E2E2E2E2E2E2E2E2E2E2E2E2E2E2E2E2E2E2E2E2E2E2E2E2E2E2E2E2E2E2E2E2E2E2E2E2E2E2E2E2E2E2E2E2E2E2E2E2E2E2E2E2E2E2E2E2E2E2E2E2E2E2E2E2E2E2E2E2E2E2E2E2E2E2E2E2
310
E2E2E2E2E2E2E2E2E2E2E2E2E2E2E2E2E2E2E2E2E2DCE22DDCDCDCE22DE2E2E2E2BEE2E2E2E2E2BEE2E2E2E2BEE2E2E2E2E2BEE2E2E2E2E2BEE2E2E2E2BEE2E2E2E2BEE2E2E2E2BEE2E2E2E2E2BEE2E2E2E2E2BEE2E2E2E2BEE2E2E2E22DE2DCDCDC2DE2E2E2E2E2E2E2E2E2E2E2E2E2E2E2E2E2E2E2E2E2E2E2E2E2E2E2E2
310
E2E2E2E2E2E2E2E2E2E2E2E2E2E2DCDCDCDCDCDCDCDCDCDCDCDCDCDCDCDCDCDCDCE2E2E2E2E2E2E2E2E2E2E2E2E2E2E2E2E2E2E2E2E2E2E2E2E2E2E2E2E2E2E2E2E2E2E2E2E2E2E2E2E2E2E2E2E2E2E2E2E2E2E2E2E2E2E2E2E2E2E2E2E2E2E2E2E2E2E2E2E2E2E2E2E2E2E2E2E2E2E2E2E2E2E2E2E2E2E2E2E2E2E2E2E2E2
310
E2E2E2E2E2E2E2E2E2E2E2E2E2E2E2E2E2E2E2E2E2E2E2DCE2E2E2E2E2E2F0F0F0F0F0F0F0F0F0F0F0F0F0F0F0F0BEF0F0F0F0F0BEF0F0F0F0F0BEF0F0F0F0F0F0F0F0F0BEF0F0F0F0BEF0F0F0F0F0BEF0F0F0F0F0F0F0F0F0F0F0F0F0F0F0F0E2E2E2E2E2E2E2E2E2E2E2E2E2E2E2E2E2E2E2E2E2E2E2E2E2E2E2E2E2E2E2
310
E2E2E2E2E2E2E2E2E2E2E2E2E2E2E2E2E2E2E2E2E2E2E2E2E2E2E2E2E2E2E2E2E2E2E2E2E2E2E2E2E2E2E2E2E2E2E2E2E2E2E2E2E2E2E2E2E2E2E2E2E2E2E2E2E2E2E2E2E2E2E2E2E2E2E2E2E2E2E2E2E2E2E2E2E2E2E2E2E2E2E2E2E2E2E2E2E2E2E2E2E2E2E2E2E2E2E2E2E2E2E2E2E2E2E2E2E2E2E2E2E2E2E2E2E2E2E2
310
E2E2E2E2E2E2E2E2E2E2E2E2E2E2E2E2E2E2E2E2E2E2E2E2E2DCE2E2E2E2E2E22DE2E2E2E2BEE2E2E2E2E2BEE2E2E2E2BEE2E2E2E2E2BEE2E2E2E2E2BEE2E2E2E2BEE2E2E2E2BEE2E2E2E2BEE2E2E2E2E2BEE2E2E2E2E2BEE2E2E2E2BEE2E2E2E22DE2E2E2E2E2E2E2E2E2E2E2E2E2E2E2E2E2E2E2E2E2E2E2E2E2E2E2E2E2
310
E2E2E2E2E2E2E2E2E2E2E2E2E2E2E2E2E2E2E2E2DCE2E2E2E2E2E2E2E2E2E2E2E2E2E2E2E2E2E2E2E2E2E2E2E2E2E2E2E2E2E2E2E2E2E2E2E2E2E2E2E2E2E2E2E2E2E2E2E2E2E2E2E2E2E2E2E2E2E2E2E2E2E2E2E2E2E2E2E2E2E2E2E2E2E2E2E2E2E2E2E2E2E2E2E2E2E2E2E2E2E2E2E2E2E2E2E2E2E2E2E2E2E2E2E2E2E2
310
E2E2E2E2E2E2E2E2E2E2E2E2E2E2E2E2E2E2E2E2E2E2E2E2E2E2DCDCDCDCDCDCDCDCDC2D2D2D2DBE2D2D2D2D2DBE2D2D2D2DBE2D2D2D2D2DBE2D2D2D2D2DBE2D2D2D2DBE2D2D2D2DBE2D2D2D2DBE2D2D2D2D2DBE2D2D2D2D2DBE2D2D2D2DBE2D2D2D2DDCE2E2E2E2E2E2E2E2E2E2E2E2E2E2E2E2E2E2E2E2E2E2E2E2E2E2E2
310
E2E2E2E2E2E2E2E2E2E2E2E2E2E2E2E2E2E2E2E2DCDCDCDCDCDCDCDCDCDCDCDCDCDCDCDCDCDCDCDCDCDCDCDCDCDCDCDCE2E2E2E2E2E2E2E2E2E2E2E2E2E2E2E2E2E2E2E2E2E2E2E2E2E2E2E2E2E2E2E2E2E2E2E2E2E2E2E2E2E2E2E2E2E2E2E2E2E2E2E2E2E2E2E2E2E2E2E2E2E2E2E2E2E2E2E2E2E2E2E2E2E2E2E2E2E2E2
310
E2E2E2E2E2E2E2E2E2E2E2E2E2E2E2E2E2E2E2E2E2E2E2E2E2E2E2E2E2E2E2E2E2E2E2E2DCE2E2E2E2BEE2E2E2E2E2BEE2E2E2E2BEE2E2E2E2E2BEE2E2E2E2E2BEE2E2E2E2BEE2E2E2E2BEE2E2E2E2BEE2E2E2E2E2BEE2E2E2E2E2BEE2E2E2E2BEE2E2E2E2DCE2E2E2E2E2E2E2E2E2E2E2E2E2E2E2E2E2E2E2E2E2E2E2E2E2
310
E2E2E2E2E2E2E2E2E2E2E2E2E2E2E2E2E2E2E2E2E2E2DCDCDCDCDCDCDCDCDCDCDCDCDCDCDCDCDCDCDCDCDCDCDCDCDCDCDCDCE2E2E2E2E2E2E2E2E2E2E2E2E2E2E2E2E2E2E2E2E2E2E2E2E2E2E2E2E2E2E2E2E2E2E2E2E2E2E2E2E2E2E2E2E2E2E2E2E2E2E2E2E2E2E2E2E2E2E2E2E2E2E2E2E2E2E2E2E2E2E2E2E2E2E2E2E2
310
E2E2E2E2E2E2E2E2E2E2E2E2E2E2E2E2E2E2E2E2E2E2E2E2E2E2E2E2E2E2E2E2E2E2E2E2E2E2DCE2E2E2E2DCE2E2E2E2E2DCE2E2E2E2DCE2E2E2E2E2DCE2E2E2E2E2DCE2E2E2E2DCE2E2E2E2DCE2E2E2E2DCE2E2E2E2E2DCE2E2E2E2E2DCE2E2E2E2DCE2E2E2E2DCE2E2E2E2E2E2E2E2E2E2E2E2E2E2E2E2E2E2E2E2E2E2E2
310
E2E2E2E2E2E2E2E2E2E2E2E2E2E2E2E2E2E2E2E2E2E2E2E2DCDCDCE2DCDCDCDCDCDCDCDCDCDCDCDCE2E2E2E2E2E2E2E2E2E2E2DCE2E2E2E2E2E2E2E2E2E2E2E2E2E2E2E2E2E2E2E2E2E2E2E2E2E2E2E2E2E2E2E2E2E2E2E2E2E2E2E2E2E2E2E2E2E2E2E2E2E2E2E2E2E2E2E2E2E2E2E2E2E2E2E2E2E2E2E2E2E2E2E2E2E2E2
310
E2E2E2E2E2E2E2E2E2E2E2E2E2E2E2E2E2E2E2E2E2E2E2E2E2E2E2E2E2E2E2E2E2E2E2E2E2E2E2E2DCE2E2E2E2DCE2E2E2E2E2DCE2E2E2E2DCE2E2E2E2E2DCE2E2E2E2E2DCE2E2E2E2DCE2E2E2E2DCE2E2E2E2DCE2E2E2E2E2DCE2E2E2E2E2DCE2E2E2E2DCE2E2E2E2DCE2E2E2E2E2E2E2E2E2E2E2E2E2E2E2E2E2E2E2E2E2
310
E2E2E2E2E2E2E2E2E2E2E2E2E2E2E2E2E2E2E2E2E2E2E2E2E2E2DCDCDCDCDCDCDCDCDCDCDCDCDCDCDCDCDCDCDCDCDCDCDCDCDCDCDCDCE2E2E2E2E2E2E2E2E2E2E2E2E2E2E2E2E2E2E2E2E2E2E2E2E2E2E2E2E2E2E2E2E2E2E2E2E2E2E2E2E2E2E2E2E2E2E2E2E2E2E2E2E2E2E2E2E2E2E2E2E2E2E2E2E2E2E2E2E2E2E2E2E2
310
E2E2E2E2E2E2E2E2E2E2E2E2E2E2E2E2E2E2E2E2E2E2E2E2E2E2E2E2E2E2E2E2E2E2E2E2E2E2E2E2E2E2DCDCDCDCDCDCDCDCDCDCDCDCDCDCDCDCDCDCDCDCDCDCDCDCDCDCDCDCDCDCDCDCDCDCDCDCDCDCDCDCDCDCDCDCDCDCDCDCDCDCDCDCDCDCDCDCDCDCDCDCDCDCDCDCDCDCE2E2E2E2E2E2E2E2E2E2E2E2E2E2E2E2E2E2E2
310
E2E2E2E2E2E2E2E2E2E2E2E2E2E2E2E2E2E2E2E2E2E2E2E2E2E2E2E2DCE2DCE2DCDCDCDCDCDCDCDCDCDCDCDCE2E2E2E2E2E2E2E2E2E2E2DCE2E2E2E2E2E2E2E2E2E2E2E2E2E2E2E2E2E2E2E2E2E2E2E2E2E2E2E2E2E2E2E2E2E2E2E2E2E2E2E2E2E2E2E2E2E2E2E2E2E2E2E2E2E2E2E2E2E2E2E2E2E2E2E2E2E2E2E2E2E2E2
310
E2E2E2E2E2E2E2E2E2E2E2E2E2E2E2E2E2E2E2E2E2E2E2E2E2E2E2E2E2E2E2E2E2E2E2E2E2E2E2E2E2E2E2E2DCDCDCDCDCDCDCDCDCE2DCDCDCDCDCDCDCDCDCDCE2DCDCDCDCDCE2DCDCDCDCE2DCDCDCDCE2DCDCDCDCE2DCDCDCDCDCE2DCDCDCDCDCE2DCDCDCDCE2DCDCDCDCDCDCDCE2E2E2E2E2E2E2E2E2E2E2E2E2E2E2E2E2
310
E2E2E2E2E2E2E2E2E2E2E2E2E2E2E2E2E2E2E2E2E2E2E2E2E2E2E2E2E2E2DCDCDCDCDCDCDCDCDCDCDCDCDCDCDCDCDCDCDCDCDCDCDCDCDCDCDCDCE2E2E2E2E2E2E2E2E2E2E2E2E2E2E2E2E2E2E2E2E2E2E2E2E2E2E2E2E2E2E2E2E2E2E2E2E2E2E2E2E2E2E2E2E2E2E2E2E2E2E2E2E2E2E2E2E2E2E2E2E2E2E2E2E2E2E2E2E2
310
E2E2E2E2E2E2E2E2E2E2E2E2E2E2E2E2E2E2E2E2E2E2E2E2E2E2E2E2E2E2E2E2E2E2E2E2E2E2E2E2E2E2E2E2E2E2DCDCDCDCDCE2E2DCDCE2E2E2E2DCDCE2E2E2DCDCE2E2E2E2DCDCE2E2E2DCDCE2E2E2DCDCE2E2E2E2DCE2E2E2E2DCDCE2E2E2E2DCDCE2E2E2DCDCE2E2E2DCDCDCDCDCE2E2E2E2E2E2E2E2E2E2E2E2E2E2E2
310
E2E2E2E2E2E2E2E2E2E2E2E2E2E2E2E2E2E2E2E2E2E2E2E2E2E2E2E2E2E2E2E2DCDCDCDCDCDCDCDCDCDCDCDCDCDCDCDCDCDCDCDCDCDCDCDCDCDCDCDCE2E2E2E2E2E2E2E2E2E2E2E2E2E2E2E2E2E2E2E2E2E2E2E2E2E2E2E2E2E2E2E2E2E2E2E2E2E2E2E2E2E2E2E2E2E2E2E2E2E2E2E2E2E2E2E2E2E2E2E2E2E2E2E2E2E2E2
310
E2E2E2E2E2E2E2E2E2E2E2E2E2E2E2E2E2E2E2E2E2E2E2E2E2E2E2E2E2E2E2E2E2E2E2E2E2E2E2E2E2E2E2E2E2E2E2E2DCDCE2E2E2E2E2E2E2E2E2E2E2E2E2E2E2E2E2E2E2E2E2E2E2E2E2E2E2E2E2E2E2E2E2E2E2E2E2E2E2E2E2E2E2E2E2E2E2E2E2E2E2E2E2E2E2E2E2E2E2E2E2E2DCDCE2E2E2E2E2E2E2E2E2E2E2E2E2
310
E2E2E2E2E2E2E2E2E2E2E2E2E2E2E2E2E2E2E2E2E2E2E2E2E2E2E2E2E2E2E2E2E2E2DCDCDCE2DCE2E2E2E2E2E2E2DCDCDCDCDCDCDCE2E2E2E2E2E2E2E2DCE2E2E2E2E2E2E2E2E2E2E2E2E2E2E2E2E2E2E2E2E2E2E2E2E2E2E2E2E2E2E2E2E2E2E2E2E2E2E2E2E2E2E2E2E2E2E2E2E2E2E2E2E2E2E2E2E2E2E2E2E2E2E2E2E2
310
E2E2E2E2E2E2E2E2E2E2E2E2E2E2E2E2E2E2E2E2E2E2E2E2E2E2E2E2E2E2E2E2E2E2E2E2E2E2E2E2E2E2E2E2E2E2E2E2E2E2DCDCDCDCDCDCDCDCDCDCDCDCDCDCDCDCDCDCDCDCDCDCDCDCDCDCDCDCDCDCDCDCDCDCDCDCDCDCDCDCDCDCDCDCDCDCDCDCDCDCDCDCDCDCDCDCDCDCDCDCDCDCDCDCDCDCE2E2E2E2E2E2E2E2E2E2E2
310
E2E2E2E2E2E2E2E2E2E2E2E2E2E2E2E2E2E2E2E2E2E2E2E2E2E2E2E2E2E2E2E2E2E2E2E2DCDCDCDCDCDCDCDCDCDCDCDCDCDCDCDCDCDCDCDCDCDCDCDCDCDCDCDCE2E2E2E2E2E2E2E2E2E2E2E2E2E2E2E2E2E2E2E2E2E2E2E2E2E2E2E2E2E2E2E2E2E2E2E2E2E2E2E2E2E2E2E2E2E2E2E2E2E2E2E2E2E2E2E2E2E2E2E2E2E2E2
310
E2E2E2E2E2E2E2E2E2E2E2E2E2E2E2E2E2E2E2E2E2E2E2E2E2E2E2E2E2E2E2E2E2E2E2E2E2E2E2E2E2E2E2E2E2E2E2E2E2E2E2E2E2E2E2E2E2E2E2E2E2E2E2E2E2E2E2E2E2E2E2E2E2E2E2E2E2E2E2E2E2E2DCDCDCDCDCE2E2E2E2E2E2E2E2E2E2E2E2E2E2E2E2E2E2E2E2E2E2E2E2E2E2E2E2E2E2E2E2E2E2E2E2E2E2E2E2
310
E2E2E2E2E2E2E2E2E2E2E2E2E2E2E2E2E2E2E2E2E2E2E2E2E2E2E2E2E2E2E2E2E2E2E2E2E2E2DCE2E2E2E2E2E2E2E2E2E2E2E2E2E2E2E2E2E2E2E2E2E2E2E2E2E2DCE2E2E2E2E2E2E2E2E2E2E2E2E2E2E2E2E2E2E2E2E2E2E2E2E2E2E2E2E2E2E2E2E2E2E2E2E2E2E2E2E2E2E2E2E2E2E2E2E2E2E2E2E2E2E2E2E2E2E2E2E2
310
E2E2E2E2E2E2E2E2E2E2E2E2E2E2E2E2E2E2E2E2E2E2E2E2E2E2E2E2E2E2E2E2E2E2E2E2E2E2E2E2E2E2E2E2E2E2E2E2E2E2E2E2E2E2E2E2E2E2E2E2E2E2E2E2E2E2E2E2E2E2E2E2E2E2E2E2E2E2E2E2E2E2E2E2E2E2E2E2E2E2E2E2E2E2E2E2E2E2E2E2E2E2E2E2E2E2E2E2E2E2E2E2E2E2E2E2E2E2E2E2E2E2E2E2E2E2E2
310
E2E2E2E2E2E2E2E2E2E2E2E2E2E2E2E2E2E2E2E2E2E2E2E2E2E2E2E2E2E2E2E2E2E2E2E2E2E2E2E2DCDCDCDCDCDCDCDCDCDCDCDCDCDCDCDCDCDCDCDCDCDCDCDCDCDCDCDCE2E2E2E2E2E2E2E2E2E2E2E2E2E2E2E2E2E2E2E2E2E2E2E2E2E2E2E2E2E2E2E2E2E2E2E2E2E2E2E2E2E2E2E2E2E2E2E2E2E2E2E2E2E2E2E2E2E2E2
310
E2E2E2E2E2E2E2E2E2E2E2E2E2E2E2E2E2E2E2E2E2E2E2E2E2E2E2E2E2E2E2E2E2E2E2E2E2E2E2E2E2E2E2E2E2E2E2E2E2E2E2E2E2E2E2E2E2E2E2E2E2E2E2E2E2E2E2E2E2E2E2E2E2E2E2E2E2E2E2E2E2E2E2E2E2E2E2E2E2E2E2E2E2E2E2E2E2E2E2E2E2E2E2E2E2E2E2E2E2E2E2E2E2E2E2E2E2E2E2E2E2E2E2E2E2E2E2
310
E2E2E2E2E2E2E2E2E2E2E2E2E2E2E2E2E2E2E2E2E2E2E2E2E2E2E2E2E2E2E2E2E2E2E2E2E2E2E2E2E2E2E2E2E2E2E2E2E2E2E2E2E2E2E2E2E2E2E2E2E2E2E2E2E2E2E2E2E2E2E2E2E2E2E2E2E2E2E2E2E2E2E2E2E2E2E2E2E2E2E2E2E2E2E2E2E2E2E2E2E2E2E2E2E2E2E2E2E2E2E2E2E2E2E2E2E2E2E2E2E2E2E2E2E2E2E2
310
E2E2E2E2E2E2E2E2E2E2E2E2E2E2E2E2E2E2E2E2E2E2E2E2E2E2E2E2E2E2E2E2E2E2E2E2E2E2E2E2E2E2E2E2E2E2E2E2E2E2E2E2E2E2E2E2E2E2E2E2E2E2E2E2E2E2E2E2E2E2E2E2E2E2E2E2E2E2E2E2E2E2E2E2E2E2E2E2E2E2E2E2E2E2E2E2E2E2E2E2E2E2E2E2E2E2E2E2E2E2E2E2E2E2E2E2E2E2E2E2E2E2E2E2E2E2E2
310
E2E2E2E2E2E2E2E2E2E2E2E2E2E2E2E2E2E2E2E2E2E2E2E2E2E2E2E2E2E2E2E2E2E2E2E2E2E2E2E2E2E2E2E2E2E2E2E2E2E2E2E2E2E2E2E2E2E2E2E2E2E2E2E2E2E2E2E2E2E2E2E2E2E2E2E2E2E2E2E2E2E2E2E2E2E2E2E2E2E2E2E2E2E2E2E2E2E2E2E2E2E2E2E2E2E2E2E2E2E2E2E2E2E2E2E2E2E2E2E2E2E2E2E2E2E2E2
310
E2E2E2E2E2E2E2E2E2E2E2E2E2E2E2E2E2E2E2E2E2E2E2E2E2E2E2E2E2E2E2E2E2E2E2E2E2E2E2E2E2E2E2E2E2E2E2E2E2E2E2E2E2E2E2E2E2E2E2E2E2E2E2E2E2E2E2E2E2E2E2E2E2E2E2E2E2E2E2E2E2E2E2E2E2E2E2E2E2E2E2E2E2E2E2E2E2E2E2E2E2E2E2E2E2E2E2E2E2E2E2E2E2E2E2E2E2E2E2E2E2E2E2E2E2E2E2
310
E2E2E2E2E2E2E2E2E2E2E2E2E2E2E2E2E2E2E2E2E2E2E2E2E2E2E2E2E2E2E2E2E2E2E2E2E2E2E2E2E2E2E2E2E2E2E2E2E2E2E2E2E2E2E2E2E2E2E2E2E2E2E2E2E2E2E2E2E2E2E2E2E2E2E2E2E2E2E2E2E2E2E2E2E2E2E2E2E2E2E2E2E2E2E2E2E2E2E2E2E2E2E2E2E2E2E2E2E2E2E2E2E2E2E2E2E2E2E2E2E2E2E2E2E2E2E2
310
E2E2E2E2E2E2E2E2E2E2E2E2E2E2E2E2E2E2E2E2E2E2E2E2E2E2E2E2E2E2E2E2E2E2E2E2E2E2E2E2E2E2E2E2E2E2E2E2E2E2E2E2E2E2E2E2E2E2E2E2E2E2E2E2E2E2E2E2E2E2E2E2E2E2E2E2E2E2E2E2E2E2E2E2E2E2E2E2E2E2E2E2E2E2E2E2E2E2E2E2E2E2E2E2E2E2E2E2E2E2E2E2E2E2E2E2E2E2E2E2E2E2E2E2E2E2E2
310
E2E2E2E2E2E2E2E2E2E2E2E2E2E2E2E2E2E2E2E2E2E2E2E2E2E2E2E2E2E2E2E2E2E2E2E2E2E2E2E2E2E2E2E2E2E2E2E2E2E2E2E2E2E2E2E2E2E2E2E2E2E2E2E2E2E2E2E2E2E2E2E2E2E2E2E2E2E2E2E2E2E2E2E2E2E2E2E2E2E2E2E2E2E2E2E2E2E2E2E2E2E2E2E2E2E2E2E2E2E2E2E2E2E2E2E2E2E2E2E2E2E2E2E2E2E2E2
310
E2E2E2E2E2E2E2E2E2E2E2E2E2E2E2E2E2E2E2E2E2E2E2E2E2E2E2E2E2E2E2E2E2E2E2E2E2E2E2E2E2E2E2E2E2E2E2E2E2E2E2E2E2E2E2E2E2E2E2E2E2E2E2E2E2E2E2E2E2E2E2E2E2E2E2E2E2E2E2E2E2E2E2E2E2E2E2E2E2E2E2E2E2E2E2E2E2E2E2E2E2E2E2E2E2E2E2E2E2E2E2E2E2E2E2E2E2E2E2E2E2E2E2E2E2E2E2
310
E2E2E2E2E2E2E2E2E2E2E2E2E2E2E2E2E2E2E2E2E2E2E2E2E2E2E2E2E2E2E2E2E2E2E2E2E2E2E2E2E2E2E2E2E2E2E2E2E2E2E2E2E2E2E2E2E2E2E2E2E2E2E2E2E2E2E2E2E2E2E2E2E2E2E2E2E2E2E2E2E2E2E2E2E2E2E2E2E2E2E2E2E2E2E2E2E2E2E2E2E2E2E2E2E2E2E2E2E2E2E2E2E2E2E2E2E2E2E2E2E2E2E2E2E2E2E2
310
E2E2E2E2E2E2E2E2E2E2E2E2E2E2E2E2E2E2E2E2E2E2E2E2E2E2E2E2E2E2E2E2E2E2E2E2E2E2E2E2E2E2E2E2E2E2E2E2E2E2E2E2E2E2E2E2E2E2E2E2E2E2E2E2E2E2E2E2E2E2E2E2E2E2E2E2E2E2E2E2E2E2E2E2E2E2E2E2E2E2E2E2E2E2E2E2E2E2E2E2E2E2E2E2E2E2E2E2E2E2E2E2E2E2E2E2E2E2E2E2E2E2E2E2E2E2E2
310
E2E2E2E2E2E2E2E2E2E2E2E2E2E2E2E2E2E2E2E2E2E2E2E2E2E2E2E2E2E2E2E2E2E2E2E2E2E2E2E2E2E2E2E2E2E2E2E2E2E2E2E2E2E2E2E2E2E2E2E2E2E2E2E2E2E2E2E2E2E2E2E2E2E2E2E2E2E2E2E2E2E2E2E2E2E2E2E2E2E2E2E2E2E2E2E2E2E2E2E2E2E2E2E2E2E2E2E2E2E2E2E2E2E2E2E2E2E2E2E2E2E2E2E2E2E2E2
310
E2E2E2E2E2E2E2E2E2E2E2E2E2E2E2E2E2E2E2E2E2E2E2E2E2E2E2E2E2E2E2E2E2E2E2E2E2E2E2E2E2E2E2E2E2E2E2E2E2E2E2E2E2E2E2E2E2E2E2E2E2E2E2E2E2E2E2E2E2E2E2E2E2E2E2E2E2E2E2E2E2E2E2E2E2E2E2E2E2E2E2E2E2E2E2E2E2E2E2E2E2E2E2E2E2E2E2E2E2E2E2E2E2E2E2E2E2E2E2E2E2E2E2E2E2E2E2
310
E2E2E2E2E2E2E2E2E2E2E2E2E2E2E2E2E2E2E2E2E2E2E2E2E2E2E2E2E2E2E2E2E2E2E2E2E2E2E2E2E2E2E2E2E2E2E2E2E2E2E2E2E2E2E2E2E2E2E2E2E2E2E2E2E2E2E2E2E2E2E2E2E2E2E2E2E2E2E2E2E2E2E2E2E2E2E2E2E2E2E2E2E2E2E2E2E2E2E2E2E2E2E2E2E2E2E2E2E2E2E2E2E2E2E2E2E2E2E2E2E2E2E2E2E2E2E2
310
E2E2E2E2E2E2E2E2E2E2E2E2E2E2E2E2E2E2E2E2E2E2E2E2E2E2E2E2E2E2E2E2E2E2E2E2E2E2E2E2E2E2E2E2E2E2E2E2E2E2E2E2E2E2E2E2E2E2E2E2E2E2E2E2E2E2E2E2E2E2E2E2E2E2E2E2E2E2E2E2E2E2E2E2E2E2E2E2E2E2E2E2E2E2E2E2E2E2E2E2E2E2E2E2E2E2E2E2E2E2E2E2E2E2E2E2E2E2E2E2E2E2E2E2E2E2E2
310
E2E2E2E2E2E2E2E2E2E2E2E2E2E2E2E2E2E2E2E2E2E2E2E2E2E2E2E2E2E2E2E2E2E2E2E2E2E2E2E2E2E2E2E2E2E2E2E2E2E2E2E2E2E2E2E2E2E2E2E2E2E2E2E2E2E2E2E2E2E2E2E2E2E2E2E2E2E2E2E2E2E2E2E2E2E2E2E2E2E2E2E2E2E2E2E2E2E2E2E2E2E2E2E2E2E2E2E2E2E2E2E2E2E2E2E2E2E2E2E2E2E2E2E2E2E2E2
310
E2E2E2E2E2E2E2E2E2E2E2E2E2E2E2E2E2E2E2E2E2E2E2E2E2E2E2E2E2E2E2E2E2E2E2E2E2E2E2E2E2E2E2E2E2E2E2E2E2E2E2E2E2E2E2E2E2E2E2E2E2E2E2E2E2E2E2E2E2E2E2E2E2E2E2E2E2E2E2E2E2E2E2E2E2E2E2E2E2E2E2E2E2E2E2E2E2E2E2E2E2E2E2E2E2E2E2E2E2E2E2E2E2E2E2E2E2E2E2E2E2E2E2E2E2E2E2
310
E2E2E2E2E2E2E2E2E2E2E2E2E2E2E2E2E2E2E2E2E2E2E2E2E2E2E2E2E2E2E2E2E2E2E2E2E2E2E2E2E2E2E2E2E2E2E2E2E2E2E2E2E2E2E2E2E2E2E2E2E2E2E2E2E2E2E2E2E2E2E2E2E2E2E2E2E2E2E2E2E2E2E2E2E2E2E2E2E2E2E2E2E2E2E2E2E2E2E2E2E2E2E2E2E2E2E2E2E2E2E2E2E2E2E2E2E2E2E2E2E2E2E2E2E2E2E2
310
E2E2E2E2E2E2E2E2E2E2E2E2E2E2E2E2E2E2E2E2E2E2E2E2E2E2E2E2E2E2E2E2E2E2E2E2E2E2E2E2E2E2E2E2E2E2E2E2E2E2E2E2E2E2E2E2E2E2E2E2E2E2E2E2E2E2E2E2E2E2E2E2E2E2E2E2E2E2E2E2E2E2E2E2E2E2E2E2E2E2E2E2E2E2E2E2E2E2E2E2E2E2E2E2E2E2E2E2E2E2E2E2E2E2E2E2E2E2E2E2E2E2E2E2E2E2E2
310
E2E2E2E2E2E2E2E2E2E2E2E2E2E2E2E2E2E2E2E2E2E2E2E2E2E2E2E2E2E2E2E2E2E2E2E2E2E2E2E2E2E2E2E2E2E2E2E2E2E2E2E2E2E2E2E2E2E2E2E2E2E2E2E2E2E2E2E2E2E2E2E2E2E2E2E2E2E2E2E2E2E2E2E2E2E2E2E2E2E2E2E2E2E2E2E2E2E2E2E2E2E2E2E2E2E2E2E2E2E2E2E2E2E2E2E2E2E2E2E2E2E2E2E2E2E2E2
310
E2E2E2E2E2E2E2E2E2E2E2E2E2E2E2E2E2E2E2E2E2E2E2E2E2E2E2E2E2E2E2E2E2E2E2E2E2E2E2E2E2E2E2E2E2E2E2E2E2E2E2E2E2E2E2E2E2E2E2E2E2E2E2E2E2E2E2E2E2E2E2E2E2E2E2E2E2E2E2E2E2E2E2E2E2E2E2E2E2E2E2E2E2E2E2E2E2E2E2E2E2E2E2E2E2E2E2E2E2E2E2E2E2E2E2E2E2E2E2E2E2E2E2E2E2E2E2
310
E2E2E2E2E2E2E2E2E2E2E2E2E2E2E2E2E2E2E2E2E2E2E2E2E2E2E2E2E2E2E2E2E2E2E2E2E2E2E2E2E2E2E2E2E2E2E2E2E2E2E2E2E2E2E2E2E2E2E2E2E2E2E2E2E2E2E2E2E2E2E2E2E2E2E2E2E2E2E2E2E2E2E2E2E2E2E2E2E2E2E2E2E2E2E2E2E2E2E2E2E2E2E2E2E2E2E2E2E2E2E2E2E2E2E2E2E2E2E2E2E2E2E2E2E2E2E2
310
E2E2E2E2E2E2E2E2E2E2E2E2E2E2E2E2E2E2E2E2E2E2E2E2E2E2E2E2E2E2E2E2E2E2E2E2E2E2E2E2E2E2E2E2E2E2E2E2E2E2E2E2E2E2E2E2E2E2E2E2E2E2E2E2E2E2E2E2E2E2E2E2E2E2E2E2E2E2E2E2E2E2E2E2E2E2E2E2E2E2E2E2E2E2E2E2E2E2E2E2E2E2E2E2E2E2E2E2E2E2E2E2E2E2E2E2E2E2E2E2E2E2E2E2E2E2E2
310
E2E2E2E2E2E2E2E2E2E2E2E2E2E2E2E2E2E2E2E2E2E2E2E2E2E2E2E2E2E2E2E2E2E2E2E2E2E2E2E2E2E2E2E2E2E2E2E2E2E2E2E2E2E2E2E2E2E2E2E2E2E2E2E2E2E2E2E2E2E2E2E2E2E2E2E2E2E2E2E2E2E2E2E2E2E2E2E2E2E2E2E2E2E2E2E2E2E2E2E2E2E2E2E2E2E2E2E2E2E2E2E2E2E2E2E2E2E2E2E2E2E2E2E2E2E2E2
310
E2E2E2E2E2E2E2E2E2E2E2E2E2E2E2E2E2E2E2E2E2E2E2E2E2E2E2E2E2E2E2E2E2E2E2E2E2E2E2E2E2E2E2E2E2E2E2E2E2E2E2E2E2E2E2E2E2E2E2E2E2E2E2E2E2E2E2E2E2E2E2E2E2E2E2E2E2E2E2E2E2E2E2E2E2E2E2E2E2E2E2E2E2E2E2E2E2E2E2E2E2E2E2E2E2E2E2E2E2E2E2E2E2E2E2E2E2E2E2E2E2E2E2E2E2E2E2
310
E2E2E2E2E2E2E2E2E2E2E2E2E2E2E2E2E2E2E2E2E2E2E2E2E2E2E2E2E2E2E2E2E2E2E2E2E2E2E2E2E2E2E2E2E2E2E2E2E2E2E2E2E2E2E2E2E2E2E2E2E2E2E2E2E2E2E2E2E2E2E2E2E2E2E2E2E2E2E2E2E2E2E2E2E2E2E2E2E2E2E2E2E2E2E2E2E2E2E2E2E2E2E2E2E2E2E2E2E2E2E2E2E2E2E2E2E2E2E2E2E2E2E2E2E2E2E2
310
E2E2E2E2E2E2E2E2E2E2E2E2E2E2E2E2E2E2E2E2E2E2E2E2E2E2E2E2E2E2E2E2E2E2E2E2E2E2E2E2E2E2E2E2E2E2E2E2E2E2E2E2E2E2E2E2E2E2E2E2E2E2E2E2E2E2E2E2E2E2E2E2E2E2E2E2E2E2E2E2E2E2E2E2E2E2E2E2E2E2E2E2E2E2E2E2E2E2E2E2E2E2E2E2E2E2E2E2E2E2E2E2E2E2E2E2E2E2E2E2E2E2E2E2E2E2E2
310
E2E2E2E2E2E2E2E2E2E2E2E2E2E2E2E2E2E2E2E2E2E2E2E2E2E2E2E2E2E2E2E2E2E2E2E2E2E2E2E2E2E2E2E2E2E2E2E2E2E2E2E2E2E2E2E2E2E2E2E2E2E2E2E2E2E2E2E2E2E2E2E2E2E2E2E2E2E2E2E2E2E2E2E2E2E2E2E2E2E2E2E2E2E2E2E2E2E2E2E2E2E2E2E2E2E2E2E2E2E2E2E2E2E2E2E2E2E2E2E2E2E2E2E2E2E2E2
310
E2E2E2E2E2E2E2E2E2E2E2E2E2E2E2E2E2E2E2E2E2E2E2E2E2E2E2E2E2E2E2E2E2E2E2E2E2E2E2E2E2E2E2E2E2E2E2E2E2E2E2E2E2E2E2E2E2E2E2E2E2E2E2E2E2E2E2E2E2E2E2E2E2E2E2E2E2E2E2E2E2E2E2E2E2E2E2E2E2E2E2E2E2E2E2E2E2E2E2E2E2E2E2E2E2E2E2E2E2E2E2E2E2E2E2E2E2E2E2E2E2E2E2E2E2E2E2
310
E2E2E2E2E2E2E2E2E2E2E2E2E2E2E2E2E2E2E2E2E2E2E2E2E2E2E2E2E2E2E2E2E2E2E2E2E2E2E2E2E2E2E2E2E2E2E2E2E2E2E2E2E2E2E2E2E2E2E2E2E2E2E2E2E2E2E2E2E2E2E2E2E2E2E2E2E2E2E2E2E2E2E2E2E2E2E2E2E2E2E2E2E2E2E2E2E2E2E2E2E2E2E2E2E2E2E2E2E2E2E2E2E2E2E2E2E2E2E2E2E2E2E2E2E2E2E2
310
E2E2E2E2E2E2E2E2E2E2E2E2E2E2E2E2E2E2E2E2E2E2E2E2E2E2E2E2E2E2E2E2E2E2E2E2E2E2E2E2E2E2E2E2E2E2E2E2E2E2E2E2E2E2E2E2E2E2E2E2E2E2E2E2E2E2E2E2E2E2E2E2E2E2E2E2E2E2E2E2E2E2E2E2E2E2E2E2E2E2E2E2E2E2E2E2E2E2E2E2E2E2E2E2E2E2E2E2E2E2E2E2E2E2E2E2E2E2E2E2E2E2E2E2E2E2E2
310
E2E2E2E2E2E2E2E2E2E2E2E2E2E2E2E2E2E2E2E2E2E2E2E2E2E2E2E2E2E2E2E2E2E2E2E2E2E2E2E2E2E2E2E2E2E2E2E2E2E2E2E2E2E2E2E2E2E2E2E2E2E2E2E2E2E2E2E2E2E2E2E2E2E2E2E2E2E2E2E2E2E2E2E2E2E2E2E2E2E2E2E2E2E2E2E2E2E2E2E2E2E2E2E2E2E2E2E2E2E2E2E2E2E2E2E2E2E2E2E2E2E2E2E2E2E2E2
310
E2E2E2E2E2E2E2E2E2E2E2E2E2E2E2E2E2E2E2E2E2E2E2E2E2E2E2E2E2E2E2E2E2E2E2E2E2E2E2E2E2E2E2E2E2E2E2E2E2E2E2E2E2E2E2E2E2E2E2E2E2E2E2E2E2E2E2E2E2E2E2E2E2E2E2E2E2E2E2E2E2E2E2E2E2E2E2E2E2E2E2E2E2E2E2E2E2E2E2E2E2E2E2E2E2E2E2E2E2E2E2E2E2E2E2E2E2E2E2E2E2E2E2E2E2E2E2
310
E2E2E2E2E2E2E2E2E2E2E2E2E2E2E2E2E2E2E2E2E2E2E2E2E2E2E2E2E2E2E2E2E2E2E2E2E2E2E2E2E2E2E2E2E2E2E2E2E2E2E2E2E2E2E2E2E2E2E2E2E2E2E2E2E2E2E2E2E2E2E2E2E2E2E2E2E2E2E2E2E2E2E2E2E2E2E2E2E2E2E2E2E2E2E2E2E2E2E2E2E2E2E2E2E2E2E2E2E2E2E2E2E2E2E2E2E2E2E2E2E2E2E2E2E2E2E2
310
E2E2E2E2E2E2E2E2E2E2E2E2E2E2E2E2E2E2E2E2E2E2E2E2E2E2E2E2E2E2E2E2E2E2E2E2E2E2E2E2E2E2E2E2E2E2E2E2E2E2E2E2E2E2E2E2E2E2E2E2E2E2E2E2E2E2E2E2E2E2E2E2E2E2E2E2E2E2E2E2E2E2E2E2E2E2E2E2E2E2E2E2E2E2E2E2E2E2E2E2E2E2E2E2E2E2E2E2E2E2E2E2E2E2E2E2E2E2E2E2E2E2E2E2E2E2E2
310
E2E2E2E2E2E2E2E2E2E2E2E2E2E2E2E2E2E2E2E2E2E2E2E2E2E2E2E2E2E2E2E2E2E2E2E2E2E2E2E2E2E2E2E2E2E2E2E2E2E2E2E2E2E2E2E2E2E2E2E2E2E2E2E2E2E2E2E2E2E2E2E2E2E2E2E2E2E2E2E2E2E2E2E2E2E2E2E2E2E2E2E2E2E2E2E2E2E2E2E2E2E2E2E2E2E2E2E2E2E2E2E2E2E2E2E2E2E2E2E2E2E2E2E2E2E2E2
310
E2E2E2E2E2E2E2E2E2E2E2E2E2E2E2E2E2E2E2E2E2E2E2E2E2E2E2E2E2E2E2E2E2E2E2E2E2E2E2E2E2E2E2E2E2E2E2E2E2E2E2E2E2E2E2E2E2E2E2E2E2E2E2E2E2E2E2E2E2E2E2E2E2E2E2E2E2E2E2E2E2E2E2E2E2E2E2E2E2E2E2E2E2E2E2E2E2E2E2E2E2E2E2E2E2E2E2E2E2E2E2E2E2E2E2E2E2E2E2E2E2E2E2E2E2E2E2
310
E2E2E2E2E2E2E2E2E2E2E2E2E2E2E2E2E2E2E2E2E2E2E2E2E2E2E2E2E2E2E2E2E2E2E2E2E2E2E2E2E2E2E2E2E2E2E2E2E2E2E2E2E2E2E2E2E2E2E2E2E2E2E2E2E2E2E2E2E2E2E2E2E2E2E2E2E2E2E2E2E2E2E2E2E2E2E2E2E2E2E2E2E2E2E2E2E2E2E2E2E2E2E2E2E2E2E2E2E2E2E2E2E2E2E2E2E2E2E2E2E2E2E2E2E2E2E2
310
E2E2E2E2E2E2E2E2E2E2E2E2E2E2E2E2E2E2E2E2E2E2E2E2E2E2E2E2E2E2E2E2E2E2E2E2E2E2E2E2E2E2E2E2E2E2E2E2E2E2E2E2E2E2E2E2E2E2E2E2E2E2E2E2E2E2E2E2E2E2E2E2E2E2E2E2E2E2E2E2E2E2E2E2E2E2E2E2E2E2E2E2E2E2E2E2E2E2E2E2E2E2E2E2E2E2E2E2E2E2E2E2E2E2E2E2E2E2E2E2E2E2E2E2E2E2E2
310
E2E2E2E2E2E2E2E2E2E2E2E2E2E2E2E2E2E2E2E2E2E2E2E2E2E2E2E2E2E2E2E2E2E2E2E2E2E2E2E2E2E2E2E2E2E2E2E2E2E2E2E2E2E2E2E2E2E2E2E2E2E2E2E2E2E2E2E2E2E2E2E2E2E2E2E2E2E2E2E2E2E2E2E2E2E2E2E2E2E2E2E2E2E2E2E2E2E2E2E2E2E2E2E2E2E2E2E2E2E2E2E2E2E2E2E2E2E2E2E2E2E2E2E2E2E2E2
310
E2E2E2E2E2E2E2E2E2E2E2E2E2E2E2E2E2E2E2E2E2E2E2E2E2E2E2E2E2E2E2E2E2E2E2E2E2E2E2E2E2E2E2E2E2E2E2E2E2E2E2E2E2E2E2E2E2E2E2E2E2E2E2E2E2E2E2E2E2E2E2E2E2E2E2E2E2E2E2E2E2E2E2E2E2E2E2E2E2E2E2E2E2E2E2E2E2E2E2E2E2E2E2E2E2E2E2E2E2E2E2E2E2E2E2E2E2E2E2E2E2E2E2E2E2E2E2
310
E2E2E2E2E2E2E2E2E2E2E2E2E2E2E2E2E2E2E2E2E2E2E2E2E2E2E2E2E2E2E2E2E2E2E2E2E2E2E2E2E2E2E2E2E2E2E2E2E2E2E2E2E2E2E2E2E2E2E2E2E2E2E2E2E2E2E2E2E2E2E2E2E2E2E2E2E2E2E2E2E2E2E2E2E2E2E2E2E2E2E2E2E2E2E2E2E2E2E2E2E2E2E2E2E2E2E2E2E2E2E2E2E2E2E2E2E2E2E2E2E2E2E2E2E2E2E2
310
E2E2E2E2E2E2E2E2E2E2E2E2E2E2E2E2E2E2E2E2E2E2E2E2E2E2E2E2E2E2E2E2E2E2E2E2E2E2E2E2E2E2E2E2E2E2E2E2E2E2E2E2E2E2E2E2E2E2E2E2E2E2E2E2E2E2E2E2E2E2E2E2E2E2E2E2E2E2E2E2E2E2E2E2E2E2E2E2E2E2E2E2E2E2E2E2E2E2E2E2E2E2E2E2E2E2E2E2E2E2E2E2E2E2E2E2E2E2E2E2E2E2E2E2E2E2E2
310
E2E2E2E2E2E2E2E2E2E2E2E2E2E2E2E2E2E2E2E2E2E2E2E2E2E2E2E2E2E2E2E2E2E2E2E2E2E2E2E2E2E2E2E2E2E2E2E2E2E2E2E2E2E2E2E2E2E2E2E2E2E2E2E2E2E2E2E2E2E2E2E2E2E2E2E2E2E2E2E2E2E2E2E2E2E2E2E2E2E2E2E2E2E2E2E2E2E2E2E2E2E2E2E2E2E2E2E2E2E2E2E2E2E2E2E2E2E2E2E2E2E2E2E2E2E2E2
310
E2E2E2E2E2E2E2E2E2E2E2E2E2E2E2E2E2E2E2E2E2E2E2E2E2E2E2E2E2E2E2E2E2E2E2E2E2E2E2E2E2E2E2E2E2E2E2E2E2E2E2E2E2E2E2E2E2E2E2E2E2E2E2E2E2E2E2E2E2E2E2E2E2E2E2E2E2E2E2E2E2E2E2E2E2E2E2E2E2E2E2E2E2E2E2E2E2E2E2E2E2E2E2E2E2E2E2E2E2E2E2E2E2E2E2E2E2E2E2E2E2E2E2E2E2E2E2
310
E2E2E2E2E2E2E2E2E2E2E2E2E2E2E2E2E2E2E2E2E2E2E2E2E2E2E2E2E2E2E2E2E2E2E2E2E2E2E2E2E2E2E2E2E2E2E2E2E2E2E2E2E2E2E2E2E2E2E2E2E2E2E2E2E2E2E2E2E2E2E2E2E2E2E2E2E2E2E2E2E2E2E2E2E2E2E2E2E2E2E2E2E2E2E2E2E2E2E2E2E2E2E2E2E2E2E2E2E2E2E2E2E2E2E2E2E2E2E2E2E2E2E2E2E2E2E2
310
E2E2E2E2E2E2E2E2E2E2E2E2E2E2E2E2E2E2E2E2E2E2E2E2E2E2E2E2E2E2E2E2E2E2E2E2E2E2E2E2E2E2E2E2E2E2E2E2E2E2E2E2E2E2E2E2E2E2E2E2E2E2E2E2E2E2E2E2E2E2E2E2E2E2E2E2E2E2E2E2E2E2E2E2E2E2E2E2E2E2E2E2E2E2E2E2E2E2E2E2E2E2E2E2E2E2E2E2E2E2E2E2E2E2E2E2E2E2E2E2E2E2E2E2E2E2E2
310
E2E2E2E2E2E2E2E2E2E2E2E2E2E2E2E2E2E2E2E2E2E2E2E2E2E2E2E2E2E2E2E2E2E2E2E2E2E2E2E2E2E2E2E2E2E2E2E2E2E2E2E2E2E2E2E2E2E2E2E2E2E2E2E2E2E2E2E2E2E2E2E2E2E2E2E2E2E2E2E2E2E2E2E2E2E2E2E2E2E2E2E2E2E2E2E2E2E2E2E2E2E2E2E2E2E2E2E2E2E2E2E2E2E2E2E2E2E2E2E2E2E2E2E2E2E2E2
310
E2E2E2E2E2E2E2E2E2E2E2E2E2E2E2E2E2E2E2E2E2E2E2E2E2E2E2E2E2E2E2E2E2E2E2E2E2E2E2E2E2E2E2E2E2E2E2E2E2E2E2E2E2E2E2E2E2E2E2E2E2E2E2E2E2E2E2E2E2E2E2E2E2E2E2E2E2E2E2E2E2E2E2E2E2E2E2E2E2E2E2E2E2E2E2E2E2E2E2E2E2E2E2E2E2E2E2E2E2E2E2E2E2E2E2E2E2E2E2E2E2E2E2E2E2E2E2
310
E2E2E2E2E2E2E2E2E2E2E2E2E2E2E2E2E2E2E2E2E2E2E2E2E2E2E2E2E2E2E2E2E2E2E2E2E2E2E2E2E2E2E2E2E2E2E2E2E2E2E2E2E2E2E2E2E2E2E2E2E2E2E2E2E2E2E2E2E2E2E2E2E2E2E2E2E2E2E2E2E2E2E2E2E2E2E2E2E2E2E2E2E2E2E2E2E2E2E2E2E2E2E2E2E2E2E2E2E2E2E2E2E2E2E2E2E2E2E2E2E2E2E2E2E2E2E2
310
E2E2E2E2E2E2E2E2E2E2E2E2E2E2E2E2E2E2E2E2E2E2E2E2E2E2E2E2E2E2E2E2E2E2E2E2E2E2E2E2E2E2E2E2E2E2E2E2E2E2E2E2E2E2E2E2E2E2E2E2E2E2E2E2E2E2E2E2E2E2E2E2E2E2E2E2E2E2E2E2E2E2E2E2E2E2E2E2E2E2E2E2E2E2E2E2E2E2E2E2E2E2E2E2E2E2E2E2E2E2E2E2E2E2E2E2E2E2E2E2E2E2E2E2E2E2E2
310
E2E2E2E2E2E2E2E2E2E2E2E2E2E2E2E2E2E2E2E2E2E2E2E2E2E2E2E2E2E2E2E2E2E2E2E2E2E2E2E2E2E2E2E2E2E2E2E2E2E2E2E2E2E2E2E2E2E2E2E2E2E2E2E2E2E2E2E2E2E2E2E2E2E2E2E2E2E2E2E2E2E2E2E2E2E2E2E2E2E2E2E2E2E2E2E2E2E2E2E2E2E2E2E2E2E2E2E2E2E2E2E2E2E2E2E2E2E2E2E2E2E2E2E2E2E2E2
310
E2E2E2E2E2E2E2E2E2E2E2E2E2E2E2E2E2E2E2E2E2E2E2E2E2E2E2E2E2E2E2E2E2E2E2E2E2E2E2E2E2E2E2E2E2E2E2E2E2E2E2E2E2E2E2E2E2E2E2E2E2E2E2E2E2E2E2E2E2E2E2E2E2E2E2E2E2E2E2E2E2E2E2E2E2E2E2E2E2E2E2E2E2E2E2E2E2E2E2E2E2E2E2E2E2E2E2E2E2E2E2E2E2E2E2E2E2E2E2E2E2E2E2E2E2E2E2
310
E2E2E2E2E2E2E2E2E2E2E2E2E2E2E2E2E2E2E2E2E2E2E2E2E2E2E2E2E2E2E2E2E2E2E2E2E2E2E2E2E2E2E2E2E2E2E2E2E2E2E2E2E2E2E2E2E2E2E2E2E2E2E2E2E2E2E2E2E2E2E2E2E2E2E2E2E2E2E2E2E2E2E2E2E2E2E2E2E2E2E2E2E2E2E2E2E2E2E2E2E2E2E2E2E2E2E2E2E2E2E2E2E2E2E2E2E2E2E2E2E2E2E2E2E2E2E2
310
E2E2E2E2E2E2E2E2E2E2E2E2E2E2E2E2E2E2E2E2E2E2E2E2E2E2E2E2E2E2E2E2E2E2E2E2E2E2E2E2E2E2E2E2E2E2E2E2E2E2E2E2E2E2E2E2E2E2E2E2E2E2E2E2E2E2E2E2E2E2E2E2E2E2E2E2E2E2E2E2E2E2E2E2E2E2E2E2E2E2E2E2E2E2E2E2E2E2E2E2E2E2E2E2E2E2E2E2E2E2E2E2E2E2E2E2E2E2E2E2E2E2E2E2E2E2E2
310
E2E2E2E2E2E2E2E2E2E2E2E2E2E2E2E2E2E2E2E2E2E2E2E2E2E2E2E2E2E2E2E2E2E2E2E2E2E2E2E2E2E2E2E2E2E2E2E2E2E2E2E2E2E2E2E2E2E2E2E2E2E2E2E2E2E2E2E2E2E2E2E2E2E2E2E2E2E2E2E2E2E2E2E2E2E2E2E2E2E2E2E2E2E2E2E2E2E2E2E2E2E2E2E2E2E2E2E2E2E2E2E2E2E2E2E2E2E2E2E2E2E2E2E2E2E2E2
310
E2E2E2E2E2E2E2E2E2E2E2E2E2E2E2E2E2E2E2E2E2E2E2E2E2E2E2E2E2E2E2E2E2E2E2E2E2E2E2E2E2E2E2E2E2E2E2E2E2E2E2E2E2E2E2E2E2E2E2E2E2E2E2E2E2E2E2E2E2E2E2E2E2E2E2E2E2E2E2E2E2E2E2E2E2E2E2E2E2E2E2E2E2E2E2E2E2E2E2E2E2E2E2E2E2E2E2E2E2E2E2E2E2E2E2E2E2E2E2E2E2E2E2E2E2E2E2
310
E2E2E2E2E2E2E2E2E2E2E2E2E2E2E2E2E2E2E2E2E2E2E2E2E2E2E2E2E2E2E2E2E2E2E2E2E2E2E2E2E2E2E2E2E2E2E2E2E2E2E2E2E2E2E2E2E2E2E2E2E2E2E2E2E2E2E2E2E2E2E2DCDCDCDCDCE2E2E2E2E2E2E2E2E2E2E2E2E2E2E2E2E2E2E2E2E2E2E2E2E2E2E2E2E2E2E2E2E2E2E2E2E2E2E2E2E2E2E2E2E2E2E2E2E2E2E2
310
E2E2E2E2E2E2E2E2E2E2E2E2E2E2E2E2E2E2E2E2E2E2E2E2E2E2E2E2E2E2E2E2E2E2E2E2E2E2E2E2E2E2E2E2E2E2E2E2E2E2E2E2E2E2E2E2E2E2E2E2E2E2E2E2E2E2E2E2E2E2E2E2E2E2E2E2E2E2E2E2E2E2E2E2E2E2E2E2E2E2E2E2E2E2E2E2E2E2E2E2E2E2E2E2E2E2E2E2E2E2E2E2E2E2E2E2E2E2E2E2E2E2E2E2E2E2E2
310
E2E2E2E2E2E2E2E2E2E2E2E2E2E2E2E2E2E2E2E2E2E2E2E2E2E2E2E2E2E2E2E2E2E2E2E2E2E2E2E2E2E2E2E2E2E2E2E2E2E2E2E2E2E2E2E2E2E2E2E2E2E2E2E2E2E2E2E2E2E2E2E2E2E2E2DCDCDCDCDCE2E2E2E2E2E2E2E2E2E2E2E2E2E2E2E2E2E2E2E2E2E2E2E2E2E2E2E2E2E2E2E2E2E2E2E2E2E2E2E2E2E2E2E2E2E2E2
310
E2E2E2E2E2E2E2E2E2E2E2E2E2E2E2E2E2E2E2E2E2E2E2E2E2E2E2E2E2E2E2E2E2E2E2E2E2E2E2E2E2E2E2E2E2E2E2E2E2E2E2E2E2E2E2E2E2E2E2E2E2E2E2E2E2E2E2E2E2E2E2E2E2E2E2E2E2E2E2E2E2E2E2E2E2E2E2E2E2E2E2E2E2E2E2E2E2E2E2E2E2E2E2E2E2E2E2E2E2E2E2E2E2E2E2E2E2E2E2E2E2E2E2E2E2E2E2
310
E2E2E2E2E2E2E2E2E2E2E2E2E2E2E2E2E2E2E2E2E2E2E2E2E2E2E2E2E2E2E2E2E2E2E2E2E2E2E2E2E2E2E2E2E2E2E2E2E2E2E2E2E2E2E2E2E2E2E2E2E2E2E2E2E2E2E2E2E2E2E2E2E2E2DCE2DCDCDCDCE2E2E2E2E2E2E2E2E2E2E2E2E2E2E2E2E2E2E2E2E2E2E2E2E2E2E2E2E2E2E2E2E2E2E2E2E2E2E2E2E2E2E2E2E2E2E2
310
E2E2E2E2E2E2E2E2E2E2E2E2E2E2E2E2E2E2E2E2E2E2E2E2E2E2E2E2E2E2E2E2E2E2E2E2E2E2E2E2E2E2E2E2E2E2E2E2E2E2E2E2E2E2E2E2E2E2E2E2E2E2E2E2E2E2E2E2E2E2E2E2E2E2E2E2E2E2E2E2E2E2E2E2E2E2E2E2E2E2E2E2E2E2E2E2E2E2E2E2E2E2E2E2E2E2E2E2E2E2E2E2E2E2E2E2E2E2E2E2E2E2E2E2E2E2E2
310
E2E2E2E2E2E2E2E2E2E2E2E2E2E2E2E2E2E2E2E2E2E2E2E2E2E2E2E2E2E2E2E2E2E2E2E2E2E2E2E2E2E2E2E2E2E2E2E2E2E2E2E2E2E2E2E2E2E2E2E2E2E2E2E2E2E2E2E2E2E2E2E2E2E2E2E2DCDCDCDCDCDCDCDC2D2DE2E2E2E2E2E2E2E2E2E2E2E2E2E2E2E2E2E2E2E2E2E2E2E2E2E2E2E2E2E2E2E2E2E2E2E2E2E2E2E2E2
310
E2E2E2E2E2E2E2E2E2E2E2E2E2E2E2E2E2E2E2E2E2E2E2E2E2E2E2E2E2E2E2E2E2E2E2E2E2E2E2E2E2E2E2E2E2E2E2E2E2E2E2E2E2E2E2E2E2E2E2E2E2E2E2E2E2E2E2E2E2E2E2E2E2E2E2E2E2E2E2E2E2E2E2E2E2E2E2E2E2E2E2E2E2E2E2E2E2E2E2E2E2E2E2E2E2E2E2E2E2E2E2E2E2E2E2E2E2E2E2E2E2E2E2E2E2E2E2
310
E2E2E2E2E2E2E2E2E2E2E2E2E2E2E2E2E2E2E2E2E2E2E2E2E2E2E2E2E2E2E2E2E2E2E2E2E2E2E2E2E2E2E2E2E2E2E2E2E2E2E2E2E2E2E2E2E2E2E2E2E2E2E2E2E2E2E2E2E2E2E2E2E2E2E2E2E2E2DCE2DCDCDCDCDCDC2DDCE2E2E2E2E2E2E2E2E2E2E2E2E2E2E2E2E2E2E2E2E2E2E2E2E2E2E2E2E2E2E2E2E2E2E2E2E2E2E2
310
E2E2E2E2E2E2E2E2E2E2E2E2E2E2E2E2E2E2E2E2E2E2E2E2E2E2E2E2E2E2E2E2E2E2E2E2E2E2E2E2E2E2E2E2E2E2E2E2E2E2E2E2E2E2E2E2E2E2E2E2E2E2E2E2E2E2E2E2E2E2E2E2E2E2E2E2E2E2E2E2E2E2E2E2E2E2E2E2E2E2E2E2E2E2E2E2E2E2E2E2E2E2E2E2E2E2E2E2E2E2E2E2E2E2E2E2E2E2E2E2E2E2E2E2E2E2E2
310
E2E2E2E2E2E2E2E2E2E2E2E2E2E2E2E2E2E2E2E2E2E2E2E2E2E2E2E2E2E2E2E2E2E2E2E2E2E2E2E2E2E2E2E2E2E2E2E2E2E2E2E2E2E2E2E2E2E2E2E2E2E2E2E2E2E2E2E2E2E2E2E2E2E2E2E2E2E2E2E2DCE2DCDCDCDCDCDCDCDCE2E2E2E2E2E2E2E2E2E2E2E2E2E2E2E2E2E2E2E2E2E2E2E2E2E2E2E2E2E2E2E2E2E2E2E2E2
310
E2E2E2E2E2E2E2E2E2E2E2E2E2E2E2E2E2E2E2E2E2E2E2E2E2E2E2E2E2E2E2E2E2E2E2E2E2E2E2E2E2E2E2E2E2E2E2E2E2E2E2E2E2E2E2E2E2E2E2E2E2E2E2E2E2E2E2E2E2E2E2E2E2E2E2E2E2E2E2E2E2E2E2E2E2E2E2E2E2E2E2E2E2E2E2E2E2E2E2E2E2E2E2E2E2E2E2E2E2E2E2E2E2E2E2E2E2E2E2E2E2E2E2E2E2E2E2
310
E2E2E2E2E2E2E2E2E2E2E2E2E2E2E2E2E2E2E2E2E2E2E2E2E2E2E2E2E2E2E2E2E2E2E2E2E2E2E2E2E2E2E2E2E2E2E2E2E2E2E2E2E2E2E2E2E2E2E2E2E2E2E2E2E2E2E2E2E2E2E2E2E2E2E2E2E2E2E2E2E2E2DCDCDCDCDCDCDCDCDCDCE2E2E2E2E2E2E2E2E2E2E2E2E2E2E2E2E2E2E2E2E2E2E2E2E2E2E2E2E2E2E2E2E2E2E2
310
E2E2E2E2E2E2E2E2E2E2E2E2E2E2E2E2E2E2E2E2E2E2E2E2E2E2E2E2E2E2E2E2E2E2E2E2E2E2E2E2E2E2E2E2E2E2E2E2E2E2E2E2E2E2E2E2E2E2E2E2E2E2E2E2E2E2E2E2E2E2E2E2E2E2E2E2E2E2E2E2E2E2E2E2E2E2E2E2E2E2E2E2E2E2E2E2E2E2E2E2E2E2E2E2E2E2E2E2E2E2E2E2E2E2E2E2E2E2E2E2E2E2E2E2E2E2E2
310
E2E2E2E2E2E2E2E2E2E2E2E2E2E2E2E2E2E2E2E2E2E2E2E2E2E2E2E2E2E2E2E2E2E2E2E2E2E2E2E2E2E2E2E2E2E2E2E2E2E2E2E2E2E2E2E2E2E2E2E2E2E2E2E2E2E2E2E2E2E2E2E2E2E2E2E2E2E2E2E2E2E2E2E2E2E2E2E2E2E2E2E2E2E2E2E2E2E2E2E2E2E2E2E2E2E2E2E2E2E2E2E2E2E2E2E2E2E2E2E2E2E2E2E2E2E2E2
310
E2E2E2E2E2E2E2E2E2E2E2E2E2E2E2E2E2E2E2E2E2E2E2E2E2E2E2E2E2E2E2E2E2E2E2E2E2E2E2E2E2E2E2E2E2E2E2E2E2E2E2E2E2E2E2E2E2E2E2E2E2E2E2E2E2E2
  0
XRECORD
  5
596D
102
{ACAD_REACTORS
330
596B
102
}
330
596B
100
AcDbXrecord
280
     1
270
     1
271
     1
  0
XRECORD
  5
596C
102
{ACAD_REACTORS
330
596B
102
}
330
596B
100
AcDbXrecord
280
     1
270
     1
271
     1
  0
XRECORD
  5
5970
102
{ACAD_REACTORS
330
596B
102
}
330
596B
100
AcDbXrecord
280
     1
270
     1
271
     1
  0
XRECORD
  5
596F
102
{ACAD_REACTORS
330
596B
102
}
330
596B
100
AcDbXrecord
280
     1
270
     1
271
     1
  0
XRECORD
  5
5971
102
{ACAD_REACTORS
330
596B
102
}
330
596B
100
AcDbXrecord
280
     1
270
     1
271
     1
  0
XRECORD
  5
596E
102
{ACAD_REACTORS
330
596B
102
}
330
596B
100
AcDbXrecord
280
     1
270
     1
271
     1
  0
XRECORD
  5
5965
102
{ACAD_REACTORS
330
5963
102
}
330
5963
100
AcDbXrecord
280
     1
270
     1
271
     1
  0
XRECORD
  5
5964
102
{ACAD_REACTORS
330
5963
102
}
330
5963
100
AcDbXrecord
280
     1
270
     1
271
     1
  0
XRECORD
  5
5968
102
{ACAD_REACTORS
330
5963
102
}
330
5963
100
AcDbXrecord
280
     1
270
     1
271
     1
  0
XRECORD
  5
5967
102
{ACAD_REACTORS
330
5963
102
}
330
5963
100
AcDbXrecord
280
     1
270
     1
271
     1
  0
XRECORD
  5
5969
102
{ACAD_REACTORS
330
5963
102
}
330
5963
100
AcDbXrecord
280
     1
270
     1
271
     1
  0
XRECORD
  5
5966
102
{ACAD_REACTORS
330
5963
102
}
330
5963
100
AcDbXrecord
280
     1
270
     1
271
     1
  0
XRECORD
  5
5975
102
{ACAD_REACTORS
330
5973
102
}
330
5973
100
AcDbXrecord
280
     1
270
     1
271
     1
  0
XRECORD
  5
5974
102
{ACAD_REACTORS
330
5973
102
}
330
5973
100
AcDbXrecord
280
     1
270
     1
271
     1
  0
XRECORD
  5
5978
102
{ACAD_REACTORS
330
5973
102
}
330
5973
100
AcDbXrecord
280
     1
270
     1
271
     1
  0
XRECORD
  5
5977
102
{ACAD_REACTORS
330
5973
102
}
330
5973
100
AcDbXrecord
280
     1
270
     1
271
     1
  0
XRECORD
  5
5979
102
{ACAD_REACTORS
330
5973
102
}
330
5973
100
AcDbXrecord
280
     1
270
     1
271
     1
  0
XRECORD
  5
5976
102
{ACAD_REACTORS
330
5973
102
}
330
5973
100
AcDbXrecord
280
     1
270
     1
271
     1
  0
XRECORD
  5
6A9C
102
{ACAD_REACTORS
330
6A9B
102
}
330
6A9B
100
AcDbXrecord
280
     1
102
DISPLAYNAME
  1
Imperial24
102
FLAGS
 90
        0
  0
CELLSTYLEMAP
  5
6A5D
102
{ACAD_REACTORS
330
6A5C
102
}
330
6A5C
100
AcDbCellStyleMap
 90
        3
300
CELLSTYLE
  1
TABLEFORMAT_BEGIN
 90
        5
170
     1
 91
        0
 92
    32768
 62
   257
 93
        1
300
CONTENTFORMAT
  1
CONTENTFORMAT_BEGIN
 90
        0
 91
        0
 92
      512
 93
        0
300

 40
0.0
140
1.0
 94
        5
 62
     0
340
10
144
0.25
309
CONTENTFORMAT_END
171
     0
 94
        0
309
TABLEFORMAT_END
  1
CELLSTYLE_BEGIN
 90
        1
 91
        1
300
_TITLE
309
CELLSTYLE_END
300
CELLSTYLE
  1
TABLEFORMAT_BEGIN
 90
        5
170
     1
 91
        0
 92
        0
 62
   257
 93
        1
300
CONTENTFORMAT
  1
CONTENTFORMAT_BEGIN
 90
        0
 91
        0
 92
      512
 93
        0
300

 40
0.0
140
1.0
 94
        5
 62
     0
340
10
144
0.18
309
CONTENTFORMAT_END
171
     0
 94
        0
309
TABLEFORMAT_END
  1
CELLSTYLE_BEGIN
 90
        2
 91
        1
300
_HEADER
309
CELLSTYLE_END
300
CELLSTYLE
  1
TABLEFORMAT_BEGIN
 90
        5
170
     1
 91
        0
 92
        0
 62
   257
 93
        1
300
CONTENTFORMAT
  1
CONTENTFORMAT_BEGIN
 90
        0
 91
        0
 92
      512
 93
        0
300

 40
0.0
140
1.0
 94
        2
 62
     0
340
10
144
0.18
309
CONTENTFORMAT_END
171
     0
 94
        0
309
TABLEFORMAT_END
  1
CELLSTYLE_BEGIN
 90
        3
 91
        2
300
_DATA
309
CELLSTYLE_END
  0
XRECORD
  5
6A72
102
{ACAD_REACTORS
330
6A71
102
}
330
6A71
100
AcDbXrecord
280
     1
102
RTVSPost2010Prop28
280
     1
102
RTVSPost2010PropOp28
 70
     1
102
RTVSPost2010Prop29
280
     1
102
RTVSPost2010PropOp29
 70
     1
102
RTVSPost2010Prop30
280
     0
102
RTVSPost2010PropOp30
 70
     1
102
RTVSPost2010Prop31
280
     0
102
RTVSPost2010PropOp31
 70
     1
102
RTVSPost2010Prop32
280
     0
102
RTVSPost2010PropOp32
 70
     1
102
RTVSPost2010Prop33
280
     0
102
RTVSPost2010PropOp33
 70
     1
102
RTVSPost2010Prop34
280
     0
102
RTVSPost2010PropOp34
 70
     1
102
RTVSPost2010Prop35
280
     0
102
RTVSPost2010PropOp35
 70
     1
102
RTVSPost2010Prop36
280
     0
102
RTVSPost2010PropOp36
 70
     1
102
RTVSPost2010Prop37
 90
       50
102
RTVSPost2010PropOp37
 70
     1
102
RTVSPost2010Prop38
140
0.0
102
RTVSPost2010PropOp38
 70
     1
102
RTVSPost2010Prop39
140
1.0
102
RTVSPost2010PropOp39
 70
     1
102
RTVSPost2010Prop40
 90
        0
102
RTVSPost2010PropOp40
 70
     1
102
RTVSPost2010Prop41ColorIndex
 90
       18
102
RTVSPost2010Prop41ColorRGB
 90
        0
102
RTVSPost2010PropOp41
 70
     1
102
RTVSPost2010Prop42
 90
       50
102
RTVSPost2010PropOp42
 70
     1
102
RTVSPost2010Prop43
 90
        3
102
RTVSPost2010PropOp43
 70
     1
102
RTVSPost2010Prop44ColorIndex
 90
        5
102
RTVSPost2010Prop44ColorRGB
 90
      255
102
RTVSPost2010PropOp44
 70
     1
102
RTVSPost2010Prop45
280
     0
102
RTVSPost2010PropOp45
 70
     1
102
RTVSPost2010Prop46
 90
       50
102
RTVSPost2010PropOp46
 70
     1
102
RTVSPost2010Prop47
 90
       50
102
RTVSPost2010PropOp47
 70
     1
102
RTVSPost2010Prop48
 90
       50
102
RTVSPost2010PropOp48
 70
     1
102
RTVSPost2010Prop49
280
     0
102
RTVSPost2010PropOp49
 70
     1
102
RTVSPost2010Prop50
 90
       50
102
RTVSPost2010PropOp50
 70
     1
102
RTVSPost2010Prop51ColorIndex
 90
      256
102
RTVSPost2010Prop51ColorRGB
 90
-16777216
102
RTVSPost2010PropOp51
 70
     0
102
RTVSPost2010Prop52
140
1.0
102
RTVSPost2010PropOp52
 70
     0
102
RTVSPost2010Prop53
 90
        2
102
RTVSPost2010PropOp53
 70
     1
102
RTVSPost2010Prop54
  1
strokes_ogs.tif
102
RTVSPost2010PropOp54
 70
     1
102
RTVSPost2010Prop55
280
     0
102
RTVSPost2010PropOp55
 70
     1
102
RTVSPost2010Prop56
140
1.0
102
RTVSPost2010PropOp56
 70
     1
102
RTVSPost2010Prop57
140
1.0
102
RTVSPost2010PropOp57
 70
     1
  0
XRECORD
  5
6A76
102
{ACAD_REACTORS
330
6A75
102
}
330
6A75
100
AcDbXrecord
280
     1
102
RTVSPost2010Prop28
280
     0
102
RTVSPost2010PropOp28
 70
     1
102
RTVSPost2010Prop29
280
     1
102
RTVSPost2010PropOp29
 70
     1
102
RTVSPost2010Prop30
280
     1
102
RTVSPost2010PropOp30
 70
     1
102
RTVSPost2010Prop31
280
     0
102
RTVSPost2010PropOp31
 70
     1
102
RTVSPost2010Prop32
280
     0
102
RTVSPost2010PropOp32
 70
     1
102
RTVSPost2010Prop33
280
     0
102
RTVSPost2010PropOp33
 70
     1
102
RTVSPost2010Prop34
280
     0
102
RTVSPost2010PropOp34
 70
     1
102
RTVSPost2010Prop35
280
     0
102
RTVSPost2010PropOp35
 70
     1
102
RTVSPost2010Prop36
280
     0
102
RTVSPost2010PropOp36
 70
     1
102
RTVSPost2010Prop37
 90
       50
102
RTVSPost2010PropOp37
 70
     1
102
RTVSPost2010Prop38
140
0.0
102
RTVSPost2010PropOp38
 70
     1
102
RTVSPost2010Prop39
140
1.0
102
RTVSPost2010PropOp39
 70
     1
102
RTVSPost2010Prop40
 90
        0
102
RTVSPost2010PropOp40
 70
     1
102
RTVSPost2010Prop41ColorIndex
 90
       18
102
RTVSPost2010Prop41ColorRGB
 90
        0
102
RTVSPost2010PropOp41
 70
     1
102
RTVSPost2010Prop42
 90
       50
102
RTVSPost2010PropOp42
 70
     1
102
RTVSPost2010Prop43
 90
        3
102
RTVSPost2010PropOp43
 70
     1
102
RTVSPost2010Prop44ColorIndex
 90
        5
102
RTVSPost2010Prop44ColorRGB
 90
      255
102
RTVSPost2010PropOp44
 70
     1
102
RTVSPost2010Prop45
280
     0
102
RTVSPost2010PropOp45
 70
     1
102
RTVSPost2010Prop46
 90
       50
102
RTVSPost2010PropOp46
 70
     1
102
RTVSPost2010Prop47
 90
       50
102
RTVSPost2010PropOp47
 70
     1
102
RTVSPost2010Prop48
 90
       50
102
RTVSPost2010PropOp48
 70
     1
102
RTVSPost2010Prop49
280
     0
102
RTVSPost2010PropOp49
 70
     1
102
RTVSPost2010Prop50
 90
       50
102
RTVSPost2010PropOp50
 70
     1
102
RTVSPost2010Prop51ColorIndex
 90
      256
102
RTVSPost2010Prop51ColorRGB
 90
-16777216
102
RTVSPost2010PropOp51
 70
     0
102
RTVSPost2010Prop52
140
1.0
102
RTVSPost2010PropOp52
 70
     0
102
RTVSPost2010Prop53
 90
        2
102
RTVSPost2010PropOp53
 70
     1
102
RTVSPost2010Prop54
  1
strokes_ogs.tif
102
RTVSPost2010PropOp54
 70
     1
102
RTVSPost2010Prop55
280
     0
102
RTVSPost2010PropOp55
 70
     1
102
RTVSPost2010Prop56
140
1.0
102
RTVSPost2010PropOp56
 70
     1
102
RTVSPost2010Prop57
140
1.0
102
RTVSPost2010PropOp57
 70
     1
  0
XRECORD
  5
6A74
102
{ACAD_REACTORS
330
6A73
102
}
330
6A73
100
AcDbXrecord
280
     1
102
RTVSPost2010Prop28
280
     0
102
RTVSPost2010PropOp28
 70
     1
102
RTVSPost2010Prop29
280
     1
102
RTVSPost2010PropOp29
 70
     1
102
RTVSPost2010Prop30
280
     1
102
RTVSPost2010PropOp30
 70
     1
102
RTVSPost2010Prop31
280
     0
102
RTVSPost2010PropOp31
 70
     1
102
RTVSPost2010Prop32
280
     0
102
RTVSPost2010PropOp32
 70
     1
102
RTVSPost2010Prop33
280
     0
102
RTVSPost2010PropOp33
 70
     1
102
RTVSPost2010Prop34
280
     0
102
RTVSPost2010PropOp34
 70
     1
102
RTVSPost2010Prop35
280
     0
102
RTVSPost2010PropOp35
 70
     1
102
RTVSPost2010Prop36
280
     0
102
RTVSPost2010PropOp36
 70
     1
102
RTVSPost2010Prop37
 90
       50
102
RTVSPost2010PropOp37
 70
     1
102
RTVSPost2010Prop38
140
0.0
102
RTVSPost2010PropOp38
 70
     1
102
RTVSPost2010Prop39
140
1.0
102
RTVSPost2010PropOp39
 70
     1
102
RTVSPost2010Prop40
 90
        0
102
RTVSPost2010PropOp40
 70
     1
102
RTVSPost2010Prop41ColorIndex
 90
       18
102
RTVSPost2010Prop41ColorRGB
 90
        0
102
RTVSPost2010PropOp41
 70
     1
102
RTVSPost2010Prop42
 90
       50
102
RTVSPost2010PropOp42
 70
     1
102
RTVSPost2010Prop43
 90
        3
102
RTVSPost2010PropOp43
 70
     1
102
RTVSPost2010Prop44ColorIndex
 90
        5
102
RTVSPost2010Prop44ColorRGB
 90
      255
102
RTVSPost2010PropOp44
 70
     1
102
RTVSPost2010Prop45
280
     0
102
RTVSPost2010PropOp45
 70
     1
102
RTVSPost2010Prop46
 90
       50
102
RTVSPost2010PropOp46
 70
     1
102
RTVSPost2010Prop47
 90
       50
102
RTVSPost2010PropOp47
 70
     1
102
RTVSPost2010Prop48
 90
       50
102
RTVSPost2010PropOp48
 70
     1
102
RTVSPost2010Prop49
280
     0
102
RTVSPost2010PropOp49
 70
     1
102
RTVSPost2010Prop50
 90
       50
102
RTVSPost2010PropOp50
 70
     1
102
RTVSPost2010Prop51ColorIndex
 90
      256
102
RTVSPost2010Prop51ColorRGB
 90
-16777216
102
RTVSPost2010PropOp51
 70
     0
102
RTVSPost2010Prop52
140
1.0
102
RTVSPost2010PropOp52
 70
     0
102
RTVSPost2010Prop53
 90
        2
102
RTVSPost2010PropOp53
 70
     1
102
RTVSPost2010Prop54
  1
strokes_ogs.tif
102
RTVSPost2010PropOp54
 70
     1
102
RTVSPost2010Prop55
280
     0
102
RTVSPost2010PropOp55
 70
     1
102
RTVSPost2010Prop56
140
1.0
102
RTVSPost2010PropOp56
 70
     1
102
RTVSPost2010Prop57
140
1.0
102
RTVSPost2010PropOp57
 70
     1
  0
XRECORD
  5
6A70
102
{ACAD_REACTORS
330
6A6F
102
}
330
6A6F
100
AcDbXrecord
280
     1
102
RTVSPost2010Prop28
280
     0
102
RTVSPost2010PropOp28
 70
     1
102
RTVSPost2010Prop29
280
     1
102
RTVSPost2010PropOp29
 70
     1
102
RTVSPost2010Prop30
280
     1
102
RTVSPost2010PropOp30
 70
     1
102
RTVSPost2010Prop31
280
     0
102
RTVSPost2010PropOp31
 70
     1
102
RTVSPost2010Prop32
280
     0
102
RTVSPost2010PropOp32
 70
     1
102
RTVSPost2010Prop33
280
     0
102
RTVSPost2010PropOp33
 70
     1
102
RTVSPost2010Prop34
280
     0
102
RTVSPost2010PropOp34
 70
     1
102
RTVSPost2010Prop35
280
     0
102
RTVSPost2010PropOp35
 70
     1
102
RTVSPost2010Prop36
280
     0
102
RTVSPost2010PropOp36
 70
     1
102
RTVSPost2010Prop37
 90
       50
102
RTVSPost2010PropOp37
 70
     1
102
RTVSPost2010Prop38
140
0.0
102
RTVSPost2010PropOp38
 70
     1
102
RTVSPost2010Prop39
140
1.0
102
RTVSPost2010PropOp39
 70
     1
102
RTVSPost2010Prop40
 90
        0
102
RTVSPost2010PropOp40
 70
     1
102
RTVSPost2010Prop41ColorIndex
 90
       18
102
RTVSPost2010Prop41ColorRGB
 90
        0
102
RTVSPost2010PropOp41
 70
     1
102
RTVSPost2010Prop42
 90
       50
102
RTVSPost2010PropOp42
 70
     1
102
RTVSPost2010Prop43
 90
        3
102
RTVSPost2010PropOp43
 70
     1
102
RTVSPost2010Prop44ColorIndex
 90
        5
102
RTVSPost2010Prop44ColorRGB
 90
      255
102
RTVSPost2010PropOp44
 70
     1
102
RTVSPost2010Prop45
280
     0
102
RTVSPost2010PropOp45
 70
     1
102
RTVSPost2010Prop46
 90
       50
102
RTVSPost2010PropOp46
 70
     1
102
RTVSPost2010Prop47
 90
       50
102
RTVSPost2010PropOp47
 70
     1
102
RTVSPost2010Prop48
 90
       50
102
RTVSPost2010PropOp48
 70
     1
102
RTVSPost2010Prop49
280
     0
102
RTVSPost2010PropOp49
 70
     1
102
RTVSPost2010Prop50
 90
       50
102
RTVSPost2010PropOp50
 70
     1
102
RTVSPost2010Prop51ColorIndex
 90
      256
102
RTVSPost2010Prop51ColorRGB
 90
-16777216
102
RTVSPost2010PropOp51
 70
     0
102
RTVSPost2010Prop52
140
1.0
102
RTVSPost2010PropOp52
 70
     0
102
RTVSPost2010Prop53
 90
        2
102
RTVSPost2010PropOp53
 70
     1
102
RTVSPost2010Prop54
  1
strokes_ogs.tif
102
RTVSPost2010PropOp54
 70
     1
102
RTVSPost2010Prop55
280
     0
102
RTVSPost2010PropOp55
 70
     1
102
RTVSPost2010Prop56
140
1.0
102
RTVSPost2010PropOp56
 70
     1
102
RTVSPost2010Prop57
140
1.0
102
RTVSPost2010PropOp57
 70
     1
  0
XRECORD
  5
6A7E
102
{ACAD_REACTORS
330
6A7D
102
}
330
6A7D
100
AcDbXrecord
280
     1
102
RTVSPost2010Prop28
280
     0
102
RTVSPost2010PropOp28
 70
     1
102
RTVSPost2010Prop29
280
     1
102
RTVSPost2010PropOp29
 70
     1
102
RTVSPost2010Prop30
280
     1
102
RTVSPost2010PropOp30
 70
     1
102
RTVSPost2010Prop31
280
     0
102
RTVSPost2010PropOp31
 70
     1
102
RTVSPost2010Prop32
280
     0
102
RTVSPost2010PropOp32
 70
     1
102
RTVSPost2010Prop33
280
     0
102
RTVSPost2010PropOp33
 70
     1
102
RTVSPost2010Prop34
280
     0
102
RTVSPost2010PropOp34
 70
     1
102
RTVSPost2010Prop35
280
     0
102
RTVSPost2010PropOp35
 70
     1
102
RTVSPost2010Prop36
280
     0
102
RTVSPost2010PropOp36
 70
     1
102
RTVSPost2010Prop37
 90
       50
102
RTVSPost2010PropOp37
 70
     1
102
RTVSPost2010Prop38
140
0.0
102
RTVSPost2010PropOp38
 70
     1
102
RTVSPost2010Prop39
140
1.0
102
RTVSPost2010PropOp39
 70
     1
102
RTVSPost2010Prop40
 90
        0
102
RTVSPost2010PropOp40
 70
     1
102
RTVSPost2010Prop41ColorIndex
 90
       18
102
RTVSPost2010Prop41ColorRGB
 90
        0
102
RTVSPost2010PropOp41
 70
     1
102
RTVSPost2010Prop42
 90
       50
102
RTVSPost2010PropOp42
 70
     1
102
RTVSPost2010Prop43
 90
        3
102
RTVSPost2010PropOp43
 70
     1
102
RTVSPost2010Prop44ColorIndex
 90
        5
102
RTVSPost2010Prop44ColorRGB
 90
      255
102
RTVSPost2010PropOp44
 70
     1
102
RTVSPost2010Prop45
280
     0
102
RTVSPost2010PropOp45
 70
     1
102
RTVSPost2010Prop46
 90
       50
102
RTVSPost2010PropOp46
 70
     1
102
RTVSPost2010Prop47
 90
       50
102
RTVSPost2010PropOp47
 70
     1
102
RTVSPost2010Prop48
 90
       50
102
RTVSPost2010PropOp48
 70
     1
102
RTVSPost2010Prop49
280
     0
102
RTVSPost2010PropOp49
 70
     1
102
RTVSPost2010Prop50
 90
       50
102
RTVSPost2010PropOp50
 70
     1
102
RTVSPost2010Prop51ColorIndex
 90
      256
102
RTVSPost2010Prop51ColorRGB
 90
-16777216
102
RTVSPost2010PropOp51
 70
     0
102
RTVSPost2010Prop52
140
1.0
102
RTVSPost2010PropOp52
 70
     0
102
RTVSPost2010Prop53
 90
        2
102
RTVSPost2010PropOp53
 70
     1
102
RTVSPost2010Prop54
  1
strokes_ogs.tif
102
RTVSPost2010PropOp54
 70
     1
102
RTVSPost2010Prop55
280
     0
102
RTVSPost2010PropOp55
 70
     1
102
RTVSPost2010Prop56
140
1.0
102
RTVSPost2010PropOp56
 70
     1
102
RTVSPost2010Prop57
140
1.0
102
RTVSPost2010PropOp57
 70
     1
  0
XRECORD
  5
6A86
102
{ACAD_REACTORS
330
6A85
102
}
330
6A85
100
AcDbXrecord
280
     1
102
RTVSPost2010Prop28
280
     0
102
RTVSPost2010PropOp28
 70
     1
102
RTVSPost2010Prop29
280
     1
102
RTVSPost2010PropOp29
 70
     1
102
RTVSPost2010Prop30
280
     1
102
RTVSPost2010PropOp30
 70
     1
102
RTVSPost2010Prop31
280
     0
102
RTVSPost2010PropOp31
 70
     1
102
RTVSPost2010Prop32
280
     0
102
RTVSPost2010PropOp32
 70
     1
102
RTVSPost2010Prop33
280
     0
102
RTVSPost2010PropOp33
 70
     1
102
RTVSPost2010Prop34
280
     0
102
RTVSPost2010PropOp34
 70
     1
102
RTVSPost2010Prop35
280
     0
102
RTVSPost2010PropOp35
 70
     1
102
RTVSPost2010Prop36
280
     0
102
RTVSPost2010PropOp36
 70
     1
102
RTVSPost2010Prop37
 90
       50
102
RTVSPost2010PropOp37
 70
     1
102
RTVSPost2010Prop38
140
0.0
102
RTVSPost2010PropOp38
 70
     1
102
RTVSPost2010Prop39
140
1.0
102
RTVSPost2010PropOp39
 70
     1
102
RTVSPost2010Prop40
 90
        0
102
RTVSPost2010PropOp40
 70
     1
102
RTVSPost2010Prop41ColorIndex
 90
       18
102
RTVSPost2010Prop41ColorRGB
 90
        0
102
RTVSPost2010PropOp41
 70
     1
102
RTVSPost2010Prop42
 90
       50
102
RTVSPost2010PropOp42
 70
     1
102
RTVSPost2010Prop43
 90
        3
102
RTVSPost2010PropOp43
 70
     1
102
RTVSPost2010Prop44ColorIndex
 90
        5
102
RTVSPost2010Prop44ColorRGB
 90
      255
102
RTVSPost2010PropOp44
 70
     1
102
RTVSPost2010Prop45
280
     0
102
RTVSPost2010PropOp45
 70
     1
102
RTVSPost2010Prop46
 90
       50
102
RTVSPost2010PropOp46
 70
     1
102
RTVSPost2010Prop47
 90
       50
102
RTVSPost2010PropOp47
 70
     1
102
RTVSPost2010Prop48
 90
       50
102
RTVSPost2010PropOp48
 70
     1
102
RTVSPost2010Prop49
280
     0
102
RTVSPost2010PropOp49
 70
     1
102
RTVSPost2010Prop50
 90
       50
102
RTVSPost2010PropOp50
 70
     1
102
RTVSPost2010Prop51ColorIndex
 90
      256
102
RTVSPost2010Prop51ColorRGB
 90
-16777216
102
RTVSPost2010PropOp51
 70
     0
102
RTVSPost2010Prop52
140
1.0
102
RTVSPost2010PropOp52
 70
     0
102
RTVSPost2010Prop53
 90
        2
102
RTVSPost2010PropOp53
 70
     1
102
RTVSPost2010Prop54
  1
strokes_ogs.tif
102
RTVSPost2010PropOp54
 70
     1
102
RTVSPost2010Prop55
280
     0
102
RTVSPost2010PropOp55
 70
     1
102
RTVSPost2010Prop56
140
1.0
102
RTVSPost2010PropOp56
 70
     1
102
RTVSPost2010Prop57
140
1.0
102
RTVSPost2010PropOp57
 70
     1
  0
XRECORD
  5
6A78
102
{ACAD_REACTORS
330
6A77
102
}
330
6A77
100
AcDbXrecord
280
     1
102
RTVSPost2010Prop28
280
     0
102
RTVSPost2010PropOp28
 70
     1
102
RTVSPost2010Prop29
280
     1
102
RTVSPost2010PropOp29
 70
     1
102
RTVSPost2010Prop30
280
     1
102
RTVSPost2010PropOp30
 70
     1
102
RTVSPost2010Prop31
280
     0
102
RTVSPost2010PropOp31
 70
     1
102
RTVSPost2010Prop32
280
     0
102
RTVSPost2010PropOp32
 70
     1
102
RTVSPost2010Prop33
280
     0
102
RTVSPost2010PropOp33
 70
     1
102
RTVSPost2010Prop34
280
     0
102
RTVSPost2010PropOp34
 70
     1
102
RTVSPost2010Prop35
280
     0
102
RTVSPost2010PropOp35
 70
     1
102
RTVSPost2010Prop36
280
     0
102
RTVSPost2010PropOp36
 70
     1
102
RTVSPost2010Prop37
 90
       50
102
RTVSPost2010PropOp37
 70
     1
102
RTVSPost2010Prop38
140
0.0
102
RTVSPost2010PropOp38
 70
     1
102
RTVSPost2010Prop39
140
1.0
102
RTVSPost2010PropOp39
 70
     1
102
RTVSPost2010Prop40
 90
        0
102
RTVSPost2010PropOp40
 70
     1
102
RTVSPost2010Prop41ColorIndex
 90
       18
102
RTVSPost2010Prop41ColorRGB
 90
        0
102
RTVSPost2010PropOp41
 70
     1
102
RTVSPost2010Prop42
 90
       50
102
RTVSPost2010PropOp42
 70
     1
102
RTVSPost2010Prop43
 90
        3
102
RTVSPost2010PropOp43
 70
     1
102
RTVSPost2010Prop44ColorIndex
 90
        5
102
RTVSPost2010Prop44ColorRGB
 90
      255
102
RTVSPost2010PropOp44
 70
     1
102
RTVSPost2010Prop45
280
     0
102
RTVSPost2010PropOp45
 70
     1
102
RTVSPost2010Prop46
 90
       50
102
RTVSPost2010PropOp46
 70
     1
102
RTVSPost2010Prop47
 90
       50
102
RTVSPost2010PropOp47
 70
     1
102
RTVSPost2010Prop48
 90
       50
102
RTVSPost2010PropOp48
 70
     1
102
RTVSPost2010Prop49
280
     0
102
RTVSPost2010PropOp49
 70
     1
102
RTVSPost2010Prop50
 90
       50
102
RTVSPost2010PropOp50
 70
     1
102
RTVSPost2010Prop51ColorIndex
 90
      256
102
RTVSPost2010Prop51ColorRGB
 90
-16777216
102
RTVSPost2010PropOp51
 70
     0
102
RTVSPost2010Prop52
140
1.0
102
RTVSPost2010PropOp52
 70
     0
102
RTVSPost2010Prop53
 90
        2
102
RTVSPost2010PropOp53
 70
     1
102
RTVSPost2010Prop54
  1
strokes_ogs.tif
102
RTVSPost2010PropOp54
 70
     1
102
RTVSPost2010Prop55
280
     0
102
RTVSPost2010PropOp55
 70
     1
102
RTVSPost2010Prop56
140
1.0
102
RTVSPost2010PropOp56
 70
     1
102
RTVSPost2010Prop57
140
1.0
102
RTVSPost2010PropOp57
 70
     1
  0
XRECORD
  5
6A7C
102
{ACAD_REACTORS
330
6A7B
102
}
330
6A7B
100
AcDbXrecord
280
     1
102
RTVSPost2010Prop28
280
     0
102
RTVSPost2010PropOp28
 70
     1
102
RTVSPost2010Prop29
280
     1
102
RTVSPost2010PropOp29
 70
     1
102
RTVSPost2010Prop30
280
     1
102
RTVSPost2010PropOp30
 70
     1
102
RTVSPost2010Prop31
280
     0
102
RTVSPost2010PropOp31
 70
     1
102
RTVSPost2010Prop32
280
     0
102
RTVSPost2010PropOp32
 70
     1
102
RTVSPost2010Prop33
280
     0
102
RTVSPost2010PropOp33
 70
     1
102
RTVSPost2010Prop34
280
     0
102
RTVSPost2010PropOp34
 70
     1
102
RTVSPost2010Prop35
280
     0
102
RTVSPost2010PropOp35
 70
     1
102
RTVSPost2010Prop36
280
     0
102
RTVSPost2010PropOp36
 70
     1
102
RTVSPost2010Prop37
 90
       50
102
RTVSPost2010PropOp37
 70
     1
102
RTVSPost2010Prop38
140
0.0
102
RTVSPost2010PropOp38
 70
     1
102
RTVSPost2010Prop39
140
1.0
102
RTVSPost2010PropOp39
 70
     1
102
RTVSPost2010Prop40
 90
        0
102
RTVSPost2010PropOp40
 70
     1
102
RTVSPost2010Prop41ColorIndex
 90
       18
102
RTVSPost2010Prop41ColorRGB
 90
        0
102
RTVSPost2010PropOp41
 70
     1
102
RTVSPost2010Prop42
 90
       50
102
RTVSPost2010PropOp42
 70
     1
102
RTVSPost2010Prop43
 90
        3
102
RTVSPost2010PropOp43
 70
     1
102
RTVSPost2010Prop44ColorIndex
 90
        5
102
RTVSPost2010Prop44ColorRGB
 90
      255
102
RTVSPost2010PropOp44
 70
     1
102
RTVSPost2010Prop45
280
     0
102
RTVSPost2010PropOp45
 70
     1
102
RTVSPost2010Prop46
 90
       50
102
RTVSPost2010PropOp46
 70
     1
102
RTVSPost2010Prop47
 90
       50
102
RTVSPost2010PropOp47
 70
     1
102
RTVSPost2010Prop48
 90
       50
102
RTVSPost2010PropOp48
 70
     1
102
RTVSPost2010Prop49
280
     0
102
RTVSPost2010PropOp49
 70
     1
102
RTVSPost2010Prop50
 90
       50
102
RTVSPost2010PropOp50
 70
     1
102
RTVSPost2010Prop51ColorIndex
 90
      256
102
RTVSPost2010Prop51ColorRGB
 90
-16777216
102
RTVSPost2010PropOp51
 70
     0
102
RTVSPost2010Prop52
140
1.0
102
RTVSPost2010PropOp52
 70
     0
102
RTVSPost2010Prop53
 90
        2
102
RTVSPost2010PropOp53
 70
     1
102
RTVSPost2010Prop54
  1
strokes_ogs.tif
102
RTVSPost2010PropOp54
 70
     1
102
RTVSPost2010Prop55
280
     0
102
RTVSPost2010PropOp55
 70
     1
102
RTVSPost2010Prop56
140
1.0
102
RTVSPost2010PropOp56
 70
     1
102
RTVSPost2010Prop57
140
1.0
102
RTVSPost2010PropOp57
 70
     1
  0
XRECORD
  5
6A8C
102
{ACAD_REACTORS
330
6A8B
102
}
330
6A8B
100
AcDbXrecord
280
     1
102
RTVSPost2010Prop28
280
     0
102
RTVSPost2010PropOp28
 70
     1
102
RTVSPost2010Prop29
280
     1
102
RTVSPost2010PropOp29
 70
     1
102
RTVSPost2010Prop30
280
     1
102
RTVSPost2010PropOp30
 70
     1
102
RTVSPost2010Prop31
280
     0
102
RTVSPost2010PropOp31
 70
     1
102
RTVSPost2010Prop32
280
     0
102
RTVSPost2010PropOp32
 70
     1
102
RTVSPost2010Prop33
280
     0
102
RTVSPost2010PropOp33
 70
     1
102
RTVSPost2010Prop34
280
     0
102
RTVSPost2010PropOp34
 70
     1
102
RTVSPost2010Prop35
280
     0
102
RTVSPost2010PropOp35
 70
     1
102
RTVSPost2010Prop36
280
     0
102
RTVSPost2010PropOp36
 70
     1
102
RTVSPost2010Prop37
 90
       50
102
RTVSPost2010PropOp37
 70
     1
102
RTVSPost2010Prop38
140
0.0
102
RTVSPost2010PropOp38
 70
     1
102
RTVSPost2010Prop39
140
1.0
102
RTVSPost2010PropOp39
 70
     1
102
RTVSPost2010Prop40
 90
        0
102
RTVSPost2010PropOp40
 70
     1
102
RTVSPost2010Prop41ColorIndex
 90
       18
102
RTVSPost2010Prop41ColorRGB
 90
        0
102
RTVSPost2010PropOp41
 70
     1
102
RTVSPost2010Prop42
 90
       50
102
RTVSPost2010PropOp42
 70
     1
102
RTVSPost2010Prop43
 90
        3
102
RTVSPost2010PropOp43
 70
     1
102
RTVSPost2010Prop44ColorIndex
 90
        5
102
RTVSPost2010Prop44ColorRGB
 90
      255
102
RTVSPost2010PropOp44
 70
     1
102
RTVSPost2010Prop45
280
     0
102
RTVSPost2010PropOp45
 70
     1
102
RTVSPost2010Prop46
 90
       50
102
RTVSPost2010PropOp46
 70
     1
102
RTVSPost2010Prop47
 90
       50
102
RTVSPost2010PropOp47
 70
     1
102
RTVSPost2010Prop48
 90
       50
102
RTVSPost2010PropOp48
 70
     1
102
RTVSPost2010Prop49
280
     0
102
RTVSPost2010PropOp49
 70
     1
102
RTVSPost2010Prop50
 90
       50
102
RTVSPost2010PropOp50
 70
     1
102
RTVSPost2010Prop51ColorIndex
 90
      256
102
RTVSPost2010Prop51ColorRGB
 90
-16777216
102
RTVSPost2010PropOp51
 70
     0
102
RTVSPost2010Prop52
140
1.0
102
RTVSPost2010PropOp52
 70
     0
102
RTVSPost2010Prop53
 90
        2
102
RTVSPost2010PropOp53
 70
     1
102
RTVSPost2010Prop54
  1
strokes_ogs.tif
102
RTVSPost2010PropOp54
 70
     1
102
RTVSPost2010Prop55
280
     0
102
RTVSPost2010PropOp55
 70
     1
102
RTVSPost2010Prop56
140
1.0
102
RTVSPost2010PropOp56
 70
     1
102
RTVSPost2010Prop57
140
1.0
102
RTVSPost2010PropOp57
 70
     1
  0
XRECORD
  5
6A84
102
{ACAD_REACTORS
330
6A83
102
}
330
6A83
100
AcDbXrecord
280
     1
102
RTVSPost2010Prop28
280
     0
102
RTVSPost2010PropOp28
 70
     1
102
RTVSPost2010Prop29
280
     1
102
RTVSPost2010PropOp29
 70
     1
102
RTVSPost2010Prop30
280
     1
102
RTVSPost2010PropOp30
 70
     1
102
RTVSPost2010Prop31
280
     0
102
RTVSPost2010PropOp31
 70
     1
102
RTVSPost2010Prop32
280
     0
102
RTVSPost2010PropOp32
 70
     1
102
RTVSPost2010Prop33
280
     0
102
RTVSPost2010PropOp33
 70
     1
102
RTVSPost2010Prop34
280
     0
102
RTVSPost2010PropOp34
 70
     1
102
RTVSPost2010Prop35
280
     0
102
RTVSPost2010PropOp35
 70
     1
102
RTVSPost2010Prop36
280
     0
102
RTVSPost2010PropOp36
 70
     1
102
RTVSPost2010Prop37
 90
       50
102
RTVSPost2010PropOp37
 70
     1
102
RTVSPost2010Prop38
140
0.0
102
RTVSPost2010PropOp38
 70
     1
102
RTVSPost2010Prop39
140
1.0
102
RTVSPost2010PropOp39
 70
     1
102
RTVSPost2010Prop40
 90
        0
102
RTVSPost2010PropOp40
 70
     1
102
RTVSPost2010Prop41ColorIndex
 90
       18
102
RTVSPost2010Prop41ColorRGB
 90
        0
102
RTVSPost2010PropOp41
 70
     1
102
RTVSPost2010Prop42
 90
       50
102
RTVSPost2010PropOp42
 70
     1
102
RTVSPost2010Prop43
 90
        3
102
RTVSPost2010PropOp43
 70
     1
102
RTVSPost2010Prop44ColorIndex
 90
        5
102
RTVSPost2010Prop44ColorRGB
 90
      255
102
RTVSPost2010PropOp44
 70
     1
102
RTVSPost2010Prop45
280
     0
102
RTVSPost2010PropOp45
 70
     1
102
RTVSPost2010Prop46
 90
       50
102
RTVSPost2010PropOp46
 70
     1
102
RTVSPost2010Prop47
 90
       50
102
RTVSPost2010PropOp47
 70
     1
102
RTVSPost2010Prop48
 90
       50
102
RTVSPost2010PropOp48
 70
     1
102
RTVSPost2010Prop49
280
     0
102
RTVSPost2010PropOp49
 70
     1
102
RTVSPost2010Prop50
 90
       50
102
RTVSPost2010PropOp50
 70
     1
102
RTVSPost2010Prop51ColorIndex
 90
      256
102
RTVSPost2010Prop51ColorRGB
 90
-16777216
102
RTVSPost2010PropOp51
 70
     0
102
RTVSPost2010Prop52
140
1.0
102
RTVSPost2010PropOp52
 70
     0
102
RTVSPost2010Prop53
 90
        2
102
RTVSPost2010PropOp53
 70
     1
102
RTVSPost2010Prop54
  1
strokes_ogs.tif
102
RTVSPost2010PropOp54
 70
     1
102
RTVSPost2010Prop55
280
     0
102
RTVSPost2010PropOp55
 70
     1
102
RTVSPost2010Prop56
140
1.0
102
RTVSPost2010PropOp56
 70
     1
102
RTVSPost2010Prop57
140
1.0
102
RTVSPost2010PropOp57
 70
     1
  0
XRECORD
  5
6A68
102
{ACAD_REACTORS
330
6A67
102
}
330
6A67
100
AcDbXrecord
280
     1
102
RTVSPost2010Prop28
280
     0
102
RTVSPost2010PropOp28
 70
     1
102
RTVSPost2010Prop29
280
     1
102
RTVSPost2010PropOp29
 70
     1
102
RTVSPost2010Prop30
280
     1
102
RTVSPost2010PropOp30
 70
     1
102
RTVSPost2010Prop31
280
     0
102
RTVSPost2010PropOp31
 70
     1
102
RTVSPost2010Prop32
280
     0
102
RTVSPost2010PropOp32
 70
     1
102
RTVSPost2010Prop33
280
     0
102
RTVSPost2010PropOp33
 70
     1
102
RTVSPost2010Prop34
280
     0
102
RTVSPost2010PropOp34
 70
     1
102
RTVSPost2010Prop35
280
     0
102
RTVSPost2010PropOp35
 70
     1
102
RTVSPost2010Prop36
280
     0
102
RTVSPost2010PropOp36
 70
     1
102
RTVSPost2010Prop37
 90
       50
102
RTVSPost2010PropOp37
 70
     1
102
RTVSPost2010Prop38
140
0.0
102
RTVSPost2010PropOp38
 70
     1
102
RTVSPost2010Prop39
140
1.0
102
RTVSPost2010PropOp39
 70
     1
102
RTVSPost2010Prop40
 90
        0
102
RTVSPost2010PropOp40
 70
     1
102
RTVSPost2010Prop41ColorIndex
 90
       18
102
RTVSPost2010Prop41ColorRGB
 90
        0
102
RTVSPost2010PropOp41
 70
     1
102
RTVSPost2010Prop42
 90
       50
102
RTVSPost2010PropOp42
 70
     1
102
RTVSPost2010Prop43
 90
        3
102
RTVSPost2010PropOp43
 70
     1
102
RTVSPost2010Prop44ColorIndex
 90
        5
102
RTVSPost2010Prop44ColorRGB
 90
      255
102
RTVSPost2010PropOp44
 70
     1
102
RTVSPost2010Prop45
280
     0
102
RTVSPost2010PropOp45
 70
     1
102
RTVSPost2010Prop46
 90
       50
102
RTVSPost2010PropOp46
 70
     1
102
RTVSPost2010Prop47
 90
       50
102
RTVSPost2010PropOp47
 70
     1
102
RTVSPost2010Prop48
 90
       50
102
RTVSPost2010PropOp48
 70
     1
102
RTVSPost2010Prop49
280
     0
102
RTVSPost2010PropOp49
 70
     1
102
RTVSPost2010Prop50
 90
       50
102
RTVSPost2010PropOp50
 70
     1
102
RTVSPost2010Prop51ColorIndex
 90
      256
102
RTVSPost2010Prop51ColorRGB
 90
-16777216
102
RTVSPost2010PropOp51
 70
     0
102
RTVSPost2010Prop52
140
1.0
102
RTVSPost2010PropOp52
 70
     0
102
RTVSPost2010Prop53
 90
        2
102
RTVSPost2010PropOp53
 70
     1
102
RTVSPost2010Prop54
  1
strokes_ogs.tif
102
RTVSPost2010PropOp54
 70
     1
102
RTVSPost2010Prop55
280
     0
102
RTVSPost2010PropOp55
 70
     1
102
RTVSPost2010Prop56
140
1.0
102
RTVSPost2010PropOp56
 70
     1
102
RTVSPost2010Prop57
140
1.0
102
RTVSPost2010PropOp57
 70
     1
  0
XRECORD
  5
6A6A
102
{ACAD_REACTORS
330
6A69
102
}
330
6A69
100
AcDbXrecord
280
     1
102
RTVSPost2010Prop28
280
     0
102
RTVSPost2010PropOp28
 70
     1
102
RTVSPost2010Prop29
280
     1
102
RTVSPost2010PropOp29
 70
     1
102
RTVSPost2010Prop30
280
     1
102
RTVSPost2010PropOp30
 70
     1
102
RTVSPost2010Prop31
280
     0
102
RTVSPost2010PropOp31
 70
     1
102
RTVSPost2010Prop32
280
     0
102
RTVSPost2010PropOp32
 70
     1
102
RTVSPost2010Prop33
280
     0
102
RTVSPost2010PropOp33
 70
     1
102
RTVSPost2010Prop34
280
     0
102
RTVSPost2010PropOp34
 70
     1
102
RTVSPost2010Prop35
280
     0
102
RTVSPost2010PropOp35
 70
     1
102
RTVSPost2010Prop36
280
     0
102
RTVSPost2010PropOp36
 70
     1
102
RTVSPost2010Prop37
 90
       50
102
RTVSPost2010PropOp37
 70
     1
102
RTVSPost2010Prop38
140
0.0
102
RTVSPost2010PropOp38
 70
     1
102
RTVSPost2010Prop39
140
1.0
102
RTVSPost2010PropOp39
 70
     1
102
RTVSPost2010Prop40
 90
        0
102
RTVSPost2010PropOp40
 70
     1
102
RTVSPost2010Prop41ColorIndex
 90
       18
102
RTVSPost2010Prop41ColorRGB
 90
        0
102
RTVSPost2010PropOp41
 70
     1
102
RTVSPost2010Prop42
 90
       50
102
RTVSPost2010PropOp42
 70
     1
102
RTVSPost2010Prop43
 90
        3
102
RTVSPost2010PropOp43
 70
     1
102
RTVSPost2010Prop44ColorIndex
 90
        5
102
RTVSPost2010Prop44ColorRGB
 90
      255
102
RTVSPost2010PropOp44
 70
     1
102
RTVSPost2010Prop45
280
     0
102
RTVSPost2010PropOp45
 70
     1
102
RTVSPost2010Prop46
 90
       50
102
RTVSPost2010PropOp46
 70
     1
102
RTVSPost2010Prop47
 90
       50
102
RTVSPost2010PropOp47
 70
     1
102
RTVSPost2010Prop48
 90
       50
102
RTVSPost2010PropOp48
 70
     1
102
RTVSPost2010Prop49
280
     0
102
RTVSPost2010PropOp49
 70
     1
102
RTVSPost2010Prop50
 90
       50
102
RTVSPost2010PropOp50
 70
     1
102
RTVSPost2010Prop51ColorIndex
 90
      256
102
RTVSPost2010Prop51ColorRGB
 90
-16777216
102
RTVSPost2010PropOp51
 70
     0
102
RTVSPost2010Prop52
140
1.0
102
RTVSPost2010PropOp52
 70
     0
102
RTVSPost2010Prop53
 90
        2
102
RTVSPost2010PropOp53
 70
     1
102
RTVSPost2010Prop54
  1
strokes_ogs.tif
102
RTVSPost2010PropOp54
 70
     1
102
RTVSPost2010Prop55
280
     0
102
RTVSPost2010PropOp55
 70
     1
102
RTVSPost2010Prop56
140
1.0
102
RTVSPost2010PropOp56
 70
     1
102
RTVSPost2010Prop57
140
1.0
102
RTVSPost2010PropOp57
 70
     1
  0
XRECORD
  5
6A6C
102
{ACAD_REACTORS
330
6A6B
102
}
330
6A6B
100
AcDbXrecord
280
     1
102
RTVSPost2010Prop28
280
     0
102
RTVSPost2010PropOp28
 70
     1
102
RTVSPost2010Prop29
280
     1
102
RTVSPost2010PropOp29
 70
     1
102
RTVSPost2010Prop30
280
     1
102
RTVSPost2010PropOp30
 70
     1
102
RTVSPost2010Prop31
280
     0
102
RTVSPost2010PropOp31
 70
     1
102
RTVSPost2010Prop32
280
     0
102
RTVSPost2010PropOp32
 70
     1
102
RTVSPost2010Prop33
280
     0
102
RTVSPost2010PropOp33
 70
     1
102
RTVSPost2010Prop34
280
     0
102
RTVSPost2010PropOp34
 70
     1
102
RTVSPost2010Prop35
280
     0
102
RTVSPost2010PropOp35
 70
     1
102
RTVSPost2010Prop36
280
     0
102
RTVSPost2010PropOp36
 70
     1
102
RTVSPost2010Prop37
 90
       50
102
RTVSPost2010PropOp37
 70
     1
102
RTVSPost2010Prop38
140
0.0
102
RTVSPost2010PropOp38
 70
     1
102
RTVSPost2010Prop39
140
1.0
102
RTVSPost2010PropOp39
 70
     1
102
RTVSPost2010Prop40
 90
        0
102
RTVSPost2010PropOp40
 70
     1
102
RTVSPost2010Prop41ColorIndex
 90
       18
102
RTVSPost2010Prop41ColorRGB
 90
        0
102
RTVSPost2010PropOp41
 70
     1
102
RTVSPost2010Prop42
 90
       50
102
RTVSPost2010PropOp42
 70
     1
102
RTVSPost2010Prop43
 90
        3
102
RTVSPost2010PropOp43
 70
     1
102
RTVSPost2010Prop44ColorIndex
 90
        5
102
RTVSPost2010Prop44ColorRGB
 90
      255
102
RTVSPost2010PropOp44
 70
     1
102
RTVSPost2010Prop45
280
     0
102
RTVSPost2010PropOp45
 70
     1
102
RTVSPost2010Prop46
 90
       50
102
RTVSPost2010PropOp46
 70
     1
102
RTVSPost2010Prop47
 90
       50
102
RTVSPost2010PropOp47
 70
     1
102
RTVSPost2010Prop48
 90
       50
102
RTVSPost2010PropOp48
 70
     1
102
RTVSPost2010Prop49
280
     0
102
RTVSPost2010PropOp49
 70
     1
102
RTVSPost2010Prop50
 90
       50
102
RTVSPost2010PropOp50
 70
     1
102
RTVSPost2010Prop51ColorIndex
 90
      256
102
RTVSPost2010Prop51ColorRGB
 90
-16777216
102
RTVSPost2010PropOp51
 70
     0
102
RTVSPost2010Prop52
140
1.0
102
RTVSPost2010PropOp52
 70
     0
102
RTVSPost2010Prop53
 90
        2
102
RTVSPost2010PropOp53
 70
     1
102
RTVSPost2010Prop54
  1
strokes_ogs.tif
102
RTVSPost2010PropOp54
 70
     1
102
RTVSPost2010Prop55
280
     0
102
RTVSPost2010PropOp55
 70
     1
102
RTVSPost2010Prop56
140
1.0
102
RTVSPost2010PropOp56
 70
     1
102
RTVSPost2010Prop57
140
1.0
102
RTVSPost2010PropOp57
 70
     1
  0
XRECORD
  5
6A6E
102
{ACAD_REACTORS
330
6A6D
102
}
330
6A6D
100
AcDbXrecord
280
     1
102
RTVSPost2010Prop28
280
     0
102
RTVSPost2010PropOp28
 70
     1
102
RTVSPost2010Prop29
280
     1
102
RTVSPost2010PropOp29
 70
     1
102
RTVSPost2010Prop30
280
     1
102
RTVSPost2010PropOp30
 70
     1
102
RTVSPost2010Prop31
280
     0
102
RTVSPost2010PropOp31
 70
     1
102
RTVSPost2010Prop32
280
     0
102
RTVSPost2010PropOp32
 70
     1
102
RTVSPost2010Prop33
280
     0
102
RTVSPost2010PropOp33
 70
     1
102
RTVSPost2010Prop34
280
     0
102
RTVSPost2010PropOp34
 70
     1
102
RTVSPost2010Prop35
280
     0
102
RTVSPost2010PropOp35
 70
     1
102
RTVSPost2010Prop36
280
     0
102
RTVSPost2010PropOp36
 70
     1
102
RTVSPost2010Prop37
 90
       50
102
RTVSPost2010PropOp37
 70
     1
102
RTVSPost2010Prop38
140
0.0
102
RTVSPost2010PropOp38
 70
     1
102
RTVSPost2010Prop39
140
1.0
102
RTVSPost2010PropOp39
 70
     1
102
RTVSPost2010Prop40
 90
        0
102
RTVSPost2010PropOp40
 70
     1
102
RTVSPost2010Prop41ColorIndex
 90
       18
102
RTVSPost2010Prop41ColorRGB
 90
        0
102
RTVSPost2010PropOp41
 70
     1
102
RTVSPost2010Prop42
 90
       50
102
RTVSPost2010PropOp42
 70
     1
102
RTVSPost2010Prop43
 90
        3
102
RTVSPost2010PropOp43
 70
     1
102
RTVSPost2010Prop44ColorIndex
 90
        5
102
RTVSPost2010Prop44ColorRGB
 90
      255
102
RTVSPost2010PropOp44
 70
     1
102
RTVSPost2010Prop45
280
     0
102
RTVSPost2010PropOp45
 70
     1
102
RTVSPost2010Prop46
 90
       50
102
RTVSPost2010PropOp46
 70
     1
102
RTVSPost2010Prop47
 90
       50
102
RTVSPost2010PropOp47
 70
     1
102
RTVSPost2010Prop48
 90
       50
102
RTVSPost2010PropOp48
 70
     1
102
RTVSPost2010Prop49
280
     0
102
RTVSPost2010PropOp49
 70
     1
102
RTVSPost2010Prop50
 90
       50
102
RTVSPost2010PropOp50
 70
     1
102
RTVSPost2010Prop51ColorIndex
 90
      256
102
RTVSPost2010Prop51ColorRGB
 90
-16777216
102
RTVSPost2010PropOp51
 70
     0
102
RTVSPost2010Prop52
140
1.0
102
RTVSPost2010PropOp52
 70
     0
102
RTVSPost2010Prop53
 90
        2
102
RTVSPost2010PropOp53
 70
     1
102
RTVSPost2010Prop54
  1
strokes_ogs.tif
102
RTVSPost2010PropOp54
 70
     1
102
RTVSPost2010Prop55
280
     0
102
RTVSPost2010PropOp55
 70
     1
102
RTVSPost2010Prop56
140
1.0
102
RTVSPost2010PropOp56
 70
     1
102
RTVSPost2010Prop57
140
1.0
102
RTVSPost2010PropOp57
 70
     1
  0
XRECORD
  5
6A90
102
{ACAD_REACTORS
330
6A8F
102
}
330
6A8F
100
AcDbXrecord
280
     1
102
RTVSPost2010Prop28
280
     0
102
RTVSPost2010PropOp28
 70
     1
102
RTVSPost2010Prop29
280
     1
102
RTVSPost2010PropOp29
 70
     1
102
RTVSPost2010Prop30
280
     1
102
RTVSPost2010PropOp30
 70
     1
102
RTVSPost2010Prop31
280
     0
102
RTVSPost2010PropOp31
 70
     1
102
RTVSPost2010Prop32
280
     0
102
RTVSPost2010PropOp32
 70
     1
102
RTVSPost2010Prop33
280
     0
102
RTVSPost2010PropOp33
 70
     1
102
RTVSPost2010Prop34
280
     0
102
RTVSPost2010PropOp34
 70
     1
102
RTVSPost2010Prop35
280
     0
102
RTVSPost2010PropOp35
 70
     1
102
RTVSPost2010Prop36
280
     0
102
RTVSPost2010PropOp36
 70
     1
102
RTVSPost2010Prop37
 90
       50
102
RTVSPost2010PropOp37
 70
     1
102
RTVSPost2010Prop38
140
0.0
102
RTVSPost2010PropOp38
 70
     1
102
RTVSPost2010Prop39
140
1.0
102
RTVSPost2010PropOp39
 70
     1
102
RTVSPost2010Prop40
 90
        0
102
RTVSPost2010PropOp40
 70
     1
102
RTVSPost2010Prop41ColorIndex
 90
       18
102
RTVSPost2010Prop41ColorRGB
 90
        0
102
RTVSPost2010PropOp41
 70
     1
102
RTVSPost2010Prop42
 90
       50
102
RTVSPost2010PropOp42
 70
     1
102
RTVSPost2010Prop43
 90
        3
102
RTVSPost2010PropOp43
 70
     1
102
RTVSPost2010Prop44ColorIndex
 90
        5
102
RTVSPost2010Prop44ColorRGB
 90
      255
102
RTVSPost2010PropOp44
 70
     1
102
RTVSPost2010Prop45
280
     0
102
RTVSPost2010PropOp45
 70
     1
102
RTVSPost2010Prop46
 90
       50
102
RTVSPost2010PropOp46
 70
     1
102
RTVSPost2010Prop47
 90
       50
102
RTVSPost2010PropOp47
 70
     1
102
RTVSPost2010Prop48
 90
       50
102
RTVSPost2010PropOp48
 70
     1
102
RTVSPost2010Prop49
280
     0
102
RTVSPost2010PropOp49
 70
     1
102
RTVSPost2010Prop50
 90
       50
102
RTVSPost2010PropOp50
 70
     1
102
RTVSPost2010Prop51ColorIndex
 90
      256
102
RTVSPost2010Prop51ColorRGB
 90
-16777216
102
RTVSPost2010PropOp51
 70
     0
102
RTVSPost2010Prop52
140
1.0
102
RTVSPost2010PropOp52
 70
     0
102
RTVSPost2010Prop53
 90
        2
102
RTVSPost2010PropOp53
 70
     1
102
RTVSPost2010Prop54
  1
strokes_ogs.tif
102
RTVSPost2010PropOp54
 70
     1
102
RTVSPost2010Prop55
280
     0
102
RTVSPost2010PropOp55
 70
     1
102
RTVSPost2010Prop56
140
1.0
102
RTVSPost2010PropOp56
 70
     1
102
RTVSPost2010Prop57
140
1.0
102
RTVSPost2010PropOp57
 70
     1
  0
XRECORD
  5
6A88
102
{ACAD_REACTORS
330
6A87
102
}
330
6A87
100
AcDbXrecord
280
     1
102
RTVSPost2010Prop28
280
     0
102
RTVSPost2010PropOp28
 70
     1
102
RTVSPost2010Prop29
280
     1
102
RTVSPost2010PropOp29
 70
     1
102
RTVSPost2010Prop30
280
     1
102
RTVSPost2010PropOp30
 70
     1
102
RTVSPost2010Prop31
280
     0
102
RTVSPost2010PropOp31
 70
     1
102
RTVSPost2010Prop32
280
     0
102
RTVSPost2010PropOp32
 70
     1
102
RTVSPost2010Prop33
280
     0
102
RTVSPost2010PropOp33
 70
     1
102
RTVSPost2010Prop34
280
     0
102
RTVSPost2010PropOp34
 70
     1
102
RTVSPost2010Prop35
280
     0
102
RTVSPost2010PropOp35
 70
     1
102
RTVSPost2010Prop36
280
     0
102
RTVSPost2010PropOp36
 70
     1
102
RTVSPost2010Prop37
 90
       50
102
RTVSPost2010PropOp37
 70
     1
102
RTVSPost2010Prop38
140
0.0
102
RTVSPost2010PropOp38
 70
     1
102
RTVSPost2010Prop39
140
1.0
102
RTVSPost2010PropOp39
 70
     1
102
RTVSPost2010Prop40
 90
        0
102
RTVSPost2010PropOp40
 70
     1
102
RTVSPost2010Prop41ColorIndex
 90
       18
102
RTVSPost2010Prop41ColorRGB
 90
        0
102
RTVSPost2010PropOp41
 70
     1
102
RTVSPost2010Prop42
 90
       50
102
RTVSPost2010PropOp42
 70
     1
102
RTVSPost2010Prop43
 90
        3
102
RTVSPost2010PropOp43
 70
     1
102
RTVSPost2010Prop44ColorIndex
 90
        5
102
RTVSPost2010Prop44ColorRGB
 90
      255
102
RTVSPost2010PropOp44
 70
     1
102
RTVSPost2010Prop45
280
     0
102
RTVSPost2010PropOp45
 70
     1
102
RTVSPost2010Prop46
 90
       50
102
RTVSPost2010PropOp46
 70
     1
102
RTVSPost2010Prop47
 90
       50
102
RTVSPost2010PropOp47
 70
     1
102
RTVSPost2010Prop48
 90
       50
102
RTVSPost2010PropOp48
 70
     1
102
RTVSPost2010Prop49
280
     0
102
RTVSPost2010PropOp49
 70
     1
102
RTVSPost2010Prop50
 90
       50
102
RTVSPost2010PropOp50
 70
     1
102
RTVSPost2010Prop51ColorIndex
 90
      256
102
RTVSPost2010Prop51ColorRGB
 90
-16777216
102
RTVSPost2010PropOp51
 70
     0
102
RTVSPost2010Prop52
140
1.0
102
RTVSPost2010PropOp52
 70
     0
102
RTVSPost2010Prop53
 90
        2
102
RTVSPost2010PropOp53
 70
     1
102
RTVSPost2010Prop54
  1
strokes_ogs.tif
102
RTVSPost2010PropOp54
 70
     1
102
RTVSPost2010Prop55
280
     0
102
RTVSPost2010PropOp55
 70
     1
102
RTVSPost2010Prop56
140
1.0
102
RTVSPost2010PropOp56
 70
     1
102
RTVSPost2010Prop57
140
1.0
102
RTVSPost2010PropOp57
 70
     1
  0
XRECORD
  5
6A82
102
{ACAD_REACTORS
330
6A81
102
}
330
6A81
100
AcDbXrecord
280
     1
102
RTVSPost2010Prop28
280
     0
102
RTVSPost2010PropOp28
 70
     1
102
RTVSPost2010Prop29
280
     1
102
RTVSPost2010PropOp29
 70
     1
102
RTVSPost2010Prop30
280
     1
102
RTVSPost2010PropOp30
 70
     1
102
RTVSPost2010Prop31
280
     0
102
RTVSPost2010PropOp31
 70
     1
102
RTVSPost2010Prop32
280
     0
102
RTVSPost2010PropOp32
 70
     1
102
RTVSPost2010Prop33
280
     0
102
RTVSPost2010PropOp33
 70
     1
102
RTVSPost2010Prop34
280
     0
102
RTVSPost2010PropOp34
 70
     1
102
RTVSPost2010Prop35
280
     0
102
RTVSPost2010PropOp35
 70
     1
102
RTVSPost2010Prop36
280
     0
102
RTVSPost2010PropOp36
 70
     1
102
RTVSPost2010Prop37
 90
       50
102
RTVSPost2010PropOp37
 70
     1
102
RTVSPost2010Prop38
140
0.0
102
RTVSPost2010PropOp38
 70
     1
102
RTVSPost2010Prop39
140
1.0
102
RTVSPost2010PropOp39
 70
     1
102
RTVSPost2010Prop40
 90
        0
102
RTVSPost2010PropOp40
 70
     1
102
RTVSPost2010Prop41ColorIndex
 90
       18
102
RTVSPost2010Prop41ColorRGB
 90
        0
102
RTVSPost2010PropOp41
 70
     1
102
RTVSPost2010Prop42
 90
       50
102
RTVSPost2010PropOp42
 70
     1
102
RTVSPost2010Prop43
 90
        3
102
RTVSPost2010PropOp43
 70
     1
102
RTVSPost2010Prop44ColorIndex
 90
        5
102
RTVSPost2010Prop44ColorRGB
 90
      255
102
RTVSPost2010PropOp44
 70
     1
102
RTVSPost2010Prop45
280
     0
102
RTVSPost2010PropOp45
 70
     1
102
RTVSPost2010Prop46
 90
       50
102
RTVSPost2010PropOp46
 70
     1
102
RTVSPost2010Prop47
 90
       50
102
RTVSPost2010PropOp47
 70
     1
102
RTVSPost2010Prop48
 90
       50
102
RTVSPost2010PropOp48
 70
     1
102
RTVSPost2010Prop49
280
     0
102
RTVSPost2010PropOp49
 70
     1
102
RTVSPost2010Prop50
 90
       50
102
RTVSPost2010PropOp50
 70
     1
102
RTVSPost2010Prop51ColorIndex
 90
      256
102
RTVSPost2010Prop51ColorRGB
 90
-16777216
102
RTVSPost2010PropOp51
 70
     0
102
RTVSPost2010Prop52
140
1.0
102
RTVSPost2010PropOp52
 70
     0
102
RTVSPost2010Prop53
 90
        2
102
RTVSPost2010PropOp53
 70
     1
102
RTVSPost2010Prop54
  1
strokes_ogs.tif
102
RTVSPost2010PropOp54
 70
     1
102
RTVSPost2010Prop55
280
     0
102
RTVSPost2010PropOp55
 70
     1
102
RTVSPost2010Prop56
140
1.0
102
RTVSPost2010PropOp56
 70
     1
102
RTVSPost2010Prop57
140
1.0
102
RTVSPost2010PropOp57
 70
     1
  0
XRECORD
  5
6A8A
102
{ACAD_REACTORS
330
6A89
102
}
330
6A89
100
AcDbXrecord
280
     1
102
RTVSPost2010Prop28
280
     0
102
RTVSPost2010PropOp28
 70
     1
102
RTVSPost2010Prop29
280
     1
102
RTVSPost2010PropOp29
 70
     1
102
RTVSPost2010Prop30
280
     1
102
RTVSPost2010PropOp30
 70
     1
102
RTVSPost2010Prop31
280
     0
102
RTVSPost2010PropOp31
 70
     1
102
RTVSPost2010Prop32
280
     0
102
RTVSPost2010PropOp32
 70
     1
102
RTVSPost2010Prop33
280
     0
102
RTVSPost2010PropOp33
 70
     1
102
RTVSPost2010Prop34
280
     0
102
RTVSPost2010PropOp34
 70
     1
102
RTVSPost2010Prop35
280
     0
102
RTVSPost2010PropOp35
 70
     1
102
RTVSPost2010Prop36
280
     0
102
RTVSPost2010PropOp36
 70
     1
102
RTVSPost2010Prop37
 90
       50
102
RTVSPost2010PropOp37
 70
     1
102
RTVSPost2010Prop38
140
0.0
102
RTVSPost2010PropOp38
 70
     1
102
RTVSPost2010Prop39
140
1.0
102
RTVSPost2010PropOp39
 70
     1
102
RTVSPost2010Prop40
 90
        0
102
RTVSPost2010PropOp40
 70
     1
102
RTVSPost2010Prop41ColorIndex
 90
       18
102
RTVSPost2010Prop41ColorRGB
 90
        0
102
RTVSPost2010PropOp41
 70
     1
102
RTVSPost2010Prop42
 90
       50
102
RTVSPost2010PropOp42
 70
     1
102
RTVSPost2010Prop43
 90
        3
102
RTVSPost2010PropOp43
 70
     1
102
RTVSPost2010Prop44ColorIndex
 90
        5
102
RTVSPost2010Prop44ColorRGB
 90
      255
102
RTVSPost2010PropOp44
 70
     1
102
RTVSPost2010Prop45
280
     0
102
RTVSPost2010PropOp45
 70
     1
102
RTVSPost2010Prop46
 90
       50
102
RTVSPost2010PropOp46
 70
     1
102
RTVSPost2010Prop47
 90
       50
102
RTVSPost2010PropOp47
 70
     1
102
RTVSPost2010Prop48
 90
       50
102
RTVSPost2010PropOp48
 70
     1
102
RTVSPost2010Prop49
280
     0
102
RTVSPost2010PropOp49
 70
     1
102
RTVSPost2010Prop50
 90
       50
102
RTVSPost2010PropOp50
 70
     1
102
RTVSPost2010Prop51ColorIndex
 90
      256
102
RTVSPost2010Prop51ColorRGB
 90
-16777216
102
RTVSPost2010PropOp51
 70
     0
102
RTVSPost2010Prop52
140
1.0
102
RTVSPost2010PropOp52
 70
     0
102
RTVSPost2010Prop53
 90
        2
102
RTVSPost2010PropOp53
 70
     1
102
RTVSPost2010Prop54
  1
strokes_ogs.tif
102
RTVSPost2010PropOp54
 70
     1
102
RTVSPost2010Prop55
280
     0
102
RTVSPost2010PropOp55
 70
     1
102
RTVSPost2010Prop56
140
1.0
102
RTVSPost2010PropOp56
 70
     1
102
RTVSPost2010Prop57
140
1.0
102
RTVSPost2010PropOp57
 70
     1
  0
XRECORD
  5
6A7A
102
{ACAD_REACTORS
330
6A79
102
}
330
6A79
100
AcDbXrecord
280
     1
102
RTVSPost2010Prop28
280
     0
102
RTVSPost2010PropOp28
 70
     1
102
RTVSPost2010Prop29
280
     1
102
RTVSPost2010PropOp29
 70
     1
102
RTVSPost2010Prop30
280
     1
102
RTVSPost2010PropOp30
 70
     1
102
RTVSPost2010Prop31
280
     0
102
RTVSPost2010PropOp31
 70
     1
102
RTVSPost2010Prop32
280
     0
102
RTVSPost2010PropOp32
 70
     1
102
RTVSPost2010Prop33
280
     0
102
RTVSPost2010PropOp33
 70
     1
102
RTVSPost2010Prop34
280
     0
102
RTVSPost2010PropOp34
 70
     1
102
RTVSPost2010Prop35
280
     0
102
RTVSPost2010PropOp35
 70
     1
102
RTVSPost2010Prop36
280
     0
102
RTVSPost2010PropOp36
 70
     1
102
RTVSPost2010Prop37
 90
       50
102
RTVSPost2010PropOp37
 70
     1
102
RTVSPost2010Prop38
140
0.0
102
RTVSPost2010PropOp38
 70
     1
102
RTVSPost2010Prop39
140
1.0
102
RTVSPost2010PropOp39
 70
     1
102
RTVSPost2010Prop40
 90
        0
102
RTVSPost2010PropOp40
 70
     1
102
RTVSPost2010Prop41ColorIndex
 90
       18
102
RTVSPost2010Prop41ColorRGB
 90
        0
102
RTVSPost2010PropOp41
 70
     1
102
RTVSPost2010Prop42
 90
       50
102
RTVSPost2010PropOp42
 70
     1
102
RTVSPost2010Prop43
 90
        3
102
RTVSPost2010PropOp43
 70
     1
102
RTVSPost2010Prop44ColorIndex
 90
        5
102
RTVSPost2010Prop44ColorRGB
 90
      255
102
RTVSPost2010PropOp44
 70
     1
102
RTVSPost2010Prop45
280
     0
102
RTVSPost2010PropOp45
 70
     1
102
RTVSPost2010Prop46
 90
       50
102
RTVSPost2010PropOp46
 70
     1
102
RTVSPost2010Prop47
 90
       50
102
RTVSPost2010PropOp47
 70
     1
102
RTVSPost2010Prop48
 90
       50
102
RTVSPost2010PropOp48
 70
     1
102
RTVSPost2010Prop49
280
     0
102
RTVSPost2010PropOp49
 70
     1
102
RTVSPost2010Prop50
 90
       50
102
RTVSPost2010PropOp50
 70
     1
102
RTVSPost2010Prop51ColorIndex
 90
      256
102
RTVSPost2010Prop51ColorRGB
 90
-16777216
102
RTVSPost2010PropOp51
 70
     0
102
RTVSPost2010Prop52
140
1.0
102
RTVSPost2010PropOp52
 70
     0
102
RTVSPost2010Prop53
 90
        2
102
RTVSPost2010PropOp53
 70
     1
102
RTVSPost2010Prop54
  1
strokes_ogs.tif
102
RTVSPost2010PropOp54
 70
     1
102
RTVSPost2010Prop55
280
     0
102
RTVSPost2010PropOp55
 70
     1
102
RTVSPost2010Prop56
140
1.0
102
RTVSPost2010PropOp56
 70
     1
102
RTVSPost2010Prop57
140
1.0
102
RTVSPost2010PropOp57
 70
     1
  0
XRECORD
  5
6A9A
102
{ACAD_REACTORS
330
6A99
102
}
330
6A99
100
AcDbXrecord
280
     1
102
RTVSPost2010Prop28
280
     0
102
RTVSPost2010PropOp28
 70
     1
102
RTVSPost2010Prop29
280
     1
102
RTVSPost2010PropOp29
 70
     1
102
RTVSPost2010Prop30
280
     1
102
RTVSPost2010PropOp30
 70
     1
102
RTVSPost2010Prop31
280
     0
102
RTVSPost2010PropOp31
 70
     1
102
RTVSPost2010Prop32
280
     0
102
RTVSPost2010PropOp32
 70
     1
102
RTVSPost2010Prop33
280
     0
102
RTVSPost2010PropOp33
 70
     1
102
RTVSPost2010Prop34
280
     0
102
RTVSPost2010PropOp34
 70
     1
102
RTVSPost2010Prop35
280
     0
102
RTVSPost2010PropOp35
 70
     1
102
RTVSPost2010Prop36
280
     0
102
RTVSPost2010PropOp36
 70
     1
102
RTVSPost2010Prop37
 90
       50
102
RTVSPost2010PropOp37
 70
     1
102
RTVSPost2010Prop38
140
0.0
102
RTVSPost2010PropOp38
 70
     1
102
RTVSPost2010Prop39
140
1.0
102
RTVSPost2010PropOp39
 70
     1
102
RTVSPost2010Prop40
 90
        0
102
RTVSPost2010PropOp40
 70
     1
102
RTVSPost2010Prop41ColorIndex
 90
       18
102
RTVSPost2010Prop41ColorRGB
 90
        0
102
RTVSPost2010PropOp41
 70
     1
102
RTVSPost2010Prop42
 90
       50
102
RTVSPost2010PropOp42
 70
     1
102
RTVSPost2010Prop43
 90
        3
102
RTVSPost2010PropOp43
 70
     1
102
RTVSPost2010Prop44ColorIndex
 90
        5
102
RTVSPost2010Prop44ColorRGB
 90
      255
102
RTVSPost2010PropOp44
 70
     1
102
RTVSPost2010Prop45
280
     0
102
RTVSPost2010PropOp45
 70
     1
102
RTVSPost2010Prop46
 90
       50
102
RTVSPost2010PropOp46
 70
     1
102
RTVSPost2010Prop47
 90
       50
102
RTVSPost2010PropOp47
 70
     1
102
RTVSPost2010Prop48
 90
       50
102
RTVSPost2010PropOp48
 70
     1
102
RTVSPost2010Prop49
280
     0
102
RTVSPost2010PropOp49
 70
     1
102
RTVSPost2010Prop50
 90
       50
102
RTVSPost2010PropOp50
 70
     1
102
RTVSPost2010Prop51ColorIndex
 90
      256
102
RTVSPost2010Prop51ColorRGB
 90
-16777216
102
RTVSPost2010PropOp51
 70
     0
102
RTVSPost2010Prop52
140
1.0
102
RTVSPost2010PropOp52
 70
     0
102
RTVSPost2010Prop53
 90
        2
102
RTVSPost2010PropOp53
 70
     1
102
RTVSPost2010Prop54
  1
strokes_ogs.tif
102
RTVSPost2010PropOp54
 70
     1
102
RTVSPost2010Prop55
280
     0
102
RTVSPost2010PropOp55
 70
     1
102
RTVSPost2010Prop56
140
1.0
102
RTVSPost2010PropOp56
 70
     1
102
RTVSPost2010Prop57
140
1.0
102
RTVSPost2010PropOp57
 70
     1
  0
XRECORD
  5
6A98
102
{ACAD_REACTORS
330
6A97
102
}
330
6A97
100
AcDbXrecord
280
     1
102
RTVSPost2010Prop28
280
     0
102
RTVSPost2010PropOp28
 70
     1
102
RTVSPost2010Prop29
280
     1
102
RTVSPost2010PropOp29
 70
     1
102
RTVSPost2010Prop30
280
     1
102
RTVSPost2010PropOp30
 70
     1
102
RTVSPost2010Prop31
280
     0
102
RTVSPost2010PropOp31
 70
     1
102
RTVSPost2010Prop32
280
     0
102
RTVSPost2010PropOp32
 70
     1
102
RTVSPost2010Prop33
280
     0
102
RTVSPost2010PropOp33
 70
     1
102
RTVSPost2010Prop34
280
     0
102
RTVSPost2010PropOp34
 70
     1
102
RTVSPost2010Prop35
280
     0
102
RTVSPost2010PropOp35
 70
     1
102
RTVSPost2010Prop36
280
     0
102
RTVSPost2010PropOp36
 70
     1
102
RTVSPost2010Prop37
 90
       50
102
RTVSPost2010PropOp37
 70
     1
102
RTVSPost2010Prop38
140
0.0
102
RTVSPost2010PropOp38
 70
     1
102
RTVSPost2010Prop39
140
1.0
102
RTVSPost2010PropOp39
 70
     1
102
RTVSPost2010Prop40
 90
        0
102
RTVSPost2010PropOp40
 70
     1
102
RTVSPost2010Prop41ColorIndex
 90
       18
102
RTVSPost2010Prop41ColorRGB
 90
        0
102
RTVSPost2010PropOp41
 70
     1
102
RTVSPost2010Prop42
 90
       50
102
RTVSPost2010PropOp42
 70
     1
102
RTVSPost2010Prop43
 90
        3
102
RTVSPost2010PropOp43
 70
     1
102
RTVSPost2010Prop44ColorIndex
 90
        5
102
RTVSPost2010Prop44ColorRGB
 90
      255
102
RTVSPost2010PropOp44
 70
     1
102
RTVSPost2010Prop45
280
     0
102
RTVSPost2010PropOp45
 70
     1
102
RTVSPost2010Prop46
 90
       50
102
RTVSPost2010PropOp46
 70
     1
102
RTVSPost2010Prop47
 90
       50
102
RTVSPost2010PropOp47
 70
     1
102
RTVSPost2010Prop48
 90
       50
102
RTVSPost2010PropOp48
 70
     1
102
RTVSPost2010Prop49
280
     0
102
RTVSPost2010PropOp49
 70
     1
102
RTVSPost2010Prop50
 90
       50
102
RTVSPost2010PropOp50
 70
     1
102
RTVSPost2010Prop51ColorIndex
 90
      256
102
RTVSPost2010Prop51ColorRGB
 90
-16777216
102
RTVSPost2010PropOp51
 70
     0
102
RTVSPost2010Prop52
140
1.0
102
RTVSPost2010PropOp52
 70
     0
102
RTVSPost2010Prop53
 90
        2
102
RTVSPost2010PropOp53
 70
     1
102
RTVSPost2010Prop54
  1
strokes_ogs.tif
102
RTVSPost2010PropOp54
 70
     1
102
RTVSPost2010Prop55
280
     0
102
RTVSPost2010PropOp55
 70
     1
102
RTVSPost2010Prop56
140
1.0
102
RTVSPost2010PropOp56
 70
     1
102
RTVSPost2010Prop57
140
1.0
102
RTVSPost2010PropOp57
 70
     1
  0
XRECORD
  5
6A92
102
{ACAD_REACTORS
330
6A91
102
}
330
6A91
100
AcDbXrecord
280
     1
102
RTVSPost2010Prop28
280
     0
102
RTVSPost2010PropOp28
 70
     1
102
RTVSPost2010Prop29
280
     1
102
RTVSPost2010PropOp29
 70
     1
102
RTVSPost2010Prop30
280
     1
102
RTVSPost2010PropOp30
 70
     1
102
RTVSPost2010Prop31
280
     0
102
RTVSPost2010PropOp31
 70
     1
102
RTVSPost2010Prop32
280
     0
102
RTVSPost2010PropOp32
 70
     1
102
RTVSPost2010Prop33
280
     0
102
RTVSPost2010PropOp33
 70
     1
102
RTVSPost2010Prop34
280
     0
102
RTVSPost2010PropOp34
 70
     1
102
RTVSPost2010Prop35
280
     0
102
RTVSPost2010PropOp35
 70
     1
102
RTVSPost2010Prop36
280
     0
102
RTVSPost2010PropOp36
 70
     1
102
RTVSPost2010Prop37
 90
       50
102
RTVSPost2010PropOp37
 70
     1
102
RTVSPost2010Prop38
140
0.0
102
RTVSPost2010PropOp38
 70
     1
102
RTVSPost2010Prop39
140
1.0
102
RTVSPost2010PropOp39
 70
     1
102
RTVSPost2010Prop40
 90
        0
102
RTVSPost2010PropOp40
 70
     1
102
RTVSPost2010Prop41ColorIndex
 90
       18
102
RTVSPost2010Prop41ColorRGB
 90
        0
102
RTVSPost2010PropOp41
 70
     1
102
RTVSPost2010Prop42
 90
       50
102
RTVSPost2010PropOp42
 70
     1
102
RTVSPost2010Prop43
 90
        3
102
RTVSPost2010PropOp43
 70
     1
102
RTVSPost2010Prop44ColorIndex
 90
        5
102
RTVSPost2010Prop44ColorRGB
 90
      255
102
RTVSPost2010PropOp44
 70
     1
102
RTVSPost2010Prop45
280
     0
102
RTVSPost2010PropOp45
 70
     1
102
RTVSPost2010Prop46
 90
       50
102
RTVSPost2010PropOp46
 70
     1
102
RTVSPost2010Prop47
 90
       50
102
RTVSPost2010PropOp47
 70
     1
102
RTVSPost2010Prop48
 90
       50
102
RTVSPost2010PropOp48
 70
     1
102
RTVSPost2010Prop49
280
     0
102
RTVSPost2010PropOp49
 70
     1
102
RTVSPost2010Prop50
 90
       50
102
RTVSPost2010PropOp50
 70
     1
102
RTVSPost2010Prop51ColorIndex
 90
      256
102
RTVSPost2010Prop51ColorRGB
 90
-16777216
102
RTVSPost2010PropOp51
 70
     0
102
RTVSPost2010Prop52
140
1.0
102
RTVSPost2010PropOp52
 70
     0
102
RTVSPost2010Prop53
 90
        2
102
RTVSPost2010PropOp53
 70
     1
102
RTVSPost2010Prop54
  1
strokes_ogs.tif
102
RTVSPost2010PropOp54
 70
     1
102
RTVSPost2010Prop55
280
     0
102
RTVSPost2010PropOp55
 70
     1
102
RTVSPost2010Prop56
140
1.0
102
RTVSPost2010PropOp56
 70
     1
102
RTVSPost2010Prop57
140
1.0
102
RTVSPost2010PropOp57
 70
     1
  0
XRECORD
  5
6A94
102
{ACAD_REACTORS
330
6A93
102
}
330
6A93
100
AcDbXrecord
280
     1
102
RTVSPost2010Prop28
280
     0
102
RTVSPost2010PropOp28
 70
     1
102
RTVSPost2010Prop29
280
     1
102
RTVSPost2010PropOp29
 70
     1
102
RTVSPost2010Prop30
280
     1
102
RTVSPost2010PropOp30
 70
     1
102
RTVSPost2010Prop31
280
     0
102
RTVSPost2010PropOp31
 70
     1
102
RTVSPost2010Prop32
280
     0
102
RTVSPost2010PropOp32
 70
     1
102
RTVSPost2010Prop33
280
     0
102
RTVSPost2010PropOp33
 70
     1
102
RTVSPost2010Prop34
280
     0
102
RTVSPost2010PropOp34
 70
     1
102
RTVSPost2010Prop35
280
     0
102
RTVSPost2010PropOp35
 70
     1
102
RTVSPost2010Prop36
280
     0
102
RTVSPost2010PropOp36
 70
     1
102
RTVSPost2010Prop37
 90
       50
102
RTVSPost2010PropOp37
 70
     1
102
RTVSPost2010Prop38
140
0.0
102
RTVSPost2010PropOp38
 70
     1
102
RTVSPost2010Prop39
140
1.0
102
RTVSPost2010PropOp39
 70
     1
102
RTVSPost2010Prop40
 90
        0
102
RTVSPost2010PropOp40
 70
     1
102
RTVSPost2010Prop41ColorIndex
 90
       18
102
RTVSPost2010Prop41ColorRGB
 90
        0
102
RTVSPost2010PropOp41
 70
     1
102
RTVSPost2010Prop42
 90
       50
102
RTVSPost2010PropOp42
 70
     1
102
RTVSPost2010Prop43
 90
        3
102
RTVSPost2010PropOp43
 70
     1
102
RTVSPost2010Prop44ColorIndex
 90
        5
102
RTVSPost2010Prop44ColorRGB
 90
      255
102
RTVSPost2010PropOp44
 70
     1
102
RTVSPost2010Prop45
280
     0
102
RTVSPost2010PropOp45
 70
     1
102
RTVSPost2010Prop46
 90
       50
102
RTVSPost2010PropOp46
 70
     1
102
RTVSPost2010Prop47
 90
       50
102
RTVSPost2010PropOp47
 70
     1
102
RTVSPost2010Prop48
 90
       50
102
RTVSPost2010PropOp48
 70
     1
102
RTVSPost2010Prop49
280
     0
102
RTVSPost2010PropOp49
 70
     1
102
RTVSPost2010Prop50
 90
       50
102
RTVSPost2010PropOp50
 70
     1
102
RTVSPost2010Prop51ColorIndex
 90
      256
102
RTVSPost2010Prop51ColorRGB
 90
-16777216
102
RTVSPost2010PropOp51
 70
     0
102
RTVSPost2010Prop52
140
1.0
102
RTVSPost2010PropOp52
 70
     0
102
RTVSPost2010Prop53
 90
        2
102
RTVSPost2010PropOp53
 70
     1
102
RTVSPost2010Prop54
  1
strokes_ogs.tif
102
RTVSPost2010PropOp54
 70
     1
102
RTVSPost2010Prop55
280
     0
102
RTVSPost2010PropOp55
 70
     1
102
RTVSPost2010Prop56
140
1.0
102
RTVSPost2010PropOp56
 70
     1
102
RTVSPost2010Prop57
140
1.0
102
RTVSPost2010PropOp57
 70
     1
  0
XRECORD
  5
6A80
102
{ACAD_REACTORS
330
6A7F
102
}
330
6A7F
100
AcDbXrecord
280
     1
102
RTVSPost2010Prop28
280
     0
102
RTVSPost2010PropOp28
 70
     1
102
RTVSPost2010Prop29
280
     1
102
RTVSPost2010PropOp29
 70
     1
102
RTVSPost2010Prop30
280
     1
102
RTVSPost2010PropOp30
 70
     1
102
RTVSPost2010Prop31
280
     0
102
RTVSPost2010PropOp31
 70
     1
102
RTVSPost2010Prop32
280
     0
102
RTVSPost2010PropOp32
 70
     1
102
RTVSPost2010Prop33
280
     0
102
RTVSPost2010PropOp33
 70
     1
102
RTVSPost2010Prop34
280
     0
102
RTVSPost2010PropOp34
 70
     1
102
RTVSPost2010Prop35
280
     0
102
RTVSPost2010PropOp35
 70
     1
102
RTVSPost2010Prop36
280
     0
102
RTVSPost2010PropOp36
 70
     1
102
RTVSPost2010Prop37
 90
       50
102
RTVSPost2010PropOp37
 70
     1
102
RTVSPost2010Prop38
140
0.0
102
RTVSPost2010PropOp38
 70
     1
102
RTVSPost2010Prop39
140
1.0
102
RTVSPost2010PropOp39
 70
     1
102
RTVSPost2010Prop40
 90
        0
102
RTVSPost2010PropOp40
 70
     1
102
RTVSPost2010Prop41ColorIndex
 90
       18
102
RTVSPost2010Prop41ColorRGB
 90
        0
102
RTVSPost2010PropOp41
 70
     1
102
RTVSPost2010Prop42
 90
       50
102
RTVSPost2010PropOp42
 70
     1
102
RTVSPost2010Prop43
 90
        3
102
RTVSPost2010PropOp43
 70
     1
102
RTVSPost2010Prop44ColorIndex
 90
        5
102
RTVSPost2010Prop44ColorRGB
 90
      255
102
RTVSPost2010PropOp44
 70
     1
102
RTVSPost2010Prop45
280
     0
102
RTVSPost2010PropOp45
 70
     1
102
RTVSPost2010Prop46
 90
       50
102
RTVSPost2010PropOp46
 70
     1
102
RTVSPost2010Prop47
 90
       50
102
RTVSPost2010PropOp47
 70
     1
102
RTVSPost2010Prop48
 90
       50
102
RTVSPost2010PropOp48
 70
     1
102
RTVSPost2010Prop49
280
     0
102
RTVSPost2010PropOp49
 70
     1
102
RTVSPost2010Prop50
 90
       50
102
RTVSPost2010PropOp50
 70
     1
102
RTVSPost2010Prop51ColorIndex
 90
      256
102
RTVSPost2010Prop51ColorRGB
 90
-16777216
102
RTVSPost2010PropOp51
 70
     0
102
RTVSPost2010Prop52
140
1.0
102
RTVSPost2010PropOp52
 70
     0
102
RTVSPost2010Prop53
 90
        2
102
RTVSPost2010PropOp53
 70
     1
102
RTVSPost2010Prop54
  1
strokes_ogs.tif
102
RTVSPost2010PropOp54
 70
     1
102
RTVSPost2010Prop55
280
     0
102
RTVSPost2010PropOp55
 70
     1
102
RTVSPost2010Prop56
140
1.0
102
RTVSPost2010PropOp56
 70
     1
102
RTVSPost2010Prop57
140
1.0
102
RTVSPost2010PropOp57
 70
     1
  0
XRECORD
  5
6A8E
102
{ACAD_REACTORS
330
6A8D
102
}
330
6A8D
100
AcDbXrecord
280
     1
102
RTVSPost2010Prop28
280
     0
102
RTVSPost2010PropOp28
 70
     1
102
RTVSPost2010Prop29
280
     1
102
RTVSPost2010PropOp29
 70
     1
102
RTVSPost2010Prop30
280
     1
102
RTVSPost2010PropOp30
 70
     1
102
RTVSPost2010Prop31
280
     0
102
RTVSPost2010PropOp31
 70
     1
102
RTVSPost2010Prop32
280
     0
102
RTVSPost2010PropOp32
 70
     1
102
RTVSPost2010Prop33
280
     0
102
RTVSPost2010PropOp33
 70
     1
102
RTVSPost2010Prop34
280
     0
102
RTVSPost2010PropOp34
 70
     1
102
RTVSPost2010Prop35
280
     0
102
RTVSPost2010PropOp35
 70
     1
102
RTVSPost2010Prop36
280
     0
102
RTVSPost2010PropOp36
 70
     1
102
RTVSPost2010Prop37
 90
       50
102
RTVSPost2010PropOp37
 70
     1
102
RTVSPost2010Prop38
140
0.0
102
RTVSPost2010PropOp38
 70
     1
102
RTVSPost2010Prop39
140
1.0
102
RTVSPost2010PropOp39
 70
     1
102
RTVSPost2010Prop40
 90
        0
102
RTVSPost2010PropOp40
 70
     1
102
RTVSPost2010Prop41ColorIndex
 90
       18
102
RTVSPost2010Prop41ColorRGB
 90
        0
102
RTVSPost2010PropOp41
 70
     1
102
RTVSPost2010Prop42
 90
       50
102
RTVSPost2010PropOp42
 70
     1
102
RTVSPost2010Prop43
 90
        3
102
RTVSPost2010PropOp43
 70
     1
102
RTVSPost2010Prop44ColorIndex
 90
        5
102
RTVSPost2010Prop44ColorRGB
 90
      255
102
RTVSPost2010PropOp44
 70
     1
102
RTVSPost2010Prop45
280
     0
102
RTVSPost2010PropOp45
 70
     1
102
RTVSPost2010Prop46
 90
       50
102
RTVSPost2010PropOp46
 70
     1
102
RTVSPost2010Prop47
 90
       50
102
RTVSPost2010PropOp47
 70
     1
102
RTVSPost2010Prop48
 90
       50
102
RTVSPost2010PropOp48
 70
     1
102
RTVSPost2010Prop49
280
     0
102
RTVSPost2010PropOp49
 70
     1
102
RTVSPost2010Prop50
 90
       50
102
RTVSPost2010PropOp50
 70
     1
102
RTVSPost2010Prop51ColorIndex
 90
      256
102
RTVSPost2010Prop51ColorRGB
 90
-16777216
102
RTVSPost2010PropOp51
 70
     0
102
RTVSPost2010Prop52
140
1.0
102
RTVSPost2010PropOp52
 70
     0
102
RTVSPost2010Prop53
 90
        2
102
RTVSPost2010PropOp53
 70
     1
102
RTVSPost2010Prop54
  1
strokes_ogs.tif
102
RTVSPost2010PropOp54
 70
     1
102
RTVSPost2010Prop55
280
     0
102
RTVSPost2010PropOp55
 70
     1
102
RTVSPost2010Prop56
140
1.0
102
RTVSPost2010PropOp56
 70
     1
102
RTVSPost2010Prop57
140
1.0
102
RTVSPost2010PropOp57
 70
     1
  0
XRECORD
  5
6A96
102
{ACAD_REACTORS
330
6A95
102
}
330
6A95
100
AcDbXrecord
280
     1
102
RTVSPost2010Prop28
280
     0
102
RTVSPost2010PropOp28
 70
     1
102
RTVSPost2010Prop29
280
     1
102
RTVSPost2010PropOp29
 70
     1
102
RTVSPost2010Prop30
280
     1
102
RTVSPost2010PropOp30
 70
     1
102
RTVSPost2010Prop31
280
     0
102
RTVSPost2010PropOp31
 70
     1
102
RTVSPost2010Prop32
280
     0
102
RTVSPost2010PropOp32
 70
     1
102
RTVSPost2010Prop33
280
     0
102
RTVSPost2010PropOp33
 70
     1
102
RTVSPost2010Prop34
280
     0
102
RTVSPost2010PropOp34
 70
     1
102
RTVSPost2010Prop35
280
     0
102
RTVSPost2010PropOp35
 70
     1
102
RTVSPost2010Prop36
280
     0
102
RTVSPost2010PropOp36
 70
     1
102
RTVSPost2010Prop37
 90
       50
102
RTVSPost2010PropOp37
 70
     1
102
RTVSPost2010Prop38
140
0.0
102
RTVSPost2010PropOp38
 70
     1
102
RTVSPost2010Prop39
140
1.0
102
RTVSPost2010PropOp39
 70
     1
102
RTVSPost2010Prop40
 90
        0
102
RTVSPost2010PropOp40
 70
     1
102
RTVSPost2010Prop41ColorIndex
 90
       18
102
RTVSPost2010Prop41ColorRGB
 90
        0
102
RTVSPost2010PropOp41
 70
     1
102
RTVSPost2010Prop42
 90
       50
102
RTVSPost2010PropOp42
 70
     1
102
RTVSPost2010Prop43
 90
        3
102
RTVSPost2010PropOp43
 70
     1
102
RTVSPost2010Prop44ColorIndex
 90
        5
102
RTVSPost2010Prop44ColorRGB
 90
      255
102
RTVSPost2010PropOp44
 70
     1
102
RTVSPost2010Prop45
280
     0
102
RTVSPost2010PropOp45
 70
     1
102
RTVSPost2010Prop46
 90
       50
102
RTVSPost2010PropOp46
 70
     1
102
RTVSPost2010Prop47
 90
       50
102
RTVSPost2010PropOp47
 70
     1
102
RTVSPost2010Prop48
 90
       50
102
RTVSPost2010PropOp48
 70
     1
102
RTVSPost2010Prop49
280
     0
102
RTVSPost2010PropOp49
 70
     1
102
RTVSPost2010Prop50
 90
       50
102
RTVSPost2010PropOp50
 70
     1
102
RTVSPost2010Prop51ColorIndex
 90
      256
102
RTVSPost2010Prop51ColorRGB
 90
-16777216
102
RTVSPost2010PropOp51
 70
     0
102
RTVSPost2010Prop52
140
1.0
102
RTVSPost2010PropOp52
 70
     0
102
RTVSPost2010Prop53
 90
        2
102
RTVSPost2010PropOp53
 70
     1
102
RTVSPost2010Prop54
  1
strokes_ogs.tif
102
RTVSPost2010PropOp54
 70
     1
102
RTVSPost2010Prop55
280
     0
102
RTVSPost2010PropOp55
 70
     1
102
RTVSPost2010Prop56
140
1.0
102
RTVSPost2010PropOp56
 70
     1
102
RTVSPost2010Prop57
140
1.0
102
RTVSPost2010PropOp57
 70
     1
  0
ENDSEC
  0
EOF
